<?xml version="1.0" standalone="no"?>
<!DOCTYPE svg PUBLIC "-//W3C//DTD SVG 1.1//EN" "http://www.w3.org/Graphics/SVG/1.1/DTD/svg11.dtd" >
<svg xmlns="http://www.w3.org/2000/svg" xmlns:xlink="http://www.w3.org/1999/xlink" version="1.1">
<metadata>
Created by FontForge 20170812 at Mon Sep  5 11:57:40 2016
 By www-data
Copyright \(c\) 2016 by Chris Simpson.
</metadata>
<defs>
<font id="Metropolis-ExtraBold" horiz-adv-x="667" >
  <font-face 
    font-family="Metropolis Extra Bold"
    font-weight="800"
    font-stretch="normal"
    units-per-em="1000"
    panose-1="0 0 9 0 0 0 0 0 0 0"
    ascent="795"
    descent="-205"
    x-height="517"
    cap-height="687"
    bbox="-228 -296 1203 983"
    underline-thickness="20"
    underline-position="-133"
    stemh="135"
    stemv="162"
    unicode-range="U+0020-2212"
  />
<missing-glyph horiz-adv-x="500" 
d="M410 795v-1000h-317v1000h317zM333 728h-165v-33h65v-37h-66v-33h166v33h-66v37h66v33zM267 599h-100v-104h166v34h-66v70zM233 565v-36h-33v36h33zM333 468h-166v-33h66v-37h-66v-33h100v70h66v33zM333 408h-33v-66h-133v-34h166v100zM333 286h-100v-56h34v23h33v-47
h-100v80h-33v-113h166v113zM333 113h-166v-113h166v113zM300 80v-47h-100v47h100zM333 -23h-166v-33h70l-70 -47v-33h166v33h-102l70 47h32v33z" />
    <glyph glyph-name=".notdef" horiz-adv-x="500" 
d="M410 795v-1000h-317v1000h317zM333 728h-165v-33h65v-37h-66v-33h166v33h-66v37h66v33zM267 599h-100v-104h166v34h-66v70zM233 565v-36h-33v36h33zM333 468h-166v-33h66v-37h-66v-33h100v70h66v33zM333 408h-33v-66h-133v-34h166v100zM333 286h-100v-56h34v23h33v-47
h-100v80h-33v-113h166v113zM333 113h-166v-113h166v113zM300 80v-47h-100v47h100zM333 -23h-166v-33h70l-70 -47v-33h166v33h-102l70 47h32v33z" />
    <glyph glyph-name="A" unicode="A" horiz-adv-x="750" 
d="M551 0l-40 100h-272l-40 -100h-192l272 687h192l272 -687h-192zM292 234h166l-83 211z" />
    <glyph glyph-name="Aacute" unicode="&#xc1;" horiz-adv-x="750" 
d="M579 878l-150 -134h-112l114 160zM551 0l-40 100h-272l-40 -100h-192l272 687h192l272 -687h-192zM292 234h166l-83 211z" />
    <glyph glyph-name="Abreve" unicode="&#x102;" horiz-adv-x="750" 
d="M542 817c-46 -46 -106 -69 -166 -69s-119 23 -166 69l69 68c27 -27 63 -43 97 -43s70 16 97 43zM551 0l-40 100h-272l-40 -100h-192l272 687h192l272 -687h-192zM292 234h166l-83 211z" />
    <glyph glyph-name="Acircumflex" unicode="&#xc2;" horiz-adv-x="750" 
d="M376 815l-74 -71h-101l106 151h138l108 -151h-102zM551 0l-40 100h-272l-40 -100h-192l272 687h192l272 -687h-192zM292 234h166l-83 211z" />
    <glyph glyph-name="Adieresis" unicode="&#xc4;" horiz-adv-x="750" 
d="M267 749c-45 0 -79 36 -79 79c0 42 34 78 79 78c42 0 78 -36 78 -78c0 -43 -36 -79 -78 -79zM485 749c-44 0 -79 36 -79 79c0 42 35 78 79 78s78 -36 78 -78c0 -43 -34 -79 -78 -79zM551 0l-40 100h-272l-40 -100h-192l272 687h192l272 -687h-192zM292 234h166l-83 211z
" />
    <glyph glyph-name="Agrave" unicode="&#xc0;" horiz-adv-x="750" 
d="M436 744h-112l-150 134l149 26zM551 0l-40 100h-272l-40 -100h-192l272 687h192l272 -687h-192zM292 234h166l-83 211z" />
    <glyph glyph-name="Amacron" unicode="&#x100;" horiz-adv-x="750" 
d="M554 843v-96h-357v96h357zM551 0l-40 100h-272l-40 -100h-192l272 687h192l272 -687h-192zM292 234h166l-83 211z" />
    <glyph glyph-name="Aogonek" unicode="&#x104;" horiz-adv-x="750" 
d="M778 -64l24 -75c-23 -20 -54 -34 -92 -34c-65 0 -111 43 -111 113c0 23 6 43 17 60h-65l-40 100h-272l-40 -100h-192l272 687h192l272 -687c-25 0 -42 -17 -42 -40c0 -24 17 -36 43 -36c13 0 26 5 34 12zM292 234h166l-83 211z" />
    <glyph glyph-name="Aring" unicode="&#xc5;" horiz-adv-x="750" 
d="M376 748c-64 0 -117 52 -117 117s53 118 117 118c65 0 118 -53 118 -118s-53 -117 -118 -117zM376 916c-28 0 -51 -23 -51 -51s23 -51 51 -51s51 23 51 51s-23 51 -51 51zM551 0l-40 100h-272l-40 -100h-192l272 687h192l272 -687h-192zM292 234h166l-83 211z" />
    <glyph glyph-name="Atilde" unicode="&#xc3;" horiz-adv-x="750" 
d="M312 788c-21 0 -33 -15 -40 -47l-81 11c11 92 47 137 116 137c55 0 103 -46 132 -46c22 0 34 15 40 47l81 -12c-10 -91 -46 -136 -116 -136c-56 0 -102 46 -132 46zM551 0l-40 100h-272l-40 -100h-192l272 687h192l272 -687h-192zM292 234h166l-83 211z" />
    <glyph glyph-name="AE" unicode="&#xc6;" horiz-adv-x="1095" 
d="M1054 534h-370v-107h336v-153h-336v-121h370v-153h-541v105h-248l-61 -105h-197l397 687h650v-153zM339 234h174v301z" />
    <glyph glyph-name="B" unicode="B" horiz-adv-x="705" 
d="M67 0v687h359c127 0 215 -73 215 -173c0 -68 -35 -123 -95 -153c79 -35 126 -100 126 -175c0 -110 -97 -186 -233 -186h-372zM237 415h147c47 0 81 27 81 64s-34 63 -81 63h-147v-127zM237 145h173c50 0 86 29 86 69s-36 69 -86 69h-173v-138z" />
    <glyph glyph-name="C" unicode="C" horiz-adv-x="701" 
d="M407 -12c-200 0 -369 163 -369 356s169 355 369 355c107 0 205 -46 273 -118l-125 -111c-36 45 -90 74 -148 74c-105 0 -194 -92 -194 -200c0 -109 89 -201 194 -201c59 0 112 29 149 74l124 -110c-68 -73 -166 -119 -273 -119z" />
    <glyph glyph-name="Cacute" unicode="&#x106;" horiz-adv-x="701" 
d="M272 744l114 160l148 -26l-150 -134h-112zM407 -12c-200 0 -369 163 -369 356s169 355 369 355c107 0 205 -46 273 -118l-125 -111c-36 45 -90 74 -148 74c-105 0 -194 -92 -194 -200c0 -109 89 -201 194 -201c59 0 112 29 149 74l124 -110c-68 -73 -166 -119 -273 -119z
" />
    <glyph glyph-name="Ccaron" unicode="&#x10c;" horiz-adv-x="701" 
d="M314 744l-106 151h101l74 -71l75 71h102l-108 -151h-138zM407 -12c-200 0 -369 163 -369 356s169 355 369 355c107 0 205 -46 273 -118l-125 -111c-36 45 -90 74 -148 74c-105 0 -194 -92 -194 -200c0 -109 89 -201 194 -201c59 0 112 29 149 74l124 -110
c-68 -73 -166 -119 -273 -119z" />
    <glyph glyph-name="Ccedilla" unicode="&#xc7;" horiz-adv-x="701" 
d="M407 143c59 0 112 29 149 74l124 -110c-62 -66 -148 -110 -243 -118l-14 -32c44 -1 74 -29 74 -68c0 -55 -47 -87 -111 -87c-38 0 -75 12 -97 29l29 63c17 -14 39 -23 59 -23c21 0 39 10 39 28c0 15 -11 24 -30 24c-10 0 -21 -3 -29 -9l-24 23l24 54
c-178 25 -319 176 -319 353c0 193 169 355 369 355c107 0 205 -46 273 -118l-125 -111c-36 45 -90 74 -148 74c-105 0 -194 -92 -194 -200c0 -109 89 -201 194 -201z" />
    <glyph glyph-name="D" unicode="D" horiz-adv-x="760" 
d="M67 0v687h251c236 0 402 -142 402 -343s-166 -344 -402 -344h-251zM238 155h106c117 0 201 79 201 189s-84 188 -201 188h-106v-377z" />
    <glyph glyph-name="Eth" unicode="&#xd0;" horiz-adv-x="810" 
d="M368 687c236 0 402 -142 402 -343s-166 -344 -402 -344h-251v269h-77v153h77v265h251zM394 155c117 0 201 79 201 189s-84 188 -201 188h-106v-110h141l-1 -153h-140v-114h106z" />
    <glyph glyph-name="Dcaron" unicode="&#x10e;" horiz-adv-x="760" 
d="M249 744l-106 151h101l74 -71l75 71h102l-108 -151h-138zM67 0v687h251c236 0 402 -142 402 -343s-166 -344 -402 -344h-251zM238 155h106c117 0 201 79 201 189s-84 188 -201 188h-106v-377z" />
    <glyph glyph-name="Dcroat" unicode="&#x110;" horiz-adv-x="810" 
d="M368 687c236 0 402 -142 402 -343s-166 -344 -402 -344h-251v269h-77v153h77v265h251zM394 155c117 0 201 79 201 189s-84 188 -201 188h-106v-110h141l-1 -153h-140v-114h106z" />
    <glyph glyph-name="E" unicode="E" horiz-adv-x="646" 
d="M605 534h-370v-107h336v-153h-336v-121h370v-153h-541v687h541v-153z" />
    <glyph glyph-name="Eacute" unicode="&#xc9;" horiz-adv-x="646" 
d="M486 878l-150 -134h-112l114 160zM605 534h-370v-107h336v-153h-336v-121h370v-153h-541v687h541v-153z" />
    <glyph glyph-name="Ecaron" unicode="&#x11a;" horiz-adv-x="646" 
d="M404 744h-138l-106 151h101l74 -71l75 71h102zM605 534h-370v-107h336v-153h-336v-121h370v-153h-541v687h541v-153z" />
    <glyph glyph-name="Ecircumflex" unicode="&#xca;" horiz-adv-x="646" 
d="M335 815l-74 -71h-101l106 151h138l108 -151h-102zM605 534h-370v-107h336v-153h-336v-121h370v-153h-541v687h541v-153z" />
    <glyph glyph-name="Edieresis" unicode="&#xcb;" horiz-adv-x="646" 
d="M226 749c-45 0 -79 36 -79 79c0 42 34 78 79 78c42 0 78 -36 78 -78c0 -43 -36 -79 -78 -79zM444 749c-44 0 -79 36 -79 79c0 42 35 78 79 78s78 -36 78 -78c0 -43 -34 -79 -78 -79zM605 534h-370v-107h336v-153h-336v-121h370v-153h-541v687h541v-153z" />
    <glyph glyph-name="Edotaccent" unicode="&#x116;" horiz-adv-x="646" 
d="M335 749c-45 0 -79 36 -79 79c0 42 34 78 79 78c42 0 78 -36 78 -78c0 -43 -36 -79 -78 -79zM605 534h-370v-107h336v-153h-336v-121h370v-153h-541v687h541v-153z" />
    <glyph glyph-name="uni1EB8" unicode="&#x1eb8;" horiz-adv-x="646" 
d="M605 534h-370v-107h336v-153h-336v-121h370v-153h-541v687h541v-153zM336 -67c42 0 78 -36 78 -78c0 -43 -36 -79 -78 -79c-45 0 -79 36 -79 79c0 42 34 78 79 78z" />
    <glyph glyph-name="Egrave" unicode="&#xc8;" horiz-adv-x="646" 
d="M436 744h-112l-150 134l149 26zM605 534h-370v-107h336v-153h-336v-121h370v-153h-541v687h541v-153z" />
    <glyph glyph-name="Emacron" unicode="&#x112;" horiz-adv-x="646" 
d="M513 843v-96h-357v96h357zM605 534h-370v-107h336v-153h-336v-121h370v-153h-541v687h541v-153z" />
    <glyph glyph-name="Eogonek" unicode="&#x118;" horiz-adv-x="646" 
d="M605 534h-370v-107h336v-153h-336v-121h370v-153h-59c-25 0 -42 -17 -42 -40c0 -24 17 -36 43 -36c13 0 26 5 34 12l24 -75c-23 -20 -54 -34 -92 -34c-65 0 -111 43 -111 113c0 23 6 43 17 60h-355v687h541v-153z" />
    <glyph glyph-name="uni1EBC" unicode="&#x1ebc;" horiz-adv-x="646" 
d="M271 788c-21 0 -33 -15 -40 -47l-81 11c11 92 47 137 116 137c55 0 103 -46 132 -46c22 0 34 15 40 47l81 -12c-10 -91 -46 -136 -116 -136c-56 0 -102 46 -132 46zM605 534h-370v-107h336v-153h-336v-121h370v-153h-541v687h541v-153z" />
    <glyph glyph-name="F" unicode="F" horiz-adv-x="643" 
d="M605 534h-370v-123h336v-153h-336v-258h-171v687h541v-153z" />
    <glyph glyph-name="G" unicode="G" horiz-adv-x="742" 
d="M379 265v129h313v-287c-70 -75 -175 -119 -281 -119c-203 0 -373 163 -373 356s170 355 373 355c106 0 211 -44 281 -118l-125 -111c-37 46 -97 74 -156 74c-107 0 -198 -92 -198 -200c0 -109 91 -201 198 -201c40 0 81 13 115 36v86h-147z" />
    <glyph glyph-name="Gbreve" unicode="&#x11e;" horiz-adv-x="742" 
d="M577 817c-46 -46 -106 -69 -166 -69s-119 23 -166 69l69 68c27 -27 63 -43 97 -43s70 16 97 43zM379 265v129h313v-287c-70 -75 -175 -119 -281 -119c-203 0 -373 163 -373 356s170 355 373 355c106 0 211 -44 281 -118l-125 -111c-37 46 -97 74 -156 74
c-107 0 -198 -92 -198 -200c0 -109 91 -201 198 -201c40 0 81 13 115 36v86h-147z" />
    <glyph glyph-name="Gcommaaccent" unicode="&#x122;" horiz-adv-x="742" 
d="M379 265v129h313v-287c-70 -75 -175 -119 -281 -119c-203 0 -373 163 -373 356s170 355 373 355c106 0 211 -44 281 -118l-125 -111c-37 46 -97 74 -156 74c-107 0 -198 -92 -198 -200c0 -109 91 -201 198 -201c40 0 81 13 115 36v86h-147zM410 -35c47 0 80 -44 80 -105
c0 -50 -30 -104 -87 -156l-43 34c24 21 42 47 48 71c-41 0 -74 36 -74 78c0 43 34 78 76 78z" />
    <glyph glyph-name="H" unicode="H" horiz-adv-x="751" 
d="M516 687h171v-687h-171v274h-281v-274h-171v687h171v-260h281v260z" />
    <glyph glyph-name="I" unicode="I" horiz-adv-x="304" 
d="M67 0v687h171v-687h-171z" />
    <glyph glyph-name="Iacute" unicode="&#xcd;" horiz-adv-x="304" 
d="M94 744l114 160l148 -26l-150 -134h-112zM67 0v687h171v-687h-171z" />
    <glyph glyph-name="Icircumflex" unicode="&#xce;" horiz-adv-x="304" 
d="M-23 744l106 151h138l108 -151h-102l-75 71l-74 -71h-101zM67 0v687h171v-687h-171z" />
    <glyph glyph-name="Idieresis" unicode="&#xcf;" horiz-adv-x="304" 
d="M43 749c-45 0 -79 36 -79 79c0 42 34 78 79 78c42 0 78 -36 78 -78c0 -43 -36 -79 -78 -79zM261 749c-44 0 -79 36 -79 79c0 42 35 78 79 78s78 -36 78 -78c0 -43 -34 -79 -78 -79zM67 0v687h171v-687h-171z" />
    <glyph glyph-name="Idotaccent" unicode="&#x130;" horiz-adv-x="304" 
d="M152 749c-45 0 -79 36 -79 79c0 42 34 78 79 78c42 0 78 -36 78 -78c0 -43 -36 -79 -78 -79zM67 0v687h171v-687h-171z" />
    <glyph glyph-name="Igrave" unicode="&#xcc;" horiz-adv-x="304" 
d="M96 744l-150 134l149 26l113 -160h-112zM67 0v687h171v-687h-171z" />
    <glyph glyph-name="Imacron" unicode="&#x12a;" horiz-adv-x="304" 
d="M-27 747v96h357v-96h-357zM67 0v687h171v-687h-171z" />
    <glyph glyph-name="Iogonek" unicode="&#x12e;" horiz-adv-x="304" 
d="M249 -64l24 -75c-23 -20 -54 -34 -92 -34c-65 0 -111 43 -111 113c0 23 6 43 17 60h-20v687h171v-687h-24c-25 0 -42 -17 -42 -40c0 -24 17 -36 43 -36c13 0 26 5 34 12z" />
    <glyph glyph-name="J" unicode="J" horiz-adv-x="546" 
d="M244 -12c-90 0 -189 47 -236 114l111 109c21 -40 64 -68 104 -68c54 0 93 40 93 97v447h171v-463c0 -138 -101 -236 -243 -236z" />
    <glyph glyph-name="K" unicode="K" horiz-adv-x="712" 
d="M66 0v687h171v-293l255 293h203l-261 -292l281 -395h-206l-193 272l-79 -85v-187h-171z" />
    <glyph glyph-name="Kcommaaccent" unicode="&#x136;" horiz-adv-x="712" 
d="M66 0v687h171v-293l255 293h203l-261 -292l281 -395h-206l-193 272l-79 -85v-187h-171zM360 -296l-43 34c24 21 42 47 48 71c-41 0 -74 36 -74 78c0 43 34 78 76 78c47 0 80 -44 80 -105c0 -50 -30 -104 -87 -156z" />
    <glyph glyph-name="L" unicode="L" horiz-adv-x="589" 
d="M232 153h331v-153h-501v687h170v-534z" />
    <glyph glyph-name="Lacute" unicode="&#x139;" horiz-adv-x="589" 
d="M348 878l-150 -134h-112l114 160zM232 153h331v-153h-501v687h170v-534z" />
    <glyph glyph-name="Lcaron" unicode="&#x13d;" horiz-adv-x="589" 
d="M370 542c-41 0 -74 36 -74 78c0 43 34 78 76 78c47 0 80 -44 80 -105c0 -50 -30 -104 -87 -156l-43 34c24 21 42 47 48 71zM232 153h331v-153h-501v687h170v-534z" />
    <glyph glyph-name="Lslash" unicode="&#x141;" horiz-adv-x="620" 
d="M263 153h331v-153h-501v224l-71 -35v149l71 35v314h170v-229l111 55v-149l-111 -55v-156z" />
    <glyph glyph-name="M" unicode="M" horiz-adv-x="872" 
d="M67 0v687h171l198 -358l198 358h171v-687h-171v398l-198 -358l-198 358v-398h-171z" />
    <glyph glyph-name="N" unicode="N" horiz-adv-x="775" 
d="M67 0v687h171l299 -406v406h171v-687h-171l-299 406v-406h-171z" />
    <glyph glyph-name="Nacute" unicode="&#x143;" horiz-adv-x="775" 
d="M276 744l114 160l148 -26l-150 -134h-112zM67 0v687h171l299 -406v406h171v-687h-171l-299 406v-406h-171z" />
    <glyph glyph-name="Ncaron" unicode="&#x147;" horiz-adv-x="775" 
d="M318 744l-106 151h101l74 -71l75 71h102l-108 -151h-138zM67 0v687h171l299 -406v406h171v-687h-171l-299 406v-406h-171z" />
    <glyph glyph-name="Ncommaaccent" unicode="&#x145;" horiz-adv-x="775" 
d="M67 0v687h171l299 -406v406h171v-687h-171l-299 406v-406h-171zM380 -296l-43 34c24 21 42 47 48 71c-41 0 -74 36 -74 78c0 43 34 78 76 78c47 0 80 -44 80 -105c0 -50 -30 -104 -87 -156z" />
    <glyph glyph-name="Ntilde" unicode="&#xd1;" horiz-adv-x="775" 
d="M455 742c-56 0 -102 46 -132 46c-21 0 -33 -15 -40 -47l-81 11c11 92 47 137 116 137c55 0 103 -46 132 -46c22 0 34 15 40 47l81 -12c-10 -91 -46 -136 -116 -136zM67 0v687h171l299 -406v406h171v-687h-171l-299 406v-406h-171z" />
    <glyph glyph-name="O" unicode="O" horiz-adv-x="813" 
d="M407 -12c-200 0 -369 163 -369 356s169 355 369 355c201 0 370 -162 370 -355s-169 -356 -370 -356zM407 143c105 0 194 92 194 201c0 108 -89 200 -194 200s-194 -92 -194 -200c0 -109 89 -201 194 -201z" />
    <glyph glyph-name="Oacute" unicode="&#xd3;" horiz-adv-x="813" 
d="M347 744l114 160l148 -26l-150 -134h-112zM407 -12c-200 0 -369 163 -369 356s169 355 369 355c201 0 370 -162 370 -355s-169 -356 -370 -356zM407 143c105 0 194 92 194 201c0 108 -89 200 -194 200s-194 -92 -194 -200c0 -109 89 -201 194 -201z" />
    <glyph glyph-name="Ocircumflex" unicode="&#xd4;" horiz-adv-x="813" 
d="M232 744l106 151h138l108 -151h-102l-75 71l-74 -71h-101zM407 -12c-200 0 -369 163 -369 356s169 355 369 355c201 0 370 -162 370 -355s-169 -356 -370 -356zM407 143c105 0 194 92 194 201c0 108 -89 200 -194 200s-194 -92 -194 -200c0 -109 89 -201 194 -201z" />
    <glyph glyph-name="Odieresis" unicode="&#xd6;" horiz-adv-x="813" 
d="M298 749c-45 0 -79 36 -79 79c0 42 34 78 79 78c42 0 78 -36 78 -78c0 -43 -36 -79 -78 -79zM516 749c-44 0 -79 36 -79 79c0 42 35 78 79 78s78 -36 78 -78c0 -43 -34 -79 -78 -79zM407 -12c-200 0 -369 163 -369 356s169 355 369 355c201 0 370 -162 370 -355
s-169 -356 -370 -356zM407 143c105 0 194 92 194 201c0 108 -89 200 -194 200s-194 -92 -194 -200c0 -109 89 -201 194 -201z" />
    <glyph glyph-name="Ograve" unicode="&#xd2;" horiz-adv-x="813" 
d="M352 744l-150 134l149 26l113 -160h-112zM407 -12c-200 0 -369 163 -369 356s169 355 369 355c201 0 370 -162 370 -355s-169 -356 -370 -356zM407 143c105 0 194 92 194 201c0 108 -89 200 -194 200s-194 -92 -194 -200c0 -109 89 -201 194 -201z" />
    <glyph glyph-name="Ohungarumlaut" unicode="&#x150;" horiz-adv-x="813" 
d="M218 744l114 160l148 -26l-150 -134h-112zM464 744l114 160l149 -26l-150 -134h-113zM407 -12c-200 0 -369 163 -369 356s169 355 369 355c201 0 370 -162 370 -355s-169 -356 -370 -356zM407 143c105 0 194 92 194 201c0 108 -89 200 -194 200s-194 -92 -194 -200
c0 -109 89 -201 194 -201z" />
    <glyph glyph-name="Omacron" unicode="&#x14c;" horiz-adv-x="813" 
d="M228 747v96h357v-96h-357zM407 -12c-200 0 -369 163 -369 356s169 355 369 355c201 0 370 -162 370 -355s-169 -356 -370 -356zM407 143c105 0 194 92 194 201c0 108 -89 200 -194 200s-194 -92 -194 -200c0 -109 89 -201 194 -201z" />
    <glyph glyph-name="Oslash" unicode="&#xd8;" horiz-adv-x="813" 
d="M680 582c60 -64 97 -147 97 -238c0 -193 -169 -356 -370 -356c-66 0 -129 18 -184 49l-31 -37h-145l89 106c-61 63 -98 147 -98 238c0 193 169 355 369 355c67 0 130 -18 185 -49l31 37h145zM213 344c0 -40 12 -77 32 -108l242 289c-24 12 -52 19 -80 19
c-105 0 -194 -92 -194 -200zM407 143c105 0 194 92 194 201c0 39 -11 76 -31 107l-243 -290c25 -11 52 -18 80 -18z" />
    <glyph glyph-name="Otilde" unicode="&#xd5;" horiz-adv-x="813" 
d="M475 742c-56 0 -102 46 -132 46c-21 0 -33 -15 -40 -47l-81 11c11 92 47 137 116 137c55 0 103 -46 132 -46c22 0 34 15 40 47l81 -12c-10 -91 -46 -136 -116 -136zM407 -12c-200 0 -369 163 -369 356s169 355 369 355c201 0 370 -162 370 -355s-169 -356 -370 -356z
M407 143c105 0 194 92 194 201c0 108 -89 200 -194 200s-194 -92 -194 -200c0 -109 89 -201 194 -201z" />
    <glyph glyph-name="OE" unicode="&#x152;" horiz-adv-x="1043" 
d="M1002 534h-370v-107h336v-153h-336v-121h370v-153h-595c-200 0 -369 149 -369 342s169 345 369 345h595v-153zM407 155h54v377h-54c-105 0 -194 -82 -194 -190c0 -109 89 -187 194 -187z" />
    <glyph glyph-name="P" unicode="P" horiz-adv-x="665" 
d="M64 0v687h319c151 0 261 -97 261 -236s-110 -236 -261 -236h-148v-215h-171zM235 371h132c59 0 101 32 101 80s-42 80 -101 80h-132v-160z" />
    <glyph glyph-name="Thorn" unicode="&#xde;" horiz-adv-x="665" 
d="M64 0v687h167v-106h152c151 0 261 -97 261 -236c0 -138 -110 -236 -261 -236h-148v-109h-171zM235 265h132c59 0 101 32 101 80s-42 81 -101 81h-132v-161z" />
    <glyph glyph-name="Q" unicode="Q" horiz-adv-x="813" 
d="M777 344c0 -71 -23 -139 -63 -195l61 -53l-83 -96l-67 58c-62 -44 -137 -70 -218 -70c-200 0 -369 163 -369 356s169 355 369 355c201 0 370 -162 370 -355zM407 143c33 0 65 9 92 25l-71 62l83 96l73 -63c11 25 17 52 17 81c0 108 -89 200 -194 200s-194 -92 -194 -200
c0 -109 89 -201 194 -201z" />
    <glyph glyph-name="R" unicode="R" horiz-adv-x="688" 
d="M664 0h-194l-151 215h-84v-215h-171v687h319c151 0 261 -97 261 -236c0 -100 -57 -179 -146 -215zM235 531v-160h132c59 0 101 32 101 80s-42 80 -101 80h-132z" />
    <glyph glyph-name="Racute" unicode="&#x154;" horiz-adv-x="688" 
d="M491 878l-150 -134h-112l114 160zM664 0h-194l-151 215h-84v-215h-171v687h319c151 0 261 -97 261 -236c0 -100 -57 -179 -146 -215zM235 531v-160h132c59 0 101 32 101 80s-42 80 -101 80h-132z" />
    <glyph glyph-name="Rcaron" unicode="&#x158;" horiz-adv-x="688" 
d="M409 744h-138l-106 151h101l74 -71l75 71h102zM664 0h-194l-151 215h-84v-215h-171v687h319c151 0 261 -97 261 -236c0 -100 -57 -179 -146 -215zM235 531v-160h132c59 0 101 32 101 80s-42 80 -101 80h-132z" />
    <glyph glyph-name="Rcommaaccent" unicode="&#x156;" horiz-adv-x="688" 
d="M498 236l166 -236h-194l-151 215h-84v-215h-171v687h319c151 0 261 -97 261 -236c0 -100 -57 -179 -146 -215zM235 531v-160h132c59 0 101 32 101 80s-42 80 -101 80h-132zM343 -35c47 0 80 -44 80 -105c0 -50 -30 -104 -87 -156l-43 34c24 21 42 47 48 71
c-41 0 -74 36 -74 78c0 43 34 78 76 78z" />
    <glyph glyph-name="S" unicode="S" horiz-adv-x="639" 
d="M332 -12c-122 0 -233 40 -316 115l96 115c67 -55 142 -87 226 -87c64 0 97 26 97 63c0 41 -32 50 -132 74c-147 33 -256 73 -256 211c0 132 106 220 263 220c115 0 205 -33 278 -94l-87 -122c-63 48 -132 73 -196 73c-55 0 -86 -26 -86 -60c0 -42 33 -56 135 -78
c154 -33 253 -77 253 -206c0 -138 -105 -224 -275 -224z" />
    <glyph glyph-name="Sacute" unicode="&#x15a;" horiz-adv-x="639" 
d="M199 744l114 160l148 -26l-150 -134h-112zM332 -12c-122 0 -233 40 -316 115l96 115c67 -55 142 -87 226 -87c64 0 97 26 97 63c0 41 -32 50 -132 74c-147 33 -256 73 -256 211c0 132 106 220 263 220c115 0 205 -33 278 -94l-87 -122c-63 48 -132 73 -196 73
c-55 0 -86 -26 -86 -60c0 -42 33 -56 135 -78c154 -33 253 -77 253 -206c0 -138 -105 -224 -275 -224z" />
    <glyph glyph-name="Scaron" unicode="&#x160;" horiz-adv-x="639" 
d="M241 744l-106 151h101l74 -71l75 71h102l-108 -151h-138zM332 -12c-122 0 -233 40 -316 115l96 115c67 -55 142 -87 226 -87c64 0 97 26 97 63c0 41 -32 50 -132 74c-147 33 -256 73 -256 211c0 132 106 220 263 220c115 0 205 -33 278 -94l-87 -122
c-63 48 -132 73 -196 73c-55 0 -86 -26 -86 -60c0 -42 33 -56 135 -78c154 -33 253 -77 253 -206c0 -138 -105 -224 -275 -224z" />
    <glyph glyph-name="Scedilla" unicode="&#x15e;" horiz-adv-x="639" 
d="M607 212c0 -129 -92 -213 -243 -223l-14 -32c44 -1 74 -29 74 -68c0 -55 -47 -87 -111 -87c-38 0 -75 12 -97 29l29 63c17 -14 39 -23 59 -23c21 0 39 10 39 28c0 15 -11 24 -30 24c-10 0 -21 -3 -29 -9l-24 23l23 53c-103 9 -195 48 -267 113l96 115
c67 -55 142 -87 226 -87c64 0 97 26 97 63c0 41 -32 50 -132 74c-147 33 -256 73 -256 211c0 132 106 220 263 220c115 0 205 -33 278 -94l-87 -122c-63 48 -132 73 -196 73c-55 0 -86 -26 -86 -60c0 -42 33 -56 135 -78c154 -33 253 -77 253 -206z" />
    <glyph glyph-name="T" unicode="T" horiz-adv-x="642" 
d="M236 0v534h-209v153h588v-153h-208v-534h-171z" />
    <glyph glyph-name="Tcaron" unicode="&#x164;" horiz-adv-x="642" 
d="M252 744l-106 151h101l74 -71l75 71h102l-108 -151h-138zM236 0v534h-209v153h588v-153h-208v-534h-171z" />
    <glyph glyph-name="uni0162" unicode="&#x162;" horiz-adv-x="642" 
d="M407 0h-41l-18 -43c44 -1 74 -29 74 -68c0 -55 -47 -87 -111 -87c-38 0 -75 12 -97 29l29 63c17 -14 39 -23 59 -23c21 0 39 10 39 28c0 15 -11 24 -30 24c-10 0 -21 -3 -29 -9l-24 23l27 63h-49v534h-209v153h588v-153h-208v-534z" />
    <glyph glyph-name="U" unicode="U" horiz-adv-x="758" 
d="M379 -12c-187 0 -319 129 -319 313v386h171v-378c0 -97 62 -166 148 -166c87 0 149 69 149 166v378h170v-386c0 -184 -131 -313 -319 -313z" />
    <glyph glyph-name="Uacute" unicode="&#xda;" horiz-adv-x="758" 
d="M268 744l114 160l148 -26l-150 -134h-112zM379 -12c-187 0 -319 129 -319 313v386h171v-378c0 -97 62 -166 148 -166c87 0 149 69 149 166v378h170v-386c0 -184 -131 -313 -319 -313z" />
    <glyph glyph-name="Ucircumflex" unicode="&#xdb;" horiz-adv-x="758" 
d="M204 744l106 151h138l108 -151h-102l-75 71l-74 -71h-101zM379 -12c-187 0 -319 129 -319 313v386h171v-378c0 -97 62 -166 148 -166c87 0 149 69 149 166v378h170v-386c0 -184 -131 -313 -319 -313z" />
    <glyph glyph-name="Udieresis" unicode="&#xdc;" horiz-adv-x="758" 
d="M270 749c-45 0 -79 36 -79 79c0 42 34 78 79 78c42 0 78 -36 78 -78c0 -43 -36 -79 -78 -79zM488 749c-44 0 -79 36 -79 79c0 42 35 78 79 78s78 -36 78 -78c0 -43 -34 -79 -78 -79zM379 -12c-187 0 -319 129 -319 313v386h171v-378c0 -97 62 -166 148 -166
c87 0 149 69 149 166v378h170v-386c0 -184 -131 -313 -319 -313z" />
    <glyph glyph-name="Ugrave" unicode="&#xd9;" horiz-adv-x="758" 
d="M368 744l-150 134l149 26l113 -160h-112zM379 -12c-187 0 -319 129 -319 313v386h171v-378c0 -97 62 -166 148 -166c87 0 149 69 149 166v378h170v-386c0 -184 -131 -313 -319 -313z" />
    <glyph glyph-name="Uhungarumlaut" unicode="&#x170;" horiz-adv-x="758" 
d="M177 744l114 160l148 -26l-150 -134h-112zM423 744l114 160l149 -26l-150 -134h-113zM379 -12c-187 0 -319 129 -319 313v386h171v-378c0 -97 62 -166 148 -166c87 0 149 69 149 166v378h170v-386c0 -184 -131 -313 -319 -313z" />
    <glyph glyph-name="Umacron" unicode="&#x16a;" horiz-adv-x="758" 
d="M200 747v96h357v-96h-357zM379 -12c-187 0 -319 129 -319 313v386h171v-378c0 -97 62 -166 148 -166c87 0 149 69 149 166v378h170v-386c0 -184 -131 -313 -319 -313z" />
    <glyph glyph-name="Uogonek" unicode="&#x172;" horiz-adv-x="758" 
d="M528 687h170v-386c0 -178 -123 -305 -302 -313c-7 -7 -11 -17 -11 -28c0 -24 17 -36 43 -36c13 0 26 5 34 12l24 -75c-23 -20 -54 -34 -92 -34c-65 0 -111 43 -111 113c0 22 5 41 15 57c-143 32 -238 148 -238 304v386h171v-378c0 -97 62 -166 148 -166
c87 0 149 69 149 166v378z" />
    <glyph glyph-name="Uring" unicode="&#x16e;" horiz-adv-x="758" 
d="M379 748c-64 0 -117 52 -117 117s53 118 117 118c65 0 118 -53 118 -118s-53 -117 -118 -117zM379 814c28 0 51 23 51 51s-23 51 -51 51s-51 -23 -51 -51s23 -51 51 -51zM379 -12c-187 0 -319 129 -319 313v386h171v-378c0 -97 62 -166 148 -166c87 0 149 69 149 166v378
h170v-386c0 -184 -131 -313 -319 -313z" />
    <glyph glyph-name="V" unicode="V" horiz-adv-x="750" 
d="M551 687h192l-272 -687h-192l-272 687h192l176 -445z" />
    <glyph glyph-name="W" unicode="W" horiz-adv-x="1077" 
d="M214 0l-200 687h185l105 -429l143 429h184l142 -429l105 429h185l-199 -687h-172l-153 435l-153 -435h-172z" />
    <glyph glyph-name="Wacute" unicode="&#x1e82;" horiz-adv-x="1077" 
d="M480 744l114 160l148 -26l-150 -134h-112zM214 0l-200 687h185l105 -429l143 429h184l142 -429l105 429h185l-199 -687h-172l-153 435l-153 -435h-172z" />
    <glyph glyph-name="Wcircumflex" unicode="&#x174;" horiz-adv-x="1077" 
d="M364 744l106 151h138l108 -151h-102l-75 71l-74 -71h-101zM214 0l-200 687h185l105 -429l143 429h184l142 -429l105 429h185l-199 -687h-172l-153 435l-153 -435h-172z" />
    <glyph glyph-name="Wdieresis" unicode="&#x1e84;" horiz-adv-x="1077" 
d="M430 749c-45 0 -79 36 -79 79c0 42 34 78 79 78c42 0 78 -36 78 -78c0 -43 -36 -79 -78 -79zM648 749c-44 0 -79 36 -79 79c0 42 35 78 79 78s78 -36 78 -78c0 -43 -34 -79 -78 -79zM214 0l-200 687h185l105 -429l143 429h184l142 -429l105 429h185l-199 -687h-172
l-153 435l-153 -435h-172z" />
    <glyph glyph-name="Wgrave" unicode="&#x1e80;" horiz-adv-x="1077" 
d="M484 744l-150 134l149 26l113 -160h-112zM214 0l-200 687h185l105 -429l143 429h184l142 -429l105 429h185l-199 -687h-172l-153 435l-153 -435h-172z" />
    <glyph glyph-name="X" unicode="X" horiz-adv-x="716" 
d="M705 687l-247 -342l247 -345h-200l-148 206l-149 -206h-197l248 342l-248 345h201l147 -205l149 205h197z" />
    <glyph glyph-name="Y" unicode="Y" horiz-adv-x="701" 
d="M265 0v237l-266 450h197l155 -290l162 290h190l-266 -450v-237h-172z" />
    <glyph glyph-name="Yacute" unicode="&#xdd;" horiz-adv-x="701" 
d="M240 744l114 160l148 -26l-150 -134h-112zM265 0v237l-266 450h197l155 -290l162 290h190l-266 -450v-237h-172z" />
    <glyph glyph-name="Ycircumflex" unicode="&#x176;" horiz-adv-x="701" 
d="M176 744l106 151h138l108 -151h-102l-75 71l-74 -71h-101zM265 0v237l-266 450h197l155 -290l162 290h190l-266 -450v-237h-172z" />
    <glyph glyph-name="Ydieresis" unicode="&#x178;" horiz-adv-x="701" 
d="M242 749c-45 0 -79 36 -79 79c0 42 34 78 79 78c42 0 78 -36 78 -78c0 -43 -36 -79 -78 -79zM460 749c-44 0 -79 36 -79 79c0 42 35 78 79 78s78 -36 78 -78c0 -43 -34 -79 -78 -79zM265 0v237l-266 450h197l155 -290l162 290h190l-266 -450v-237h-172z" />
    <glyph glyph-name="Ygrave" unicode="&#x1ef2;" horiz-adv-x="701" 
d="M340 744l-150 134l149 26l113 -160h-112zM265 0v237l-266 450h197l155 -290l162 290h190l-266 -450v-237h-172z" />
    <glyph glyph-name="Z" unicode="Z" horiz-adv-x="668" 
d="M44 0v128l343 406h-336v153h570v-128l-342 -406h347v-153h-582z" />
    <glyph glyph-name="Zacute" unicode="&#x179;" horiz-adv-x="668" 
d="M228 744l114 160l148 -26l-150 -134h-112zM44 0v128l343 406h-336v153h570v-128l-342 -406h347v-153h-582z" />
    <glyph glyph-name="Zcaron" unicode="&#x17d;" horiz-adv-x="668" 
d="M270 744l-106 151h101l74 -71l75 71h102l-108 -151h-138zM44 0v128l343 406h-336v153h570v-128l-342 -406h347v-153h-582z" />
    <glyph glyph-name="Zdotaccent" unicode="&#x17b;" horiz-adv-x="668" 
d="M339 749c-45 0 -79 36 -79 79c0 42 34 78 79 78c42 0 78 -36 78 -78c0 -43 -36 -79 -78 -79zM44 0v128l343 406h-336v153h570v-128l-342 -406h347v-153h-582z" />
    <glyph glyph-name="a" unicode="a" horiz-adv-x="584" 
d="M298 529c133 0 233 -84 233 -222v-307h-163v44c-36 -36 -90 -56 -143 -56c-110 0 -197 67 -197 165c0 101 97 172 219 172c38 0 81 -9 121 -25v7c0 55 -42 95 -113 95c-49 0 -86 -15 -130 -38l-53 106c72 36 146 59 226 59zM266 92c50 0 95 24 102 63v55
c-26 10 -62 17 -97 17c-46 0 -82 -29 -82 -69s32 -66 77 -66z" />
    <glyph glyph-name="aacute" unicode="&#xe1;" horiz-adv-x="584" 
d="M454 708l-150 -134h-112l114 160zM298 529c133 0 233 -84 233 -222v-307h-163v44c-36 -36 -90 -56 -143 -56c-110 0 -197 67 -197 165c0 101 97 172 219 172c38 0 81 -9 121 -25v7c0 55 -42 95 -113 95c-49 0 -86 -15 -130 -38l-53 106c72 36 146 59 226 59zM266 92
c50 0 95 24 102 63v55c-26 10 -62 17 -97 17c-46 0 -82 -29 -82 -69s32 -66 77 -66z" />
    <glyph glyph-name="abreve" unicode="&#x103;" horiz-adv-x="584" 
d="M469 647c-46 -46 -106 -69 -166 -69s-119 23 -166 69l69 68c27 -27 63 -43 97 -43s70 16 97 43zM298 529c133 0 233 -84 233 -222v-307h-163v44c-36 -36 -90 -56 -143 -56c-110 0 -197 67 -197 165c0 101 97 172 219 172c38 0 81 -9 121 -25v7c0 55 -42 95 -113 95
c-49 0 -86 -15 -130 -38l-53 106c72 36 146 59 226 59zM266 92c50 0 95 24 102 63v55c-26 10 -62 17 -97 17c-46 0 -82 -29 -82 -69s32 -66 77 -66z" />
    <glyph glyph-name="acircumflex" unicode="&#xe2;" horiz-adv-x="584" 
d="M303 645l-74 -71h-101l106 151h138l108 -151h-102zM298 529c133 0 233 -84 233 -222v-307h-163v44c-36 -36 -90 -56 -143 -56c-110 0 -197 67 -197 165c0 101 97 172 219 172c38 0 81 -9 121 -25v7c0 55 -42 95 -113 95c-49 0 -86 -15 -130 -38l-53 106
c72 36 146 59 226 59zM266 92c50 0 95 24 102 63v55c-26 10 -62 17 -97 17c-46 0 -82 -29 -82 -69s32 -66 77 -66z" />
    <glyph glyph-name="adieresis" unicode="&#xe4;" horiz-adv-x="584" 
d="M194 579c-45 0 -79 36 -79 79c0 42 34 78 79 78c42 0 78 -36 78 -78c0 -43 -36 -79 -78 -79zM412 579c-44 0 -79 36 -79 79c0 42 35 78 79 78s78 -36 78 -78c0 -43 -34 -79 -78 -79zM298 529c133 0 233 -84 233 -222v-307h-163v44c-36 -36 -90 -56 -143 -56
c-110 0 -197 67 -197 165c0 101 97 172 219 172c38 0 81 -9 121 -25v7c0 55 -42 95 -113 95c-49 0 -86 -15 -130 -38l-53 106c72 36 146 59 226 59zM266 92c50 0 95 24 102 63v55c-26 10 -62 17 -97 17c-46 0 -82 -29 -82 -69s32 -66 77 -66z" />
    <glyph glyph-name="agrave" unicode="&#xe0;" horiz-adv-x="584" 
d="M404 574h-112l-150 134l149 26zM298 529c133 0 233 -84 233 -222v-307h-163v44c-36 -36 -90 -56 -143 -56c-110 0 -197 67 -197 165c0 101 97 172 219 172c38 0 81 -9 121 -25v7c0 55 -42 95 -113 95c-49 0 -86 -15 -130 -38l-53 106c72 36 146 59 226 59zM266 92
c50 0 95 24 102 63v55c-26 10 -62 17 -97 17c-46 0 -82 -29 -82 -69s32 -66 77 -66z" />
    <glyph glyph-name="amacron" unicode="&#x101;" horiz-adv-x="584" 
d="M481 673v-96h-357v96h357zM298 529c133 0 233 -84 233 -222v-307h-163v44c-36 -36 -90 -56 -143 -56c-110 0 -197 67 -197 165c0 101 97 172 219 172c38 0 81 -9 121 -25v7c0 55 -42 95 -113 95c-49 0 -86 -15 -130 -38l-53 106c72 36 146 59 226 59zM266 92
c50 0 95 24 102 63v55c-26 10 -62 17 -97 17c-46 0 -82 -29 -82 -69s32 -66 77 -66z" />
    <glyph glyph-name="aogonek" unicode="&#x105;" horiz-adv-x="584" 
d="M566 -64l24 -75c-23 -20 -54 -34 -92 -34c-65 0 -111 43 -111 113c0 23 6 43 17 60h-36v44c-36 -36 -90 -56 -143 -56c-110 0 -197 67 -197 165c0 101 97 172 219 172c38 0 81 -9 121 -25v7c0 55 -42 95 -113 95c-49 0 -86 -15 -130 -38l-53 106c72 36 146 59 226 59
c133 0 233 -84 233 -222v-307c-25 0 -42 -17 -42 -40c0 -24 17 -36 43 -36c13 0 26 5 34 12zM266 92c50 0 95 24 102 63v55c-26 10 -62 17 -97 17c-46 0 -82 -29 -82 -69s32 -66 77 -66z" />
    <glyph glyph-name="aring" unicode="&#xe5;" horiz-adv-x="584" 
d="M303 578c-64 0 -117 52 -117 117s53 118 117 118c65 0 118 -53 118 -118s-53 -117 -118 -117zM303 746c-28 0 -51 -23 -51 -51s23 -51 51 -51s51 23 51 51s-23 51 -51 51zM298 529c133 0 233 -84 233 -222v-307h-163v44c-36 -36 -90 -56 -143 -56
c-110 0 -197 67 -197 165c0 101 97 172 219 172c38 0 81 -9 121 -25v7c0 55 -42 95 -113 95c-49 0 -86 -15 -130 -38l-53 106c72 36 146 59 226 59zM266 92c50 0 95 24 102 63v55c-26 10 -62 17 -97 17c-46 0 -82 -29 -82 -69s32 -66 77 -66z" />
    <glyph glyph-name="atilde" unicode="&#xe3;" horiz-adv-x="584" 
d="M239 618c-21 0 -33 -15 -40 -47l-81 11c11 92 47 137 116 137c55 0 103 -46 132 -46c22 0 34 15 40 47l81 -12c-10 -91 -46 -136 -116 -136c-56 0 -102 46 -132 46zM298 529c133 0 233 -84 233 -222v-307h-163v44c-36 -36 -90 -56 -143 -56c-110 0 -197 67 -197 165
c0 101 97 172 219 172c38 0 81 -9 121 -25v7c0 55 -42 95 -113 95c-49 0 -86 -15 -130 -38l-53 106c72 36 146 59 226 59zM266 92c50 0 95 24 102 63v55c-26 10 -62 17 -97 17c-46 0 -82 -29 -82 -69s32 -66 77 -66z" />
    <glyph glyph-name="ae" unicode="&#xe6;" horiz-adv-x="928" 
d="M641 125c40 0 86 17 117 44l100 -101c-46 -47 -135 -80 -212 -80c-80 0 -150 28 -199 76c-41 -48 -109 -76 -196 -76c-132 0 -223 67 -223 165c0 101 97 172 219 172c38 0 81 -9 121 -25v7c0 50 -37 87 -113 87c-46 0 -88 -13 -128 -33l-55 109c72 36 130 59 210 59
c73 0 132 -27 168 -70c48 44 113 70 188 70c164 0 260 -120 260 -317h-369c16 -52 57 -87 112 -87zM641 393c-51 0 -92 -30 -110 -78h210c-14 47 -49 78 -100 78zM268 100c60 0 100 29 100 71v29c-28 12 -62 19 -97 19c-45 0 -78 -26 -78 -61s29 -58 75 -58z" />
    <glyph glyph-name="b" unicode="b" 
d="M396 529c139 0 237 -112 237 -270c0 -159 -98 -271 -237 -271c-69 0 -128 29 -169 78v-66h-170v699h170v-248c41 49 100 78 169 78zM345 129c73 0 125 54 125 130c0 75 -52 129 -125 129c-70 0 -118 -54 -118 -129c0 -76 48 -130 118 -130z" />
    <glyph glyph-name="c" unicode="c" horiz-adv-x="550" 
d="M317 -12c-155 0 -286 124 -286 271s132 270 288 270c88 0 159 -36 209 -92l-112 -93c-23 25 -62 44 -98 44c-67 0 -124 -59 -124 -128c0 -71 57 -131 124 -131c37 0 77 19 101 46l112 -92c-51 -58 -123 -95 -214 -95z" />
    <glyph glyph-name="cacute" unicode="&#x107;" horiz-adv-x="550" 
d="M187 574l114 160l148 -26l-150 -134h-112zM317 -12c-155 0 -286 124 -286 271s132 270 288 270c88 0 159 -36 209 -92l-112 -93c-23 25 -62 44 -98 44c-67 0 -124 -59 -124 -128c0 -71 57 -131 124 -131c37 0 77 19 101 46l112 -92c-51 -58 -123 -95 -214 -95z" />
    <glyph glyph-name="ccaron" unicode="&#x10d;" horiz-adv-x="550" 
d="M229 574l-106 151h101l74 -71l75 71h102l-108 -151h-138zM317 -12c-155 0 -286 124 -286 271s132 270 288 270c88 0 159 -36 209 -92l-112 -93c-23 25 -62 44 -98 44c-67 0 -124 -59 -124 -128c0 -71 57 -131 124 -131c37 0 77 19 101 46l112 -92
c-51 -58 -123 -95 -214 -95z" />
    <glyph glyph-name="ccedilla" unicode="&#xe7;" horiz-adv-x="550" 
d="M531 83c-44 -50 -104 -85 -179 -93l-14 -33c44 -1 74 -29 74 -68c0 -55 -47 -87 -111 -87c-38 0 -75 12 -97 29l29 63c17 -14 39 -23 59 -23c21 0 39 10 39 28c0 15 -11 24 -30 24c-10 0 -21 -3 -29 -9l-24 23l24 55c-135 21 -241 135 -241 267c0 147 132 270 288 270
c88 0 159 -36 209 -92l-112 -93c-23 25 -62 44 -98 44c-67 0 -124 -59 -124 -128c0 -71 57 -131 124 -131c37 0 77 19 101 46z" />
    <glyph glyph-name="d" unicode="d" 
d="M440 699h170v-699h-170v66c-41 -49 -100 -78 -169 -78c-139 0 -237 112 -237 271c0 158 98 270 237 270c69 0 128 -29 169 -78v248zM322 129c70 0 118 54 118 130c0 75 -48 129 -118 129c-73 0 -125 -54 -125 -129c0 -76 52 -130 125 -130z" />
    <glyph glyph-name="eth" unicode="&#xf0;" horiz-adv-x="633" 
d="M427 617c114 -107 170 -204 170 -333c0 -174 -116 -296 -279 -296c-162 0 -278 109 -278 262c0 142 92 243 223 243c64 0 110 -27 147 -70c-24 49 -65 93 -116 135l-98 -44l-37 83l52 23c-21 15 -44 30 -67 45l149 64c21 -16 40 -31 59 -47l87 39l36 -83zM319 130
c67 0 115 47 115 113c0 64 -46 114 -116 114c-68 0 -115 -47 -115 -112c0 -68 48 -115 116 -115z" />
    <glyph glyph-name="dcaron" unicode="&#x10f;" 
d="M440 451v248h170v-699h-170v66c-41 -49 -100 -78 -169 -78c-139 0 -237 112 -237 271c0 158 98 270 237 270c69 0 128 -29 169 -78zM749 699c47 0 80 -44 80 -105c0 -50 -30 -104 -87 -156l-43 34c24 21 42 47 48 71c-41 0 -74 36 -74 78c0 43 34 78 76 78zM322 129
c70 0 118 54 118 130c0 75 -48 129 -118 129c-73 0 -125 -54 -125 -129c0 -76 52 -130 125 -130z" />
    <glyph glyph-name="dcroat" unicode="&#x111;" horiz-adv-x="695" 
d="M668 651v-82h-58v-569h-170v66c-41 -49 -100 -78 -169 -78c-139 0 -237 112 -237 271c0 158 98 270 237 270c69 0 128 -29 169 -78v118h-146v82h146v48h170v-48h58zM322 129c70 0 118 54 118 130c0 75 -48 129 -118 129c-73 0 -125 -54 -125 -129c0 -76 52 -130 125 -130
z" />
    <glyph glyph-name="e" unicode="e" horiz-adv-x="592" 
d="M304 125c40 0 86 17 117 44l100 -101c-46 -47 -135 -80 -212 -80c-160 0 -278 113 -278 272c0 157 114 269 270 269c164 0 260 -120 260 -317h-369c16 -52 57 -87 112 -87zM304 393c-51 0 -92 -30 -110 -78h210c-14 47 -49 78 -100 78z" />
    <glyph glyph-name="eacute" unicode="&#xe9;" horiz-adv-x="592" 
d="M452 708l-150 -134h-112l114 160zM304 125c40 0 86 17 117 44l100 -101c-46 -47 -135 -80 -212 -80c-160 0 -278 113 -278 272c0 157 114 269 270 269c164 0 260 -120 260 -317h-369c16 -52 57 -87 112 -87zM304 393c-51 0 -92 -30 -110 -78h210c-14 47 -49 78 -100 78z
" />
    <glyph glyph-name="ecaron" unicode="&#x11b;" horiz-adv-x="592" 
d="M370 574h-138l-106 151h101l74 -71l75 71h102zM304 125c40 0 86 17 117 44l100 -101c-46 -47 -135 -80 -212 -80c-160 0 -278 113 -278 272c0 157 114 269 270 269c164 0 260 -120 260 -317h-369c16 -52 57 -87 112 -87zM304 393c-51 0 -92 -30 -110 -78h210
c-14 47 -49 78 -100 78z" />
    <glyph glyph-name="ecircumflex" unicode="&#xea;" horiz-adv-x="592" 
d="M301 645l-74 -71h-101l106 151h138l108 -151h-102zM304 125c40 0 86 17 117 44l100 -101c-46 -47 -135 -80 -212 -80c-160 0 -278 113 -278 272c0 157 114 269 270 269c164 0 260 -120 260 -317h-369c16 -52 57 -87 112 -87zM304 393c-51 0 -92 -30 -110 -78h210
c-14 47 -49 78 -100 78z" />
    <glyph glyph-name="edieresis" unicode="&#xeb;" horiz-adv-x="592" 
d="M192 579c-45 0 -79 36 -79 79c0 42 34 78 79 78c42 0 78 -36 78 -78c0 -43 -36 -79 -78 -79zM410 579c-44 0 -79 36 -79 79c0 42 35 78 79 78s78 -36 78 -78c0 -43 -34 -79 -78 -79zM304 125c40 0 86 17 117 44l100 -101c-46 -47 -135 -80 -212 -80
c-160 0 -278 113 -278 272c0 157 114 269 270 269c164 0 260 -120 260 -317h-369c16 -52 57 -87 112 -87zM304 393c-51 0 -92 -30 -110 -78h210c-14 47 -49 78 -100 78z" />
    <glyph glyph-name="edotaccent" unicode="&#x117;" horiz-adv-x="592" 
d="M301 579c-45 0 -79 36 -79 79c0 42 34 78 79 78c42 0 78 -36 78 -78c0 -43 -36 -79 -78 -79zM304 125c40 0 86 17 117 44l100 -101c-46 -47 -135 -80 -212 -80c-160 0 -278 113 -278 272c0 157 114 269 270 269c164 0 260 -120 260 -317h-369c16 -52 57 -87 112 -87z
M304 393c-51 0 -92 -30 -110 -78h210c-14 47 -49 78 -100 78z" />
    <glyph glyph-name="uni1EB9" unicode="&#x1eb9;" horiz-adv-x="591" 
d="M304 125c40 0 86 17 117 44l100 -101c-46 -47 -135 -80 -212 -80c-160 0 -278 113 -278 272c0 157 114 269 270 269c164 0 260 -120 260 -317h-369c16 -52 57 -87 112 -87zM304 393c-51 0 -92 -30 -110 -78h210c-14 47 -49 78 -100 78zM298 -68c42 0 78 -36 78 -78
c0 -43 -36 -79 -78 -79c-45 0 -79 36 -79 79c0 42 34 78 79 78z" />
    <glyph glyph-name="egrave" unicode="&#xe8;" horiz-adv-x="592" 
d="M402 574h-112l-150 134l149 26zM304 125c40 0 86 17 117 44l100 -101c-46 -47 -135 -80 -212 -80c-160 0 -278 113 -278 272c0 157 114 269 270 269c164 0 260 -120 260 -317h-369c16 -52 57 -87 112 -87zM304 393c-51 0 -92 -30 -110 -78h210c-14 47 -49 78 -100 78z
" />
    <glyph glyph-name="emacron" unicode="&#x113;" horiz-adv-x="592" 
d="M479 673v-96h-357v96h357zM304 125c40 0 86 17 117 44l100 -101c-46 -47 -135 -80 -212 -80c-160 0 -278 113 -278 272c0 157 114 269 270 269c164 0 260 -120 260 -317h-369c16 -52 57 -87 112 -87zM304 393c-51 0 -92 -30 -110 -78h210c-14 47 -49 78 -100 78z" />
    <glyph glyph-name="eogonek" unicode="&#x119;" horiz-adv-x="591" 
d="M521 68c-15 -16 -36 -30 -59 -42c-11 -6 -22 -11 -34 -15c-5 -7 -8 -15 -8 -25c0 -24 17 -36 43 -36c13 0 26 5 34 12l24 -75c-23 -20 -54 -34 -92 -34c-65 0 -111 43 -111 113c0 8 1 15 2 22h-11c-160 0 -278 113 -278 272c0 157 114 269 270 269
c164 0 260 -120 260 -317h-369c16 -52 57 -87 112 -87c40 0 86 17 117 44zM304 393c-51 0 -92 -30 -110 -78h210c-14 47 -49 78 -100 78z" />
    <glyph glyph-name="uni1EBD" unicode="&#x1ebd;" horiz-adv-x="592" 
d="M237 618c-21 0 -33 -15 -40 -47l-81 11c11 92 47 137 116 137c55 0 103 -46 132 -46c22 0 34 15 40 47l81 -12c-10 -91 -46 -136 -116 -136c-56 0 -102 46 -132 46zM304 125c40 0 86 17 117 44l100 -101c-46 -47 -135 -80 -212 -80c-160 0 -278 113 -278 272
c0 157 114 269 270 269c164 0 260 -120 260 -317h-369c16 -52 57 -87 112 -87zM304 393c-51 0 -92 -30 -110 -78h210c-14 47 -49 78 -100 78z" />
    <glyph glyph-name="f" unicode="f" horiz-adv-x="389" 
d="M252 531v-14h107v-135h-107v-382h-162v382h-68v135h68v37c0 97 68 166 165 166c44 0 95 -20 126 -49l-34 -101c-10 10 -29 17 -48 17c-27 0 -47 -23 -47 -56z" />
    <glyph glyph-name="g" unicode="g" horiz-adv-x="653" 
d="M425 517h170v-462c0 -133 -118 -227 -286 -227c-93 0 -181 29 -234 69l57 118c32 -27 92 -46 151 -46c85 0 142 39 142 94v49c-41 -47 -101 -74 -165 -74c-128 0 -227 102 -227 246s99 245 227 245c65 0 131 -31 165 -75v63zM316 179c64 0 109 44 109 105
s-45 104 -109 104c-63 0 -109 -43 -109 -104s46 -105 109 -105z" />
    <glyph glyph-name="gbreve" unicode="&#x11f;" horiz-adv-x="653" 
d="M507 647c-46 -46 -106 -69 -166 -69s-119 23 -166 69l69 68c27 -27 63 -43 97 -43s70 16 97 43zM425 517h170v-462c0 -133 -118 -227 -286 -227c-93 0 -181 29 -234 69l57 118c32 -27 92 -46 151 -46c85 0 142 39 142 94v49c-41 -47 -101 -74 -165 -74
c-128 0 -227 102 -227 246s99 245 227 245c65 0 131 -31 165 -75v63zM316 179c64 0 109 44 109 105s-45 104 -109 104c-63 0 -109 -43 -109 -104s46 -105 109 -105z" />
    <glyph glyph-name="gcommaaccent" unicode="&#x123;" horiz-adv-x="653" 
d="M319 580c-47 0 -80 44 -80 105c0 50 30 104 87 156l43 -34c-24 -21 -42 -47 -48 -71c41 0 74 -36 74 -78c0 -43 -34 -78 -76 -78zM425 517h170v-462c0 -133 -118 -227 -286 -227c-93 0 -181 29 -234 69l57 118c32 -27 92 -46 151 -46c85 0 142 39 142 94v49
c-41 -47 -101 -74 -165 -74c-128 0 -227 102 -227 246s99 245 227 245c65 0 131 -31 165 -75v63zM316 179c64 0 109 44 109 105s-45 104 -109 104c-63 0 -109 -43 -109 -104s46 -105 109 -105z" />
    <glyph glyph-name="h" unicode="h" horiz-adv-x="621" 
d="M377 529c111 0 190 -83 190 -200v-329h-162v291c0 57 -36 97 -88 97s-91 -39 -91 -90v-298h-170v699h170v-240c32 43 86 70 151 70z" />
    <glyph glyph-name="i" unicode="i" horiz-adv-x="288" 
d="M145 580c-50 0 -90 41 -90 90c0 47 40 88 90 88c49 0 88 -41 88 -88c0 -49 -39 -90 -88 -90zM59 0v517h169v-517h-169z" />
    <glyph glyph-name="dotlessi" unicode="&#x131;" horiz-adv-x="288" 
d="M59 0v517h169v-517h-169z" />
    <glyph glyph-name="iacute" unicode="&#xed;" horiz-adv-x="288" 
d="M86 574l114 160l148 -26l-150 -134h-112zM59 0v517h169v-517h-169z" />
    <glyph glyph-name="icircumflex" unicode="&#xee;" horiz-adv-x="288" 
d="M-31 574l106 151h138l108 -151h-102l-75 71l-74 -71h-101zM59 0v517h169v-517h-169z" />
    <glyph glyph-name="idieresis" unicode="&#xef;" horiz-adv-x="288" 
d="M35 579c-45 0 -79 36 -79 79c0 42 34 78 79 78c42 0 78 -36 78 -78c0 -43 -36 -79 -78 -79zM253 579c-44 0 -79 36 -79 79c0 42 35 78 79 78s78 -36 78 -78c0 -43 -34 -79 -78 -79zM59 0v517h169v-517h-169z" />
    <glyph glyph-name="igrave" unicode="&#xec;" horiz-adv-x="288" 
d="M88 574l-150 134l149 26l113 -160h-112zM59 0v517h169v-517h-169z" />
    <glyph glyph-name="imacron" unicode="&#x12b;" horiz-adv-x="288" 
d="M-35 577v96h357v-96h-357zM59 0v517h169v-517h-169z" />
    <glyph glyph-name="iogonek" unicode="&#x12f;" horiz-adv-x="288" 
d="M144 579c-45 0 -79 36 -79 79c0 42 34 78 79 78c42 0 78 -36 78 -78c0 -43 -36 -79 -78 -79zM144 0c-25 0 -42 -17 -42 -40c0 -24 17 -36 43 -36c13 0 26 5 34 12l24 -75c-23 -20 -54 -34 -92 -34c-65 0 -111 43 -111 113c0 42 19 73 51 94l8 -3v486h169v-517h-84z" />
    <glyph glyph-name="j" unicode="j" horiz-adv-x="288" 
d="M145 580c-50 0 -90 41 -90 90c0 47 40 88 90 88c49 0 88 -41 88 -88c0 -49 -39 -90 -88 -90zM56 -178c-38 0 -84 9 -111 22l17 124c13 -5 34 -9 51 -9c27 0 46 23 46 56v502h169v-521c0 -102 -71 -174 -172 -174z" />
    <glyph glyph-name="uni0237" unicode="&#x237;" horiz-adv-x="288" 
d="M56 -178c-38 0 -84 9 -111 22l17 124c13 -5 34 -9 51 -9c27 0 46 23 46 56v502h169v-521c0 -102 -71 -174 -172 -174z" />
    <glyph glyph-name="k" unicode="k" horiz-adv-x="581" 
d="M389 291l192 -291h-192l-112 183l-52 -60v-123h-170v699h170v-386l163 204h192z" />
    <glyph glyph-name="kcommaaccent" unicode="&#x137;" horiz-adv-x="581" 
d="M389 291l192 -291h-192l-112 183l-52 -60v-123h-170v699h170v-386l163 204h192zM304 -35c47 0 80 -44 80 -105c0 -50 -30 -104 -87 -156l-43 34c24 21 42 47 48 71c-41 0 -74 36 -74 78c0 43 34 78 76 78z" />
    <glyph glyph-name="l" unicode="l" horiz-adv-x="288" 
d="M59 0v699h170v-699h-170z" />
    <glyph glyph-name="lacute" unicode="&#x13a;" horiz-adv-x="288" 
d="M85 756l114 160l148 -26l-150 -134h-112zM59 0v699h170v-699h-170z" />
    <glyph glyph-name="lcaron" unicode="&#x13e;" horiz-adv-x="288" 
d="M59 0v699h170v-699h-170zM361 438l-43 34c24 21 42 47 48 71c-41 0 -74 36 -74 78c0 43 34 78 76 78c47 0 80 -44 80 -105c0 -50 -30 -104 -87 -156z" />
    <glyph glyph-name="lslash" unicode="&#x142;" horiz-adv-x="369" 
d="M347 499v-148l-79 -39v-312h-170v227l-76 -38v149l76 38v323h170v-239z" />
    <glyph glyph-name="m" unicode="m" horiz-adv-x="941" 
d="M693 529c108 0 194 -83 194 -200v-330h-162v300c0 52 -34 89 -82 89c-51 0 -87 -35 -87 -82v-307h-162v300c0 52 -34 89 -82 89c-51 0 -87 -35 -87 -82v-306h-169v517h169v-67c25 49 75 79 138 79c69 0 129 -34 163 -89c28 54 91 89 167 89z" />
    <glyph glyph-name="n" unicode="n" horiz-adv-x="621" 
d="M377 529c111 0 190 -83 190 -200v-329h-162v291c0 57 -36 97 -88 97s-91 -39 -91 -90l-1 3v-301h-169v517h169v-59c32 44 87 71 152 71z" />
    <glyph glyph-name="nacute" unicode="&#x144;" horiz-adv-x="621" 
d="M472 708l-150 -134h-112l114 160zM377 529c111 0 190 -83 190 -200v-329h-162v291c0 57 -36 97 -88 97s-91 -39 -91 -90l-1 3v-301h-169v517h169v-59c32 44 87 71 152 71z" />
    <glyph glyph-name="ncaron" unicode="&#x148;" horiz-adv-x="621" 
d="M390 574h-138l-106 151h101l74 -71l75 71h102zM377 529c111 0 190 -83 190 -200v-329h-162v291c0 57 -36 97 -88 97s-91 -39 -91 -90l-1 3v-301h-169v517h169v-59c32 44 87 71 152 71z" />
    <glyph glyph-name="ncommaaccent" unicode="&#x146;" horiz-adv-x="621" 
d="M377 529c111 0 190 -83 190 -200v-329h-162v291c0 57 -36 97 -88 97s-91 -39 -91 -90l-1 3v-301h-169v517h169v-59c32 44 87 71 152 71zM321 -35c47 0 80 -44 80 -105c0 -50 -30 -104 -87 -156l-43 34c24 21 42 47 48 71c-41 0 -74 36 -74 78c0 43 34 78 76 78z" />
    <glyph glyph-name="ntilde" unicode="&#xf1;" horiz-adv-x="621" 
d="M257 618c-21 0 -33 -15 -40 -47l-81 11c11 92 47 137 116 137c55 0 103 -46 132 -46c22 0 34 15 40 47l81 -12c-10 -91 -46 -136 -116 -136c-56 0 -102 46 -132 46zM377 529c111 0 190 -83 190 -200v-329h-162v291c0 57 -36 97 -88 97s-91 -39 -91 -90l-1 3v-301h-169
v517h169v-59c32 44 87 71 152 71z" />
    <glyph glyph-name="o" unicode="o" horiz-adv-x="635" 
d="M318 -12c-156 0 -287 124 -287 271s131 270 287 270s287 -123 287 -270s-131 -271 -287 -271zM318 129c69 0 127 60 127 130s-58 129 -127 129s-127 -59 -127 -129s58 -130 127 -130z" />
    <glyph glyph-name="oacute" unicode="&#xf3;" horiz-adv-x="635" 
d="M207 574l114 160l148 -26l-150 -134h-112zM318 -12c-156 0 -287 124 -287 271s131 270 287 270s287 -123 287 -270s-131 -271 -287 -271zM318 129c69 0 127 60 127 130s-58 129 -127 129s-127 -59 -127 -129s58 -130 127 -130z" />
    <glyph glyph-name="ocircumflex" unicode="&#xf4;" horiz-adv-x="635" 
d="M143 574l106 151h138l108 -151h-102l-75 71l-74 -71h-101zM318 -12c-156 0 -287 124 -287 271s131 270 287 270s287 -123 287 -270s-131 -271 -287 -271zM318 129c69 0 127 60 127 130s-58 129 -127 129s-127 -59 -127 -129s58 -130 127 -130z" />
    <glyph glyph-name="odieresis" unicode="&#xf6;" horiz-adv-x="635" 
d="M209 579c-45 0 -79 36 -79 79c0 42 34 78 79 78c42 0 78 -36 78 -78c0 -43 -36 -79 -78 -79zM427 579c-44 0 -79 36 -79 79c0 42 35 78 79 78s78 -36 78 -78c0 -43 -34 -79 -78 -79zM318 -12c-156 0 -287 124 -287 271s131 270 287 270s287 -123 287 -270
s-131 -271 -287 -271zM318 129c69 0 127 60 127 130s-58 129 -127 129s-127 -59 -127 -129s58 -130 127 -130z" />
    <glyph glyph-name="ograve" unicode="&#xf2;" horiz-adv-x="635" 
d="M307 574l-150 134l149 26l113 -160h-112zM318 -12c-156 0 -287 124 -287 271s131 270 287 270s287 -123 287 -270s-131 -271 -287 -271zM318 129c69 0 127 60 127 130s-58 129 -127 129s-127 -59 -127 -129s58 -130 127 -130z" />
    <glyph glyph-name="ohungarumlaut" unicode="&#x151;" horiz-adv-x="635" 
d="M132 574l114 160l148 -26l-150 -134h-112zM378 574l114 160l149 -26l-150 -134h-113zM318 -12c-156 0 -287 124 -287 271s131 270 287 270s287 -123 287 -270s-131 -271 -287 -271zM318 129c69 0 127 60 127 130s-58 129 -127 129s-127 -59 -127 -129s58 -130 127 -130z
" />
    <glyph glyph-name="omacron" unicode="&#x14d;" horiz-adv-x="635" 
d="M139 577v96h357v-96h-357zM318 -12c-156 0 -287 124 -287 271s131 270 287 270s287 -123 287 -270s-131 -271 -287 -271zM318 129c69 0 127 60 127 130s-58 129 -127 129s-127 -59 -127 -129s58 -130 127 -130z" />
    <glyph glyph-name="oslash" unicode="&#xf8;" horiz-adv-x="635" 
d="M531 438c46 -48 74 -111 74 -179c0 -147 -131 -271 -287 -271c-52 0 -102 14 -144 38l-23 -26h-113l68 78c-46 49 -75 112 -75 181c0 147 131 270 287 270c53 0 102 -14 145 -38l23 26h113zM191 259c0 -23 6 -44 17 -63l158 182c-15 7 -31 10 -48 10
c-69 0 -127 -59 -127 -129zM318 129c69 0 127 60 127 130c0 22 -6 43 -16 62l-158 -182c15 -7 31 -10 47 -10z" />
    <glyph glyph-name="otilde" unicode="&#xf5;" horiz-adv-x="635" 
d="M386 572c-56 0 -102 46 -132 46c-21 0 -33 -15 -40 -47l-81 11c11 92 47 137 116 137c55 0 103 -46 132 -46c22 0 34 15 40 47l81 -12c-10 -91 -46 -136 -116 -136zM318 -12c-156 0 -287 124 -287 271s131 270 287 270s287 -123 287 -270s-131 -271 -287 -271zM318 129
c69 0 127 60 127 130s-58 129 -127 129s-127 -59 -127 -129s58 -130 127 -130z" />
    <glyph glyph-name="oe" unicode="&#x153;" horiz-adv-x="1009" 
d="M722 125c40 0 86 17 117 44l100 -101c-46 -47 -135 -80 -212 -80c-83 0 -155 31 -205 82c-52 -50 -125 -82 -204 -82c-156 0 -287 124 -287 271s131 270 287 270c78 0 150 -31 203 -81c48 51 117 81 198 81c164 0 260 -120 260 -317h-369c16 -52 57 -87 112 -87zM722 393
c-51 0 -92 -30 -110 -78h210c-14 47 -49 78 -100 78zM318 129c69 0 127 60 127 130s-58 129 -127 129s-127 -59 -127 -129s58 -130 127 -130z" />
    <glyph glyph-name="p" unicode="p" 
d="M396 529c139 0 237 -112 237 -270c0 -159 -98 -271 -237 -271c-69 0 -128 29 -169 78v-238h-170v689h170v-66c41 49 100 78 169 78zM345 129c73 0 125 54 125 130c0 75 -52 129 -125 129c-70 0 -118 -54 -118 -129c0 -76 48 -130 118 -130z" />
    <glyph glyph-name="thorn" unicode="&#xfe;" 
d="M396 529c139 0 237 -112 237 -270c0 -159 -98 -271 -237 -271c-69 0 -128 29 -169 78v-238h-170v871h170v-248c41 49 100 78 169 78zM345 129c73 0 125 54 125 130c0 75 -52 129 -125 129c-70 0 -118 -54 -118 -129c0 -76 48 -130 118 -130z" />
    <glyph glyph-name="q" unicode="q" 
d="M440 517h170v-689h-170v238c-41 -49 -100 -78 -169 -78c-139 0 -237 112 -237 271c0 158 98 270 237 270c69 0 128 -29 169 -78v66zM322 129c70 0 118 54 118 130c0 75 -48 129 -118 129c-73 0 -125 -54 -125 -129c0 -76 52 -130 125 -130z" />
    <glyph glyph-name="r" unicode="r" horiz-adv-x="414" 
d="M226 421c34 67 95 108 170 108v-141c-105 0 -169 -60 -169 -155l-1 2v-235h-169v517h169v-96z" />
    <glyph glyph-name="racute" unicode="&#x155;" horiz-adv-x="414" 
d="M379 708l-150 -134h-112l114 160zM226 421c34 67 95 108 170 108v-141c-105 0 -169 -60 -169 -155l-1 2v-235h-169v517h169v-96z" />
    <glyph glyph-name="rcaron" unicode="&#x159;" horiz-adv-x="414" 
d="M297 574h-138l-106 151h101l74 -71l75 71h102zM226 421c34 67 95 108 170 108v-141c-105 0 -169 -60 -169 -155l-1 2v-235h-169v517h169v-96z" />
    <glyph glyph-name="rcommaaccent" unicode="&#x157;" horiz-adv-x="414" 
d="M226 421c34 67 95 108 170 108v-141c-105 0 -169 -60 -169 -155l-1 2v-235h-169v517h169v-96zM198 -35c47 0 80 -44 80 -105c0 -50 -30 -104 -87 -156l-43 34c24 21 42 47 48 71c-41 0 -74 36 -74 78c0 43 34 78 76 78z" />
    <glyph glyph-name="s" unicode="s" horiz-adv-x="504" 
d="M258 -12c-87 0 -177 29 -240 78l68 109c48 -34 114 -59 176 -59c37 0 58 12 58 32c0 25 -34 35 -85 47c-100 23 -193 49 -194 161c0 99 81 173 209 173c77 0 152 -27 210 -66l-62 -111c-45 29 -101 51 -148 51c-31 0 -53 -14 -53 -30c0 -23 22 -28 83 -44
c92 -22 195 -52 195 -170c0 -104 -84 -171 -217 -171z" />
    <glyph glyph-name="sacute" unicode="&#x15b;" horiz-adv-x="504" 
d="M139 574l114 160l148 -26l-150 -134h-112zM258 -12c-87 0 -177 29 -240 78l68 109c48 -34 114 -59 176 -59c37 0 58 12 58 32c0 25 -34 35 -85 47c-100 23 -193 49 -194 161c0 99 81 173 209 173c77 0 152 -27 210 -66l-62 -111c-45 29 -101 51 -148 51
c-31 0 -53 -14 -53 -30c0 -23 22 -28 83 -44c92 -22 195 -52 195 -170c0 -104 -84 -171 -217 -171z" />
    <glyph glyph-name="scaron" unicode="&#x161;" horiz-adv-x="504" 
d="M181 574l-106 151h101l74 -71l75 71h102l-108 -151h-138zM258 -12c-87 0 -177 29 -240 78l68 109c48 -34 114 -59 176 -59c37 0 58 12 58 32c0 25 -34 35 -85 47c-100 23 -193 49 -194 161c0 99 81 173 209 173c77 0 152 -27 210 -66l-62 -111c-45 29 -101 51 -148 51
c-31 0 -53 -14 -53 -30c0 -23 22 -28 83 -44c92 -22 195 -52 195 -170c0 -104 -84 -171 -217 -171z" />
    <glyph glyph-name="scedilla" unicode="&#x15f;" horiz-adv-x="504" 
d="M475 159c0 -94 -69 -158 -180 -169l-14 -33c44 -1 74 -29 74 -68c0 -55 -47 -87 -111 -87c-38 0 -75 12 -97 29l29 63c17 -14 39 -23 59 -23c21 0 39 10 39 28c0 15 -11 24 -30 24c-10 0 -21 -3 -29 -9l-24 23l23 53c-72 8 -144 35 -196 76l68 109
c48 -34 114 -59 176 -59c37 0 58 12 58 32c0 25 -34 35 -85 47c-100 23 -193 49 -194 161c0 99 81 173 209 173c77 0 152 -27 210 -66l-62 -111c-45 29 -101 51 -148 51c-31 0 -53 -14 -53 -30c0 -23 22 -28 83 -44c92 -22 195 -52 195 -170z" />
    <glyph glyph-name="germandbls" unicode="&#xdf;" horiz-adv-x="626" 
d="M58 0v516c0 120 105 205 254 205s255 -85 255 -205c0 -68 -36 -125 -96 -155c80 -35 127 -100 127 -175c0 -110 -97 -186 -233 -186h-67v145h37c51 0 87 29 87 69s-36 69 -87 69h-37v132h12c47 0 81 29 81 66c0 38 -32 65 -81 65c-48 0 -82 -27 -82 -73v-473h-170z" />
    <glyph glyph-name="t" unicode="t" horiz-adv-x="407" 
d="M347 146l34 -109c-31 -29 -82 -49 -126 -49c-97 0 -165 69 -165 166v228h-68v135h68v142h162v-142h107v-135h-107v-197c0 -33 20 -56 47 -56c19 0 38 7 48 17z" />
    <glyph glyph-name="tcaron" unicode="&#x165;" horiz-adv-x="407" 
d="M498 699c47 0 80 -44 80 -105c0 -50 -30 -104 -87 -156l-43 34c24 21 42 47 48 71c-41 0 -74 36 -74 78c0 43 34 78 76 78zM299 129c19 0 38 7 48 17l34 -109c-31 -29 -82 -49 -126 -49c-97 0 -165 69 -165 166v228h-68v135h68v142h162v-142h107v-135h-107v-197
c0 -33 20 -56 47 -56z" />
    <glyph glyph-name="uni0163" unicode="&#x163;" horiz-adv-x="407" 
d="M287 -43c44 -1 74 -29 74 -68c0 -55 -47 -87 -111 -87c-38 0 -75 12 -97 29l29 63c17 -14 39 -23 59 -23c21 0 39 10 39 28c0 15 -11 24 -30 24c-10 0 -21 -3 -29 -9l-24 23l23 54c-78 15 -130 78 -130 163v228h-68v135h68v142h162v-142h107v-135h-107v-197
c0 -33 20 -56 47 -56c19 0 38 7 48 17l34 -109c-20 -19 -48 -34 -78 -42z" />
    <glyph glyph-name="u" unicode="u" horiz-adv-x="621" 
d="M396 517h169v-517h-169v59c-32 -44 -87 -71 -152 -71c-111 0 -190 83 -190 200v329h162v-291c0 -57 36 -97 88 -97s91 39 91 90l1 -3v301z" />
    <glyph glyph-name="uacute" unicode="&#xfa;" horiz-adv-x="621" 
d="M460 708l-150 -134h-112l114 160zM396 517h169v-517h-169v59c-32 -44 -87 -71 -152 -71c-111 0 -190 83 -190 200v329h162v-291c0 -57 36 -97 88 -97s91 39 91 90l1 -3v301z" />
    <glyph glyph-name="ucircumflex" unicode="&#xfb;" horiz-adv-x="621" 
d="M309 645l-74 -71h-101l106 151h138l108 -151h-102zM396 517h169v-517h-169v59c-32 -44 -87 -71 -152 -71c-111 0 -190 83 -190 200v329h162v-291c0 -57 36 -97 88 -97s91 39 91 90l1 -3v301z" />
    <glyph glyph-name="udieresis" unicode="&#xfc;" horiz-adv-x="621" 
d="M200 579c-45 0 -79 36 -79 79c0 42 34 78 79 78c42 0 78 -36 78 -78c0 -43 -36 -79 -78 -79zM418 579c-44 0 -79 36 -79 79c0 42 35 78 79 78s78 -36 78 -78c0 -43 -34 -79 -78 -79zM396 517h169v-517h-169v59c-32 -44 -87 -71 -152 -71c-111 0 -190 83 -190 200v329h162
v-291c0 -57 36 -97 88 -97s91 39 91 90l1 -3v301z" />
    <glyph glyph-name="ugrave" unicode="&#xf9;" horiz-adv-x="621" 
d="M410 574h-112l-150 134l149 26zM396 517h169v-517h-169v59c-32 -44 -87 -71 -152 -71c-111 0 -190 83 -190 200v329h162v-291c0 -57 36 -97 88 -97s91 39 91 90l1 -3v301z" />
    <glyph glyph-name="uhungarumlaut" unicode="&#x171;" horiz-adv-x="621" 
d="M376 708l-150 -134h-112l114 160zM473 574h-113l114 160l149 -26zM396 216v301h169v-517h-169v59c-32 -44 -87 -71 -152 -71c-111 0 -190 83 -190 200v329h162v-291c0 -57 36 -97 88 -97s91 39 91 90z" />
    <glyph glyph-name="umacron" unicode="&#x16b;" horiz-adv-x="621" 
d="M487 673v-96h-357v96h357zM396 517h169v-517h-169v59c-32 -44 -87 -71 -152 -71c-111 0 -190 83 -190 200v329h162v-291c0 -57 36 -97 88 -97s91 39 91 90l1 -3v301z" />
    <glyph glyph-name="uogonek" unicode="&#x173;" horiz-adv-x="621" 
d="M600 -64l24 -75c-23 -20 -54 -34 -92 -34c-65 0 -111 43 -111 113c0 23 6 43 17 60h-42v59c-32 -44 -87 -71 -152 -71c-111 0 -190 83 -190 200v329h162v-291c0 -57 36 -97 88 -97s91 39 91 90l1 -3v301h169v-517c-25 0 -42 -17 -42 -40c0 -24 17 -36 43 -36
c13 0 26 5 34 12z" />
    <glyph glyph-name="uring" unicode="&#x16f;" horiz-adv-x="621" 
d="M309 578c-64 0 -117 52 -117 117s53 118 117 118c65 0 118 -53 118 -118s-53 -117 -118 -117zM309 746c-28 0 -51 -23 -51 -51s23 -51 51 -51s51 23 51 51s-23 51 -51 51zM396 517h169v-517h-169v59c-32 -44 -87 -71 -152 -71c-111 0 -190 83 -190 200v329h162v-291
c0 -57 36 -97 88 -97s91 39 91 90l1 -3v301z" />
    <glyph glyph-name="v" unicode="v" horiz-adv-x="621" 
d="M233 0l-224 517h175l128 -323l125 323h175l-222 -517h-157z" />
    <glyph glyph-name="w" unicode="w" horiz-adv-x="844" 
d="M190 0l-177 517h164l87 -290l89 290h139l90 -290l87 290h164l-176 -517h-151l-83 295l-82 -295h-151z" />
    <glyph glyph-name="wacute" unicode="&#x1e83;" horiz-adv-x="844" 
d="M366 574l114 160l148 -26l-150 -134h-112zM190 0l-177 517h164l87 -290l89 290h139l90 -290l87 290h164l-176 -517h-151l-83 295l-82 -295h-151z" />
    <glyph glyph-name="wcircumflex" unicode="&#x175;" horiz-adv-x="844" 
d="M248 574l106 151h138l108 -151h-102l-75 71l-74 -71h-101zM190 0l-177 517h164l87 -290l89 290h139l90 -290l87 290h164l-176 -517h-151l-83 295l-82 -295h-151z" />
    <glyph glyph-name="wdieresis" unicode="&#x1e85;" horiz-adv-x="844" 
d="M314 579c-45 0 -79 36 -79 79c0 42 34 78 79 78c42 0 78 -36 78 -78c0 -43 -36 -79 -78 -79zM532 579c-44 0 -79 36 -79 79c0 42 35 78 79 78s78 -36 78 -78c0 -43 -34 -79 -78 -79zM190 0l-177 517h164l87 -290l89 290h139l90 -290l87 290h164l-176 -517h-151l-83 295
l-82 -295h-151z" />
    <glyph glyph-name="wgrave" unicode="&#x1e81;" horiz-adv-x="844" 
d="M368 574l-150 134l149 26l113 -160h-112zM190 0l-177 517h164l87 -290l89 290h139l90 -290l87 290h164l-176 -517h-151l-83 295l-82 -295h-151z" />
    <glyph glyph-name="x" unicode="x" horiz-adv-x="571" 
d="M562 0h-181l-97 138l-98 -138h-177l187 263l-178 254h180l89 -126l89 126h177l-178 -251z" />
    <glyph glyph-name="y" unicode="y" horiz-adv-x="604" 
d="M191 -180c-47 0 -106 15 -145 37l35 112c27 -15 55 -26 71 -26c25 0 47 8 56 22l14 29l-212 523h174l121 -341l114 341h172l-203 -532c-41 -106 -112 -165 -197 -165z" />
    <glyph glyph-name="yacute" unicode="&#xfd;" horiz-adv-x="604" 
d="M194 574l114 160l148 -26l-150 -134h-112zM191 -180c-47 0 -106 15 -145 37l35 112c27 -15 55 -26 71 -26c25 0 47 8 56 22l14 29l-212 523h174l121 -341l114 341h172l-203 -532c-41 -106 -112 -165 -197 -165z" />
    <glyph glyph-name="ycircumflex" unicode="&#x177;" horiz-adv-x="604" 
d="M130 574l106 151h138l108 -151h-102l-75 71l-74 -71h-101zM191 -180c-47 0 -106 15 -145 37l35 112c27 -15 55 -26 71 -26c25 0 47 8 56 22l14 29l-212 523h174l121 -341l114 341h172l-203 -532c-41 -106 -112 -165 -197 -165z" />
    <glyph glyph-name="ydieresis" unicode="&#xff;" horiz-adv-x="604" 
d="M196 579c-45 0 -79 36 -79 79c0 42 34 78 79 78c42 0 78 -36 78 -78c0 -43 -36 -79 -78 -79zM414 579c-44 0 -79 36 -79 79c0 42 35 78 79 78s78 -36 78 -78c0 -43 -34 -79 -78 -79zM191 -180c-47 0 -106 15 -145 37l35 112c27 -15 55 -26 71 -26c25 0 47 8 56 22l14 29
l-212 523h174l121 -341l114 341h172l-203 -532c-41 -106 -112 -165 -197 -165z" />
    <glyph glyph-name="ygrave" unicode="&#x1ef3;" horiz-adv-x="604" 
d="M294 574l-150 134l149 26l113 -160h-112zM191 -180c-47 0 -106 15 -145 37l35 112c27 -15 55 -26 71 -26c25 0 47 8 56 22l14 29l-212 523h174l121 -341l114 341h172l-203 -532c-41 -106 -112 -165 -197 -165z" />
    <glyph glyph-name="z" unicode="z" horiz-adv-x="538" 
d="M37 0v118l244 257h-237v142h458l-1 -118l-245 -257h248v-142h-467z" />
    <glyph glyph-name="zacute" unicode="&#x17a;" horiz-adv-x="538" 
d="M165 574l114 160l148 -26l-150 -134h-112zM37 0v118l244 257h-237v142h458l-1 -118l-245 -257h248v-142h-467z" />
    <glyph glyph-name="zcaron" unicode="&#x17e;" horiz-adv-x="538" 
d="M207 574l-106 151h101l74 -71l75 71h102l-108 -151h-138zM37 0v118l244 257h-237v142h458l-1 -118l-245 -257h248v-142h-467z" />
    <glyph glyph-name="zdotaccent" unicode="&#x17c;" horiz-adv-x="538" 
d="M276 579c-45 0 -79 36 -79 79c0 42 34 78 79 78c42 0 78 -36 78 -78c0 -43 -36 -79 -78 -79zM37 0v118l244 257h-237v142h458l-1 -118l-245 -257h248v-142h-467z" />
    <glyph glyph-name="a.alt" 
d="M440 517h169v-517h-169v66c-41 -49 -100 -78 -169 -78c-139 0 -237 112 -237 271c0 158 98 270 237 270c69 0 128 -29 169 -78v66zM322 129c70 0 118 54 118 130c0 75 -48 129 -118 129c-73 0 -125 -54 -125 -129c0 -76 52 -130 125 -130z" />
    <glyph glyph-name="aacute.alt" 
d="M492 708l-150 -134h-112l114 160zM440 517h169v-517h-169v66c-41 -49 -100 -78 -169 -78c-139 0 -237 112 -237 271c0 158 98 270 237 270c69 0 128 -29 169 -78v66zM322 129c70 0 118 54 118 130c0 75 -48 129 -118 129c-73 0 -125 -54 -125 -129
c0 -76 52 -130 125 -130z" />
    <glyph glyph-name="abreve.alt" 
d="M507 647c-46 -46 -106 -69 -166 -69s-119 23 -166 69l69 68c27 -27 63 -43 97 -43s70 16 97 43zM440 517h169v-517h-169v66c-41 -49 -100 -78 -169 -78c-139 0 -237 112 -237 271c0 158 98 270 237 270c69 0 128 -29 169 -78v66zM322 129c70 0 118 54 118 130
c0 75 -48 129 -118 129c-73 0 -125 -54 -125 -129c0 -76 52 -130 125 -130z" />
    <glyph glyph-name="acircumflex.alt" 
d="M341 645l-74 -71h-101l106 151h138l108 -151h-102zM440 517h169v-517h-169v66c-41 -49 -100 -78 -169 -78c-139 0 -237 112 -237 271c0 158 98 270 237 270c69 0 128 -29 169 -78v66zM322 129c70 0 118 54 118 130c0 75 -48 129 -118 129c-73 0 -125 -54 -125 -129
c0 -76 52 -130 125 -130z" />
    <glyph glyph-name="adieresis.alt" 
d="M232 579c-45 0 -79 36 -79 79c0 42 34 78 79 78c42 0 78 -36 78 -78c0 -43 -36 -79 -78 -79zM450 579c-44 0 -79 36 -79 79c0 42 35 78 79 78s78 -36 78 -78c0 -43 -34 -79 -78 -79zM440 517h169v-517h-169v66c-41 -49 -100 -78 -169 -78c-139 0 -237 112 -237 271
c0 158 98 270 237 270c69 0 128 -29 169 -78v66zM322 129c70 0 118 54 118 130c0 75 -48 129 -118 129c-73 0 -125 -54 -125 -129c0 -76 52 -130 125 -130z" />
    <glyph glyph-name="agrave.alt" 
d="M442 574h-112l-150 134l149 26zM440 517h169v-517h-169v66c-41 -49 -100 -78 -169 -78c-139 0 -237 112 -237 271c0 158 98 270 237 270c69 0 128 -29 169 -78v66zM322 129c70 0 118 54 118 130c0 75 -48 129 -118 129c-73 0 -125 -54 -125 -129c0 -76 52 -130 125 -130z
" />
    <glyph glyph-name="amacron.alt" 
d="M519 673v-96h-357v96h357zM440 517h169v-517h-169v66c-41 -49 -100 -78 -169 -78c-139 0 -237 112 -237 271c0 158 98 270 237 270c69 0 128 -29 169 -78v66zM322 129c70 0 118 54 118 130c0 75 -48 129 -118 129c-73 0 -125 -54 -125 -129c0 -76 52 -130 125 -130z" />
    <glyph glyph-name="aogonek.alt" 
d="M644 -64l24 -75c-23 -20 -54 -34 -92 -34c-65 0 -111 43 -111 113c0 23 6 43 17 60h-42v66c-41 -49 -100 -78 -169 -78c-139 0 -237 112 -237 271c0 158 98 270 237 270c69 0 128 -29 169 -78v66h169v-517c-25 0 -42 -17 -42 -40c0 -24 17 -36 43 -36c13 0 26 5 34 12z
M322 129c70 0 118 54 118 130c0 75 -48 129 -118 129c-73 0 -125 -54 -125 -129c0 -76 52 -130 125 -130z" />
    <glyph glyph-name="aring.alt" 
d="M341 578c-64 0 -117 52 -117 117s53 118 117 118c65 0 118 -53 118 -118s-53 -117 -118 -117zM341 746c-28 0 -51 -23 -51 -51s23 -51 51 -51s51 23 51 51s-23 51 -51 51zM440 517h169v-517h-169v66c-41 -49 -100 -78 -169 -78c-139 0 -237 112 -237 271
c0 158 98 270 237 270c69 0 128 -29 169 -78v66zM322 129c70 0 118 54 118 130c0 75 -48 129 -118 129c-73 0 -125 -54 -125 -129c0 -76 52 -130 125 -130z" />
    <glyph glyph-name="atilde.alt" 
d="M277 618c-21 0 -33 -15 -40 -47l-81 11c11 92 47 137 116 137c55 0 103 -46 132 -46c22 0 34 15 40 47l81 -12c-10 -91 -46 -136 -116 -136c-56 0 -102 46 -132 46zM440 517h169v-517h-169v66c-41 -49 -100 -78 -169 -78c-139 0 -237 112 -237 271c0 158 98 270 237 270
c69 0 128 -29 169 -78v66zM322 129c70 0 118 54 118 130c0 75 -48 129 -118 129c-73 0 -125 -54 -125 -129c0 -76 52 -130 125 -130z" />
    <glyph glyph-name="zero" unicode="0" horiz-adv-x="712" 
d="M356 -12c-185 0 -316 147 -316 356c0 208 131 355 316 355c186 0 316 -147 316 -355c0 -209 -130 -356 -316 -356zM356 143c83 0 141 84 141 201s-58 200 -141 200c-82 0 -140 -83 -140 -200s58 -201 140 -201z" />
    <glyph glyph-name="one" unicode="1" horiz-adv-x="435" 
d="M194 0v494l-116 -72l-68 119l218 146h136v-687h-170z" />
    <glyph glyph-name="two" unicode="2" horiz-adv-x="618" 
d="M42 0v139l254 190c77 58 99 96 99 138c0 47 -41 77 -91 77c-64 0 -112 -31 -164 -86l-107 106c73 88 162 135 275 135c154 0 262 -94 262 -225c0 -91 -38 -162 -158 -244l-108 -77h273v-153h-535z" />
    <glyph glyph-name="three" unicode="3" horiz-adv-x="612" 
d="M306 -13c-127 0 -224 47 -285 115l98 113c50 -50 114 -75 178 -75c69 0 107 29 107 69c0 43 -33 65 -120 65l-81 -1v144h81c69 -1 106 22 106 62c0 42 -41 67 -103 67c-61 0 -111 -29 -156 -73l-96 104c59 69 143 122 270 122c162 0 259 -80 259 -188
c0 -77 -50 -135 -127 -157c76 -18 142 -72 142 -160c0 -121 -107 -207 -273 -207z" />
    <glyph glyph-name="four" unicode="4" horiz-adv-x="657" 
d="M368 0v131h-333l-15 130l311 425h208v-413h87v-142h-87v-131h-171zM197 273h171v236z" />
    <glyph glyph-name="five" unicode="5" horiz-adv-x="624" 
d="M303 -13c-118 0 -207 40 -273 104l98 121c51 -46 113 -77 175 -77c72 0 113 40 113 89c0 51 -43 85 -111 85c-49 0 -91 -16 -126 -43l-113 44l10 377h472v-153h-315l-4 -125c33 24 76 40 130 40c121 0 227 -78 227 -219c0 -149 -111 -243 -283 -243z" />
    <glyph glyph-name="six" unicode="6" horiz-adv-x="649" 
d="M377 449c127 0 232 -83 232 -220c0 -145 -117 -241 -270 -241c-205 0 -302 141 -302 343c0 218 127 368 328 368c87 0 158 -27 216 -72l-79 -129c-41 33 -81 52 -136 52c-81 0 -133 -58 -148 -155c41 33 100 54 159 54zM329 133c64 0 105 40 105 89c0 57 -51 90 -109 90
c-48 0 -87 -25 -107 -66c11 -76 41 -113 111 -113z" />
    <glyph glyph-name="seven" unicode="7" horiz-adv-x="605" 
d="M106 0l267 534h-330v153h527v-129l-272 -558h-192z" />
    <glyph glyph-name="eight" unicode="8" horiz-adv-x="630" 
d="M315 -12c-156 0 -284 70 -284 198c0 79 52 138 129 169c-64 29 -111 78 -111 156c0 122 127 188 266 188c142 0 267 -68 267 -188c0 -75 -44 -125 -112 -156c80 -34 130 -93 130 -169c0 -129 -130 -198 -285 -198zM315 413c50 3 98 32 98 74c0 40 -39 71 -98 71
s-97 -31 -97 -71c0 -43 47 -71 97 -74zM315 130c65 0 112 30 112 75s-57 73 -112 76c-55 -3 -111 -31 -111 -76s45 -75 111 -75z" />
    <glyph glyph-name="nine" unicode="9" horiz-adv-x="649" 
d="M310 699c205 0 302 -141 302 -343c0 -218 -127 -368 -328 -368c-87 0 -158 27 -216 72l79 129c41 -33 81 -52 136 -52c81 0 133 58 148 155c-41 -33 -100 -54 -159 -54c-127 0 -232 83 -232 220c0 145 117 241 270 241zM324 375c48 0 87 25 107 66
c-11 76 -41 113 -111 113c-64 0 -105 -40 -105 -89c0 -57 51 -90 109 -90z" />
    <glyph glyph-name="asterisk" unicode="*" horiz-adv-x="394" 
d="M198 335c-24 0 -43 18 -43 39c0 34 17 77 22 111c-27 -21 -55 -58 -84 -75c-18 -11 -43 -3 -55 18c-12 20 -5 46 13 56c29 17 75 22 107 35c-33 13 -78 19 -107 36c-18 10 -25 35 -13 56s37 28 55 18c29 -17 58 -55 84 -76c-5 34 -23 77 -23 111c0 21 19 39 43 39
c23 0 42 -18 42 -39c0 -34 -19 -77 -24 -111c28 21 56 58 85 75c18 11 44 3 55 -18c12 -20 6 -46 -12 -56c-29 -17 -76 -22 -108 -35c32 -13 79 -19 108 -36c18 -10 24 -35 12 -56c-11 -21 -37 -28 -55 -18c-29 17 -57 55 -84 76c5 -34 24 -77 24 -111
c0 -21 -19 -39 -42 -39z" />
    <glyph glyph-name="backslash" unicode="\" horiz-adv-x="477" 
d="M327 -74l-342 817h177l342 -817h-177z" />
    <glyph glyph-name="colon" unicode=":" horiz-adv-x="302" 
d="M154 331c-60 0 -106 47 -106 105c0 54 46 101 106 101c55 0 101 -47 101 -101c0 -58 -46 -105 -101 -105zM154 -12c-60 0 -106 47 -106 105c0 54 46 101 106 101c55 0 101 -47 101 -101c0 -58 -46 -105 -101 -105z" />
    <glyph glyph-name="comma" unicode="," horiz-adv-x="302" 
d="M142 -151l-58 44c32 28 55 62 64 95c-54 0 -99 47 -99 102c0 57 46 104 101 104c63 0 107 -58 107 -139c0 -66 -40 -138 -115 -206z" />
    <glyph glyph-name="ellipsis" unicode="&#x2026;" horiz-adv-x="863" 
d="M154 -12c-60 0 -106 47 -106 105c0 54 46 101 106 101c55 0 101 -47 101 -101c0 -58 -46 -105 -101 -105zM434 -12c-60 0 -106 47 -106 105c0 54 46 101 106 101c55 0 101 -47 101 -101c0 -58 -46 -105 -101 -105zM714 -12c-60 0 -106 47 -106 105c0 54 46 101 106 101
c55 0 101 -47 101 -101c0 -58 -46 -105 -101 -105z" />
    <glyph glyph-name="exclam" unicode="!" horiz-adv-x="318" 
d="M104 258l-38 429h190l-37 -429h-115zM162 -12c-60 0 -106 47 -106 105c0 54 46 101 106 101c55 0 101 -47 101 -101c0 -58 -46 -105 -101 -105z" />
    <glyph glyph-name="exclamdown" unicode="&#xa1;" horiz-adv-x="318" 
d="M156 529c60 0 106 -47 106 -105c0 -54 -46 -101 -106 -101c-55 0 -101 47 -101 101c0 58 46 105 101 105zM214 259l38 -429h-190l37 429h115z" />
    <glyph glyph-name="numbersign" unicode="#" horiz-adv-x="676" 
d="M617 412h-90l-35 -139h90l-29 -120h-91l-39 -153h-121l39 153h-103l-39 -153h-122l39 153h-87l29 120h88l35 139h-90l29 120h91l39 155h122l-39 -155h103l39 155h121l-39 -155h90zM371 273l35 139h-103l-35 -139h103z" />
    <glyph glyph-name="period" unicode="." horiz-adv-x="302" 
d="M154 -12c-60 0 -106 47 -106 105c0 54 46 101 106 101c55 0 101 -47 101 -101c0 -58 -46 -105 -101 -105z" />
    <glyph glyph-name="question" unicode="?" horiz-adv-x="504" 
d="M164 250v157c84 2 143 33 143 75c0 36 -36 64 -88 64c-41 0 -83 -21 -112 -50l-95 98c58 62 140 105 238 105c136 0 230 -84 230 -201c0 -90 -70 -170 -169 -194v-54h-147zM238 -12c-60 0 -106 47 -106 105c0 54 46 101 106 101c55 0 101 -47 101 -101
c0 -58 -46 -105 -101 -105z" />
    <glyph glyph-name="questiondown" unicode="&#xbf;" horiz-adv-x="504" 
d="M266 529c60 0 106 -47 106 -105c0 -54 -46 -101 -106 -101c-55 0 -101 47 -101 101c0 58 46 105 101 105zM340 267v-157c-84 -2 -143 -33 -143 -75c0 -36 36 -64 88 -64c41 0 83 21 112 50l95 -98c-58 -62 -140 -105 -238 -105c-136 0 -230 84 -230 201
c0 90 70 170 169 194v54h147z" />
    <glyph glyph-name="quotedbl" unicode="&#x22;" horiz-adv-x="550" 
d="M113 382c-26 79 -54 171 -54 229c0 48 39 88 86 88s86 -40 86 -88c0 -58 -28 -150 -54 -229h-64zM373 382c-26 79 -54 171 -54 229c0 48 39 88 86 88s86 -40 86 -88c0 -58 -28 -150 -54 -229h-64z" />
    <glyph glyph-name="quotesingle" unicode="'" horiz-adv-x="290" 
d="M113 382c-26 79 -54 171 -54 229c0 48 39 88 86 88s86 -40 86 -88c0 -58 -28 -150 -54 -229h-64z" />
    <glyph glyph-name="semicolon" unicode=";" horiz-adv-x="302" 
d="M155 331c-60 0 -106 47 -106 105c0 54 46 101 106 101c55 0 101 -47 101 -101c0 -58 -46 -105 -101 -105zM142 -151l-58 44c32 28 55 62 64 95c-54 0 -99 47 -99 102c0 57 46 104 101 104c63 0 107 -58 107 -139c0 -66 -40 -138 -115 -206z" />
    <glyph glyph-name="slash" unicode="/" horiz-adv-x="477" 
d="M-26 -74l342 817h177l-342 -817h-177z" />
    <glyph glyph-name="underscore" unicode="_" horiz-adv-x="592" 
d="M-2 -156v92h596v-92h-596z" />
    <glyph glyph-name="braceleft" unicode="{" horiz-adv-x="411" 
d="M366 -166c-177 13 -243 68 -243 185l1 114c0 59 -28 83 -95 83v99c69 0 95 25 95 84l-1 113c0 118 67 172 243 185l13 -101c-104 -13 -126 -31 -126 -97l1 -121c0 -58 -26 -95 -78 -112c52 -17 78 -54 78 -113l-1 -120c0 -68 24 -85 126 -98z" />
    <glyph glyph-name="braceright" unicode="}" horiz-adv-x="411" 
d="M45 -166l-13 101c102 13 126 30 126 98l-1 120c0 59 25 96 78 113c-52 17 -78 54 -78 112l1 121c0 66 -22 84 -126 97l13 101c175 -13 243 -67 243 -185l-1 -113c0 -59 26 -84 94 -84v-99c-67 0 -94 -24 -94 -83l1 -114c0 -117 -67 -172 -243 -185z" />
    <glyph glyph-name="bracketleft" unicode="[" horiz-adv-x="392" 
d="M67 -151v849h284v-108h-153v-633h153v-108h-284z" />
    <glyph glyph-name="bracketright" unicode="]" horiz-adv-x="392" 
d="M41 -151v108h152v633h-152v108h283v-849h-283z" />
    <glyph glyph-name="parenleft" unicode="(" horiz-adv-x="392" 
d="M276 -170c-144 99 -229 256 -229 435c0 180 85 336 229 435l85 -90c-101 -105 -147 -206 -147 -345c0 -138 46 -239 147 -344z" />
    <glyph glyph-name="parenright" unicode=")" horiz-adv-x="392" 
d="M116 -170l-85 91c102 105 147 206 147 344c0 139 -45 240 -147 345l85 90c144 -99 229 -255 229 -435c0 -179 -85 -336 -229 -435z" />
    <glyph glyph-name="emdash" unicode="&#x2014;" horiz-adv-x="874" 
d="M42 207v139h790v-139h-790z" />
    <glyph glyph-name="endash" unicode="&#x2013;" horiz-adv-x="569" 
d="M42 207v139h485v-139h-485z" />
    <glyph glyph-name="hyphen" unicode="-" horiz-adv-x="362" 
d="M42 206v141h279v-141h-279z" />
    <glyph glyph-name="quotedblleft" unicode="&#x201c;" horiz-adv-x="582" 
d="M160 698l58 -44c-32 -28 -55 -62 -64 -95c54 0 99 -47 99 -102c0 -57 -46 -104 -101 -104c-63 0 -107 58 -107 139c0 66 40 138 115 206zM440 698l58 -44c-32 -28 -55 -62 -64 -95c54 0 99 -47 99 -102c0 -57 -46 -104 -101 -104c-63 0 -107 58 -107 139
c0 66 40 138 115 206z" />
    <glyph glyph-name="quotedblright" unicode="&#x201d;" horiz-adv-x="582" 
d="M142 354l-58 44c32 28 55 62 64 95c-54 0 -99 47 -99 102c0 57 46 104 101 104c63 0 107 -58 107 -139c0 -66 -40 -138 -115 -206zM422 354l-58 44c32 28 55 62 64 95c-54 0 -99 47 -99 102c0 57 46 104 101 104c63 0 107 -58 107 -139c0 -66 -40 -138 -115 -206z" />
    <glyph glyph-name="quoteleft" unicode="&#x2018;" horiz-adv-x="302" 
d="M160 698l58 -44c-32 -28 -55 -62 -64 -95c54 0 99 -47 99 -102c0 -57 -46 -104 -101 -104c-63 0 -107 58 -107 139c0 66 40 138 115 206z" />
    <glyph glyph-name="quoteright" unicode="&#x2019;" horiz-adv-x="302" 
d="M142 354l-58 44c32 28 55 62 64 95c-54 0 -99 47 -99 102c0 57 46 104 101 104c63 0 107 -58 107 -139c0 -66 -40 -138 -115 -206z" />
    <glyph glyph-name="space" unicode=" " horiz-adv-x="276" 
 />
    <glyph glyph-name="cent" unicode="&#xa2;" horiz-adv-x="550" 
d="M531 83c-43 -49 -101 -83 -172 -92v-65h-104v69c-126 27 -224 137 -224 264c0 126 98 235 224 263v67h104v-63c70 -9 127 -42 169 -89l-112 -93c-23 25 -62 44 -98 44c-67 0 -124 -59 -124 -128c0 -71 57 -131 124 -131c37 0 77 19 101 46z" />
    <glyph glyph-name="dollar" unicode="$" horiz-adv-x="639" 
d="M607 212c0 -128 -90 -211 -239 -223v-63h-104v66c-95 12 -181 50 -248 111l96 115c67 -55 142 -87 226 -87c64 0 97 26 97 63c0 41 -32 50 -132 74c-147 33 -256 73 -256 211c0 119 86 202 217 217v63h104v-63c88 -9 160 -41 220 -91l-87 -122c-63 48 -132 73 -196 73
c-55 0 -86 -26 -86 -60c0 -42 33 -56 135 -78c154 -33 253 -77 253 -206z" />
    <glyph glyph-name="Euro" unicode="&#x20ac;" horiz-adv-x="701" 
d="M407 143c59 0 112 29 149 74l124 -110c-68 -73 -166 -119 -273 -119c-165 0 -308 110 -354 257h-67v75h53c-1 8 -1 16 -1 24c0 11 1 23 2 34h-54v75h70c49 141 190 246 351 246c107 0 205 -46 273 -118l-125 -111c-36 45 -90 74 -148 74c-66 0 -126 -37 -161 -91h212v-75
h-242c-2 -11 -3 -22 -3 -34c0 -8 0 -16 1 -24h244v-75h-219c34 -60 97 -102 168 -102z" />
    <glyph glyph-name="sterling" unicode="&#xa3;" horiz-adv-x="665" 
d="M307 129h331v-129h-595v68l93 61v123h-72v83h72v128c0 138 100 236 243 236c92 0 191 -47 236 -114l-111 -109c-19 40 -62 68 -105 68c-53 0 -92 -40 -92 -97v-112h150v-83h-150v-123z" />
    <glyph glyph-name="yen" unicode="&#xa5;" horiz-adv-x="701" 
d="M703 687l-218 -368h114v-83h-162v-58h162v-83h-162v-95h-172v95h-162v83h162v58h-162v83h114l-218 368h197l155 -290l162 290h190z" />
    <glyph glyph-name="plus" unicode="+" horiz-adv-x="606" 
d="M548 401v-134h-173v-179h-143v179h-175v134h175v178h143v-178h173z" />
    <glyph glyph-name="minus" unicode="&#x2212;" horiz-adv-x="606" 
d="M57 267v134h491v-134h-491z" />
    <glyph glyph-name="multiply" unicode="&#xd7;" horiz-adv-x="567" 
d="M508 211l-101 -101l-126 126l-124 -124l-95 96l124 124l-126 125l101 101l126 -125l122 122l96 -95l-123 -123z" />
    <glyph glyph-name="divide" unicode="&#xf7;" horiz-adv-x="606" 
d="M305 442c-51 0 -91 41 -91 91c0 46 40 87 91 87c48 0 88 -41 88 -87c0 -50 -40 -91 -88 -91zM57 267v134h491v-134h-491zM305 48c-51 0 -91 41 -91 91c0 46 40 87 91 87c48 0 88 -41 88 -87c0 -50 -40 -91 -88 -91z" />
    <glyph glyph-name="equal" unicode="=" horiz-adv-x="606" 
d="M57 387v134h491v-134h-491zM57 156v134h491v-134h-491z" />
    <glyph glyph-name="greater" unicode="&#x3e;" horiz-adv-x="595" 
d="M69 80v135l341 128l-341 130v134l471 -196v-135z" />
    <glyph glyph-name="less" unicode="&#x3c;" horiz-adv-x="595" 
d="M526 80l-471 196v135l471 196v-134l-341 -130l341 -128v-135z" />
    <glyph glyph-name="asciitilde" unicode="~" horiz-adv-x="455" 
d="M296 292c-56 0 -102 46 -132 46c-21 0 -33 -15 -40 -47l-81 11c11 92 47 137 116 137c55 0 103 -46 132 -46c22 0 34 15 40 47l81 -12c-10 -91 -46 -136 -116 -136z" />
    <glyph glyph-name="percent" unicode="%" horiz-adv-x="850" 
d="M209 340c-104 0 -175 77 -175 177c0 98 70 177 175 177c107 0 176 -80 176 -177c0 -100 -71 -177 -176 -177zM126 0l481 687h118l-480 -687h-119zM209 437c38 0 66 30 66 80c0 49 -28 80 -66 80c-37 0 -65 -30 -65 -80c0 -49 29 -80 65 -80zM641 -11
c-106 0 -176 79 -176 177c0 100 71 178 176 178c106 0 175 -80 175 -178c0 -99 -72 -177 -175 -177zM641 86c38 0 66 30 66 80c0 49 -29 80 -66 80c-39 0 -66 -29 -66 -80c0 -49 28 -80 66 -80z" />
    <glyph glyph-name="perthousand" unicode="&#x2030;" horiz-adv-x="1237" 
d="M209 340c-104 0 -175 77 -175 177c0 98 70 177 175 177c107 0 176 -80 176 -177c0 -100 -71 -177 -176 -177zM126 0l481 687h118l-480 -687h-119zM209 437c38 0 66 30 66 80c0 49 -28 80 -66 80c-37 0 -65 -30 -65 -80c0 -49 29 -80 65 -80zM641 -11
c-106 0 -176 79 -176 177c0 100 71 178 176 178c106 0 175 -80 175 -178c0 -99 -72 -177 -175 -177zM1027 -11c-105 0 -175 79 -175 177c0 100 71 178 176 178c106 0 175 -80 175 -178c0 -99 -72 -177 -176 -177zM641 86c38 0 66 30 66 80c0 49 -29 80 -66 80
c-39 0 -66 -29 -66 -80c0 -49 28 -80 66 -80zM1028 86c37 0 65 30 65 80c0 49 -29 80 -66 80c-38 0 -65 -29 -65 -80c0 -49 28 -80 66 -80z" />
    <glyph glyph-name="at" unicode="@" horiz-adv-x="879" 
d="M424 -116c-217 0 -381 167 -381 376c0 226 190 416 420 416c217 0 373 -161 373 -345c0 -177 -113 -259 -210 -259c-70 0 -110 32 -127 78c-36 -48 -87 -76 -143 -76c-102 0 -169 75 -169 184c0 136 106 249 222 249c63 0 105 -30 129 -68l12 55l138 -11
c-33 -174 -51 -236 -51 -276c0 -32 20 -52 51 -52c53 0 104 58 104 176c0 170 -137 304 -331 304c-209 0 -376 -170 -376 -374c0 -188 145 -337 342 -337c81 0 146 21 213 61l21 -32c-71 -45 -147 -69 -237 -69zM407 189c56 0 99 49 105 116c4 52 -23 87 -70 87
c-66 0 -112 -59 -112 -123c0 -50 31 -80 77 -80z" />
    <glyph glyph-name="ampersand" unicode="&#x26;" horiz-adv-x="682" 
d="M660 42l-137 -61c-24 25 -47 49 -68 72c-57 -42 -120 -65 -195 -65c-136 0 -236 74 -236 201c0 90 42 144 146 192c-35 52 -46 84 -46 135c0 98 90 180 201 180c120 0 205 -76 205 -179c0 -72 -42 -113 -153 -167c26 -29 55 -62 90 -100c24 36 45 76 62 117l120 -58
c-30 -58 -61 -110 -94 -154c31 -34 66 -71 105 -113zM329 579c-35 0 -63 -27 -63 -63c0 -31 14 -52 40 -83c59 24 82 42 82 83c0 37 -25 63 -59 63zM282 114c29 0 58 11 86 31c-52 56 -93 102 -125 139c-36 -24 -51 -50 -51 -83c0 -54 41 -87 90 -87z" />
    <glyph glyph-name="bar" unicode="|" horiz-adv-x="306" 
d="M95 -74v817h116v-817h-116z" />
    <glyph glyph-name="asciicircum" unicode="^" horiz-adv-x="487" 
d="M40 413l146 274h115l146 -274h-117l-87 172l-87 -172h-116z" />
    <glyph glyph-name="uni0326" unicode="&#x326;" horiz-adv-x="0" 
d="M-159 -296l-43 34c24 21 42 47 48 71c-41 0 -74 36 -74 78c0 43 34 78 76 78c47 0 80 -44 80 -105c0 -50 -30 -104 -87 -156z" />
    <glyph glyph-name="acute" unicode="&#xb4;" horiz-adv-x="388" 
d="M63 574l114 160l148 -26l-150 -134h-112z" />
    <glyph glyph-name="breve" unicode="&#x2d8;" horiz-adv-x="458" 
d="M229 578c-60 0 -119 23 -166 69l69 68c27 -27 63 -43 97 -43s70 16 97 43l69 -68c-46 -46 -106 -69 -166 -69z" />
    <glyph glyph-name="caron" unicode="&#x2c7;" horiz-adv-x="478" 
d="M169 574l-106 151h101l74 -71l75 71h102l-108 -151h-138z" />
    <glyph glyph-name="cedilla" unicode="&#xb8;" horiz-adv-x="334" 
d="M197 -43c44 -1 74 -29 74 -68c0 -55 -47 -87 -111 -87c-38 0 -75 12 -97 29l29 63c17 -14 39 -23 59 -23c21 0 39 10 39 28c0 15 -11 24 -30 24c-10 0 -21 -3 -29 -9l-24 23l32 74h81z" />
    <glyph glyph-name="circumflex" unicode="&#x2c6;" horiz-adv-x="478" 
d="M63 574l106 151h138l108 -151h-102l-75 71l-74 -71h-101z" />
    <glyph glyph-name="dieresis" unicode="&#xa8;" horiz-adv-x="501" 
d="M142 579c-45 0 -79 36 -79 79c0 42 34 78 79 78c42 0 78 -36 78 -78c0 -43 -36 -79 -78 -79zM360 579c-44 0 -79 36 -79 79c0 42 35 78 79 78s78 -36 78 -78c0 -43 -34 -79 -78 -79z" />
    <glyph glyph-name="dotaccent" unicode="&#x2d9;" horiz-adv-x="283" 
d="M142 579c-45 0 -79 36 -79 79c0 42 34 78 79 78c42 0 78 -36 78 -78c0 -43 -36 -79 -78 -79z" />
    <glyph glyph-name="grave" unicode="`" horiz-adv-x="388" 
d="M213 574l-150 134l149 26l113 -160h-112z" />
    <glyph glyph-name="hungarumlaut" unicode="&#x2dd;" horiz-adv-x="635" 
d="M63 574l114 160l148 -26l-150 -134h-112zM309 574l114 160l149 -26l-150 -134h-113z" />
    <glyph glyph-name="macron" unicode="&#xaf;" horiz-adv-x="483" 
d="M63 577v96h357v-96h-357z" />
    <glyph glyph-name="ogonek" unicode="&#x2db;" horiz-adv-x="329" 
d="M174 -173c-65 0 -111 43 -111 113c0 42 19 73 51 94l93 -34c-25 0 -42 -17 -42 -40c0 -24 17 -36 43 -36c13 0 26 5 34 12l24 -75c-23 -20 -54 -34 -92 -34z" />
    <glyph glyph-name="ring" unicode="&#x2da;" horiz-adv-x="361" 
d="M180 578c-64 0 -117 52 -117 117s53 118 117 118c65 0 118 -53 118 -118s-53 -117 -118 -117zM180 644c28 0 51 23 51 51s-23 51 -51 51s-51 -23 -51 -51s23 -51 51 -51z" />
    <glyph glyph-name="tilde" unicode="&#x2dc;" horiz-adv-x="441" 
d="M289 572c-56 0 -102 46 -132 46c-21 0 -33 -15 -40 -47l-81 11c11 92 47 137 116 137c55 0 103 -46 132 -46c22 0 34 15 40 47l81 -12c-10 -91 -46 -136 -116 -136z" />
    <glyph glyph-name="ascender" 
d="M57 0v699h170v-699h-170z" />
    <glyph glyph-name="descender" 
d="M57 -172v689h170v-689h-170z" />
    </font>
</defs>
</svg>
