<?xml version="1.0" standalone="no"?>
<!DOCTYPE svg PUBLIC "-//W3C//DTD SVG 1.1//EN" "http://www.w3.org/Graphics/SVG/1.1/DTD/svg11.dtd" >
<svg xmlns="http://www.w3.org/2000/svg" xmlns:xlink="http://www.w3.org/1999/xlink" version="1.1">
<metadata>
Created by FontForge 20170812 at Mon Sep  5 11:57:37 2016
 By www-data
Copyright (c) 2016 by Chris Simpson.
</metadata>
<defs>
<font id="Metropolis-Regular" horiz-adv-x="638" >
  <font-face 
    font-family="Metropolis"
    font-weight="400"
    font-stretch="normal"
    units-per-em="1000"
    panose-1="0 0 5 0 0 0 0 0 0 0"
    ascent="795"
    descent="-205"
    x-height="517"
    cap-height="687"
    bbox="-175 -275 1121 965"
    underline-thickness="20"
    underline-position="-133"
    unicode-range="U+0020-2212"
  />
<missing-glyph horiz-adv-x="500" 
d="M410 795v-1000h-317v1000h317zM333 728h-165v-33h65v-37h-66v-33h166v33h-66v37h66v33zM267 599h-100v-104h166v34h-66v70zM233 565v-36h-33v36h33zM333 468h-166v-33h66v-37h-66v-33h100v70h66v33zM333 408h-33v-66h-133v-34h166v100zM333 286h-100v-56h34v23h33v-47
h-100v80h-33v-113h166v113zM333 113h-166v-113h166v113zM300 80v-47h-100v47h100zM333 -23h-166v-33h70l-70 -47v-33h166v33h-102l70 47h32v33z" />
    <glyph glyph-name=".notdef" horiz-adv-x="500" 
d="M410 795v-1000h-317v1000h317zM333 728h-165v-33h65v-37h-66v-33h166v33h-66v37h66v33zM267 599h-100v-104h166v34h-66v70zM233 565v-36h-33v36h33zM333 468h-166v-33h66v-37h-66v-33h100v70h66v33zM333 408h-33v-66h-133v-34h166v100zM333 286h-100v-56h34v23h33v-47
h-100v80h-33v-113h166v113zM333 113h-166v-113h166v113zM300 80v-47h-100v47h100zM333 -23h-166v-33h70l-70 -47v-33h166v33h-102l70 47h32v33z" />
    <glyph glyph-name=".null" horiz-adv-x="0" 
 />
    <glyph glyph-name="nonmarkingreturn" horiz-adv-x="333" 
 />
    <glyph glyph-name="space" unicode=" " horiz-adv-x="290" 
 />
    <glyph glyph-name="exclam" unicode="!" horiz-adv-x="273" 
d="M112 193l-19 494h92l-20 -494h-53zM138 -12q-23 0 -39 16t-16 39q0 21 16 37t39 16q22 0 37.5 -16t15.5 -37q0 -23 -15.5 -39t-37.5 -16z" />
    <glyph glyph-name="quotedbl" unicode="&#x22;" horiz-adv-x="414" 
d="M95 429q-24 174 -24 200q0 19 13.5 32.5t32.5 13.5t32.5 -13.5t13.5 -32.5q0 -26 -24 -200h-44zM275 429q-24 174 -24 200q0 19 13.5 32.5t32.5 13.5t32.5 -13.5t13.5 -32.5q0 -26 -24 -200h-44z" />
    <glyph glyph-name="numbersign" unicode="#" horiz-adv-x="674" 
d="M619 446h-118l-52 -206h118l-15 -61h-118l-45 -179h-66l45 179h-150l-45 -179h-66l45 179h-113l15 61h113l52 206h-114l15 61h115l45 180h66l-45 -180h150l45 180h66l-45 -180h117zM383 240l52 206h-150l-52 -206h150z" />
    <glyph glyph-name="dollar" unicode="$" horiz-adv-x="613" 
d="M559 187q0 -81 -56.5 -135.5t-160.5 -61.5v-64h-78v66q-126 16 -218 106l49 61q77 -77 169 -94v253q-98 25 -146 66.5t-48 119.5q0 75 54.5 129t139.5 65v61h78v-61q110 -14 199 -96l-48 -61q-72 69 -151 83v-240q106 -26 161.5 -70t55.5 -127zM149 510q0 -40 28 -64
t87 -41v221q-51 -9 -83 -41.5t-32 -74.5zM342 61q65 5 101.5 39t36.5 80q0 45 -33.5 71.5t-104.5 46.5v-237z" />
    <glyph glyph-name="percent" unicode="%" horiz-adv-x="796" 
d="M206 349q-70 0 -114.5 49.5t-44.5 120.5q0 75 45.5 124.5t114.5 49.5q70 0 114.5 -49.5t44.5 -122.5t-45 -122.5t-115 -49.5zM131 0l470 687h66l-470 -687h-66zM207 403q42 0 69 33.5t27 83.5q0 51 -27.5 85t-69.5 34t-69 -33.5t-27 -85.5q0 -50 28 -83.5t69 -33.5z
M588 -10q-69 0 -114 49t-45 123q0 72 45 122t115 50t114.5 -50t44.5 -121q0 -74 -45.5 -123.5t-114.5 -49.5zM589 44q42 0 69 33.5t27 84.5q0 50 -27.5 84t-69.5 34t-69 -33.5t-27 -83.5q0 -51 27.5 -85t69.5 -34z" />
    <glyph glyph-name="ampersand" unicode="&#x26;" horiz-adv-x="670" 
d="M628 26l-71 -33l-90 91q-93 -96 -210 -96q-94 0 -155 53t-61 141q0 131 157 201q-58 80 -58 151q0 68 49.5 114.5t125.5 46.5q68 0 115 -47t47 -112q0 -63 -42 -101.5t-126 -71.5q61 -71 157 -172q48 71 78 154l65 -29q-49 -109 -95 -174zM315 628q-44 0 -72 -25.5
t-28 -68.5q0 -54 54 -123q72 28 102.5 55t30.5 68q0 40 -24.5 67t-62.5 27zM260 55q86 0 159 78q-116 120 -182 200q-121 -56 -121 -149q0 -59 41.5 -94t102.5 -35z" />
    <glyph glyph-name="quotesingle" unicode="'" horiz-adv-x="234" 
d="M95 429q-24 174 -24 200q0 19 13.5 32.5t32.5 13.5t32.5 -13.5t13.5 -32.5q0 -26 -24 -200h-44z" />
    <glyph glyph-name="parenleft" unicode="(" horiz-adv-x="357" 
d="M271 -170q-209 175 -209 435t209 435l40 -42q-85 -88 -127 -181t-42 -212q0 -118 42 -211.5t127 -180.5z" />
    <glyph glyph-name="parenright" unicode=")" horiz-adv-x="357" 
d="M86 -170l-40 43q85 87 127 180.5t42 211.5q0 119 -42 212t-127 181l40 42q209 -175 209 -435t-209 -435z" />
    <glyph glyph-name="asterisk" unicode="*" horiz-adv-x="409" 
d="M204 376q-10 0 -17.5 6.5t-7.5 15.5q0 25 7.5 71.5t8.5 53.5q-8 -6 -43.5 -35t-56.5 -41q-7 -5 -17 -1.5t-15 12.5q-12 21 7 32q21 12 64.5 29t51.5 20q-8 3 -51.5 20t-64.5 29q-19 11 -7 32q5 9 15 12.5t17 -1.5q21 -12 56.5 -41t43.5 -35q-1 7 -8.5 53.5t-7.5 71.5
q0 9 7.5 15.5t17.5 6.5t17.5 -6.5t7.5 -15.5q0 -25 -7.5 -71.5t-8.5 -53.5q8 6 43.5 35t56.5 41q7 5 17 1.5t15 -12.5q12 -21 -7 -32q-21 -12 -64.5 -29t-51.5 -20q8 -3 51.5 -20t64.5 -29q19 -11 7 -32q-5 -9 -15 -12.5t-17 1.5q-21 12 -56.5 41t-43.5 35q1 -7 8.5 -53.5
t7.5 -71.5q0 -9 -7.5 -15.5t-17.5 -6.5z" />
    <glyph glyph-name="plus" unicode="+" horiz-adv-x="593" 
d="M526 371v-74h-192v-192h-75v192h-192v74h192v193h75v-193h192z" />
    <glyph glyph-name="comma" unicode="," horiz-adv-x="264" 
d="M116 -133l-37 28q40 46 52 93q-22 0 -38 16t-16 39q0 21 15.5 37t39.5 16q28 0 44.5 -22.5t16.5 -57.5q0 -30 -16 -61.5t-61 -87.5z" />
    <glyph glyph-name="hyphen" unicode="-" horiz-adv-x="371" 
d="M56 235v73h259v-73h-259z" />
    <glyph glyph-name="period" unicode="." horiz-adv-x="253" 
d="M128 -12q-23 0 -39 16t-16 39q0 21 16 37t39 16q22 0 37.5 -16t15.5 -37q0 -23 -15.5 -39t-37.5 -16z" />
    <glyph glyph-name="slash" unicode="/" horiz-adv-x="415" 
d="M-16 -74l351 817h85l-351 -817h-85z" />
    <glyph glyph-name="zero" unicode="0" horiz-adv-x="689" 
d="M345 -12q-126 0 -206 99.5t-80 256.5q0 156 80 255.5t206 99.5q125 0 205 -99.5t80 -255.5q0 -157 -80 -256.5t-205 -99.5zM345 60q91 0 148.5 79.5t57.5 204.5t-57.5 204t-148.5 79t-149 -79.5t-58 -203.5q0 -125 58 -204.5t149 -79.5z" />
    <glyph glyph-name="one" unicode="1" horiz-adv-x="353" 
d="M180 0v592l-120 -78l-34 58l169 115h63v-687h-78z" />
    <glyph glyph-name="two" unicode="2" horiz-adv-x="589" 
d="M49 0v65l251 214q137 117 137 217q0 60 -42.5 96.5t-100.5 36.5q-105 0 -184 -107l-55 45q93 132 242 132q92 0 155.5 -56t63.5 -146q0 -69 -37.5 -130.5t-124.5 -136.5l-180 -156h349v-74h-474z" />
    <glyph glyph-name="three" unicode="3" horiz-adv-x="586" 
d="M290 -12q-81 0 -145.5 32.5t-104.5 85.5l54 51q76 -98 196 -98q72 0 116 36t44 95q0 60 -47 91t-130 31h-73v72l74 -1q71 -1 116 31.5t45 89.5q0 54 -43.5 89t-108.5 35q-98 0 -179 -97l-52 47q91 121 235 121q99 0 163 -52t64 -134q0 -62 -37.5 -103t-95.5 -58
q61 -14 104.5 -56t43.5 -110q0 -87 -66 -142.5t-173 -55.5z" />
    <glyph glyph-name="four" unicode="4" horiz-adv-x="623" 
d="M393 0v167h-343l-10 65l341 455h90v-449h103v-71h-103v-167h-78zM129 238h264v355z" />
    <glyph glyph-name="five" unicode="5" horiz-adv-x="599" 
d="M298 -12q-147 0 -242 109l51 57q88 -96 194 -96q71 0 116.5 43.5t45.5 109.5t-46 107t-118 41q-82 0 -153 -53l-57 28l10 353h406v-74h-330l-7 -231q68 46 147 46q97 0 162 -57.5t65 -156.5q0 -101 -68.5 -163.5t-175.5 -62.5z" />
    <glyph glyph-name="six" unicode="6" horiz-adv-x="623" 
d="M333 429q98 0 164 -57.5t66 -156.5q0 -97 -68 -162t-174 -65q-90 0 -150 47t-85.5 122t-25.5 176q0 154 80.5 260t197.5 106q110 0 195 -82l-43 -61q-74 72 -154 72q-83 0 -140 -85.5t-57 -209.5v-9q32 50 82.5 77.5t111.5 27.5zM320 55q73 0 118.5 47.5t45.5 108.5
q0 69 -47 110t-118 41q-65 0 -111.5 -35.5t-59.5 -92.5q16 -82 59.5 -130.5t112.5 -48.5z" />
    <glyph glyph-name="seven" unicode="7" horiz-adv-x="600" 
d="M138 0l293 613h-372v74h465v-59l-296 -628h-90z" />
    <glyph glyph-name="eight" unicode="8" horiz-adv-x="606" 
d="M303 -12q-108 0 -179.5 53t-71.5 139q0 62 42.5 108t109.5 67q-134 52 -134 162q0 82 69.5 132t163.5 50q96 0 165 -50.5t69 -132.5q0 -59 -37.5 -99t-96.5 -62q66 -22 108.5 -68t42.5 -107q0 -86 -71.5 -139t-179.5 -53zM303 386q58 3 106.5 36t48.5 87q0 51 -45 85
t-110 34t-109.5 -34t-44.5 -85q0 -55 48.5 -87t105.5 -36zM303 59q73 0 122.5 35.5t49.5 90.5q0 58 -55.5 94.5t-116.5 38.5q-61 -2 -116.5 -38.5t-55.5 -94.5q0 -55 49.5 -90.5t122.5 -35.5z" />
    <glyph glyph-name="nine" unicode="9" horiz-adv-x="623" 
d="M302 699q90 0 150 -47t85.5 -122t25.5 -176q0 -154 -80.5 -260t-197.5 -106q-110 0 -195 82l43 61q74 -72 154 -72q83 0 140 85.5t57 209.5v9q-32 -50 -82.5 -77.5t-111.5 -27.5q-98 0 -164 57.5t-66 156.5q0 97 68 162t174 65zM304 325q65 0 111.5 35.5t59.5 92.5
q-16 82 -59.5 130.5t-112.5 48.5q-73 0 -118.5 -47.5t-45.5 -108.5q0 -69 47 -110t118 -41z" />
    <glyph glyph-name="colon" unicode=":" horiz-adv-x="253" 
d="M128 403q-23 0 -39 16t-16 39q0 21 16 37t39 16q22 0 37.5 -16t15.5 -37q0 -23 -15.5 -39t-37.5 -16zM128 -12q-23 0 -39 16t-16 39q0 21 16 37t39 16q22 0 37.5 -16t15.5 -37q0 -23 -15.5 -39t-37.5 -16z" />
    <glyph glyph-name="semicolon" unicode=";" horiz-adv-x="264" 
d="M132 403q-23 0 -39 16t-16 39q0 21 16 37t39 16q22 0 37.5 -16t15.5 -37q0 -23 -15.5 -39t-37.5 -16zM116 -133l-37 28q40 46 52 93q-22 0 -38 16t-16 39q0 21 15.5 37t39.5 16q28 0 44.5 -22.5t16.5 -57.5q0 -30 -16 -61.5t-61 -87.5z" />
    <glyph glyph-name="less" unicode="&#x3c;" horiz-adv-x="586" 
d="M510 88l-455 226v59l455 226v-70l-381 -185l381 -185v-71z" />
    <glyph glyph-name="equal" unicode="=" horiz-adv-x="593" 
d="M67 407v74h459v-74h-459zM67 187v74h459v-74h-459z" />
    <glyph glyph-name="greater" unicode="&#x3e;" horiz-adv-x="586" 
d="M76 88v71l381 185l-381 185v70l455 -226v-59z" />
    <glyph glyph-name="question" unicode="?" horiz-adv-x="507" 
d="M184 193v187q88 7 144 43.5t56 85.5q0 48 -37 83.5t-98 35.5q-94 0 -171 -95l-51 51q92 115 226 115q94 0 152 -52.5t58 -130.5q0 -67 -56 -121.5t-144 -73.5v-128h-79zM224 -12q-23 0 -39 16t-16 39q0 21 16 37t39 16q22 0 37.5 -16t15.5 -37q0 -23 -15.5 -39t-37.5 -16
z" />
    <glyph glyph-name="at" unicode="@" horiz-adv-x="881" 
d="M426 -116q-155 0 -268.5 111t-113.5 264q0 169 124 292.5t294 123.5q153 0 264 -105.5t111 -250.5q0 -115 -54 -178t-126 -63q-46 0 -76.5 23t-38.5 63q-66 -86 -162 -86q-73 0 -119.5 48t-46.5 125q0 102 71.5 176t161.5 74q96 0 137 -81l13 66l67 -5q-53 -272 -53 -290
q0 -31 18 -48.5t48 -17.5q48 0 86 49t38 145q0 130 -101 225t-240 95q-154 0 -266 -112.5t-112 -266.5q0 -139 102.5 -240t243.5 -101q115 0 216 61l18 -27q-108 -69 -236 -69zM398 137q68 0 112 49t52 125q6 61 -21 96t-85 35q-69 0 -119.5 -56t-50.5 -131
q0 -53 30.5 -85.5t81.5 -32.5z" />
    <glyph glyph-name="A" unicode="A" horiz-adv-x="755" 
d="M638 0l-69 156h-383l-69 -156h-85l303 687h85l303 -687h-85zM218 230h319l-159 361z" />
    <glyph glyph-name="B" unicode="B" horiz-adv-x="682" 
d="M94 0v687h315q83 0 136 -48t53 -123q0 -52 -24.5 -87t-73.5 -64q125 -63 125 -177q0 -82 -57.5 -135t-146.5 -53h-327zM172 396h217q57 0 93.5 31t36.5 79t-36.5 79t-93.5 31h-217v-220zM172 71h229q64 0 104.5 35.5t40.5 91.5t-40.5 91.5t-104.5 35.5h-229v-254z" />
    <glyph glyph-name="C" unicode="C" horiz-adv-x="680" 
d="M404 -12q-143 0 -247.5 105.5t-104.5 250.5t104.5 250t247.5 105q144 0 247 -105l-53 -54q-82 87 -194 87q-111 0 -192 -84t-81 -199t81 -199.5t192 -84.5q112 0 194 87l53 -54q-105 -105 -247 -105z" />
    <glyph glyph-name="D" unicode="D" horiz-adv-x="762" 
d="M94 0v687h232q163 0 267.5 -96t104.5 -247t-104.5 -247.5t-267.5 -96.5h-232zM172 71h154q129 0 211 76.5t82 196.5q0 119 -82 195.5t-211 76.5h-154v-545z" />
    <glyph glyph-name="E" unicode="E" horiz-adv-x="627" 
d="M572 613h-414v-226h373v-74h-373v-239h414v-74h-493v687h493v-74z" />
    <glyph glyph-name="F" unicode="F" horiz-adv-x="609" 
d="M572 613h-414v-226h373v-74h-373v-313h-79v687h493v-74z" />
    <glyph glyph-name="G" unicode="G" horiz-adv-x="745" 
d="M396 288v74h275v-269q-48 -48 -121.5 -76.5t-145.5 -28.5q-143 0 -247.5 105.5t-104.5 250.5t104.5 250t247.5 105q72 0 146 -28.5t121 -76.5l-53 -54q-37 39 -97 63t-117 24q-111 0 -192 -84t-81 -199t81 -199.5t192 -84.5q48 0 99.5 17.5t89.5 46.5v164h-197z" />
    <glyph glyph-name="H" unicode="H" horiz-adv-x="719" 
d="M562 687h78v-687h-78v313h-405v-313h-78v687h78v-300h405v300z" />
    <glyph glyph-name="I" unicode="I" horiz-adv-x="236" 
d="M79 0v687h78v-687h-78z" />
    <glyph glyph-name="J" unicode="J" horiz-adv-x="540" 
d="M237 -12q-61 0 -120.5 32t-90.5 82l57 56q20 -43 63.5 -71t90.5 -28q61 0 100 46t39 119v463h78v-463q0 -104 -61 -170t-156 -66z" />
    <glyph glyph-name="K" unicode="K" horiz-adv-x="660" 
d="M92 0v687h78v-380l348 380h103l-289 -314l308 -373h-101l-261 320l-108 -114v-206h-78z" />
    <glyph glyph-name="L" unicode="L" horiz-adv-x="555" 
d="M146 74h375v-74h-453v687h78v-613z" />
    <glyph glyph-name="M" unicode="M" horiz-adv-x="854" 
d="M94 0v687h78l255 -479l255 479h78v-687h-78v519l-255 -479l-255 479v-519h-78z" />
    <glyph glyph-name="N" unicode="N" horiz-adv-x="770" 
d="M94 0v687h78l426 -559v559h78v-687h-78l-426 559v-559h-78z" />
    <glyph glyph-name="O" unicode="O" horiz-adv-x="807" 
d="M404 -12q-143 0 -247.5 105.5t-104.5 250.5t104.5 250t247.5 105t247 -105t104 -250t-104 -250.5t-247 -105.5zM404 60q111 0 191.5 84t80.5 200q0 115 -80.5 199t-191.5 84t-192 -84t-81 -199t81 -199.5t192 -84.5z" />
    <glyph glyph-name="P" unicode="P" horiz-adv-x="644" 
d="M79 0v687h279q108 0 180.5 -62t72.5 -158t-72.5 -158t-180.5 -62h-201v-247h-78zM157 321h187q85 0 136.5 39t51.5 107t-51.5 107t-136.5 39h-187v-292z" />
    <glyph glyph-name="Q" unicode="Q" horiz-adv-x="807" 
d="M755 344q0 -121 -77 -219l77 -67l-50 -58l-80 70q-98 -82 -221 -82q-143 0 -247.5 105.5t-104.5 250.5t104.5 250t247.5 105t247 -105t104 -250zM404 60q91 0 164 59l-107 93l50 58l110 -95q55 76 55 169q0 115 -80.5 199t-191.5 84t-192 -84t-81 -199t81 -199.5
t192 -84.5z" />
    <glyph glyph-name="R" unicode="R" horiz-adv-x="650" 
d="M611 467q0 -80 -52 -137.5t-135 -75.5l178 -254h-89l-174 247h-182v-247h-78v687h279q108 0 180.5 -62t72.5 -158zM157 613v-292h187q85 0 136.5 39t51.5 107t-51.5 107t-136.5 39h-187z" />
    <glyph glyph-name="S" unicode="S" horiz-adv-x="613" 
d="M317 -11q-160 0 -271 109l49 61q99 -99 225 -99q76 0 118 35t42 85q0 52 -43.5 79.5t-141.5 50.5q-56 13 -94 27.5t-69.5 36.5t-46.5 54t-15 76q0 83 66 139.5t164 56.5q135 0 241 -98l-48 -61q-91 88 -197 88q-63 0 -105 -35.5t-42 -83.5q0 -49 43 -74.5t142 -49.5
q110 -26 167.5 -70.5t57.5 -128.5q0 -86 -63.5 -142t-178.5 -56z" />
    <glyph glyph-name="T" unicode="T" horiz-adv-x="630" 
d="M276 0v613h-231v74h540v-74h-231v-613h-78z" />
    <glyph glyph-name="U" unicode="U" horiz-adv-x="746" 
d="M373 -12q-126 0 -206.5 83.5t-80.5 213.5v402h78v-402q0 -99 58.5 -162.5t150.5 -63.5t150.5 63.5t58.5 162.5v402h78v-402q0 -130 -80.5 -213.5t-206.5 -83.5z" />
    <glyph glyph-name="V" unicode="V" horiz-adv-x="755" 
d="M638 687h85l-303 -687h-85l-303 687h85l261 -591z" />
    <glyph glyph-name="W" unicode="W" horiz-adv-x="1081" 
d="M272 0l-235 687h88l190 -556l182 556h87l182 -556l190 556h88l-235 -687h-77l-191 585l-192 -585h-77z" />
    <glyph glyph-name="X" unicode="X" horiz-adv-x="697" 
d="M659 687l-263 -343l263 -344h-96l-215 281l-215 -281h-95l263 343l-263 344h96l215 -281l215 281h95z" />
    <glyph glyph-name="Y" unicode="Y" horiz-adv-x="671" 
d="M295 0v280l-277 407h97l221 -333l223 333h94l-276 -407v-280h-82z" />
    <glyph glyph-name="Z" unicode="Z" horiz-adv-x="639" 
d="M58 0v62l414 551h-407v74h514v-62l-415 -551h419v-74h-525z" />
    <glyph glyph-name="bracketleft" unicode="[" horiz-adv-x="366" 
d="M81 -115v849h236v-57h-170v-735h170v-57h-236z" />
    <glyph glyph-name="backslash" unicode="\" horiz-adv-x="415" 
d="M346 -74l-351 817h85l351 -817h-85z" />
    <glyph glyph-name="bracketright" unicode="]" horiz-adv-x="366" 
d="M49 -115v57h170v735h-170v57h236v-849h-236z" />
    <glyph glyph-name="asciicircum" unicode="^" horiz-adv-x="490" 
d="M54 413l162 274h59l161 -274h-65l-126 219l-127 -219h-64z" />
    <glyph glyph-name="underscore" unicode="_" horiz-adv-x="592" 
d="M-2 -142v67h596v-67h-596z" />
    <glyph glyph-name="grave" unicode="`" horiz-adv-x="326" 
d="M205 576l-142 126l79 18l121 -144h-58z" />
    <glyph glyph-name="a" unicode="a" horiz-adv-x="573" 
d="M286 529q103 0 156.5 -58.5t53.5 -155.5v-315h-75v81q-27 -44 -77.5 -68.5t-104.5 -24.5q-83 0 -136 45t-53 120q0 76 59 124t144 48q78 0 168 -29v19q0 63 -32 106.5t-108 43.5q-59 0 -151 -47l-30 61q100 50 186 50zM252 54q56 0 105.5 28.5t63.5 79.5v79
q-76 21 -156 21q-59 0 -100.5 -30t-41.5 -76q0 -47 36.5 -74.5t92.5 -27.5z" />
    <glyph glyph-name="b" unicode="b" 
d="M346 529q103 0 170.5 -76t67.5 -194q0 -119 -67.5 -195t-170.5 -76q-125 0 -188 109v-97h-75v699h75v-279q63 109 188 109zM332 55q76 0 124.5 57.5t48.5 146.5t-48.5 146t-124.5 57t-125 -57t-49 -146t49 -146.5t125 -57.5z" />
    <glyph glyph-name="c" unicode="c" horiz-adv-x="542" 
d="M316 -12q-109 0 -188.5 80.5t-79.5 190.5t79.5 190t188.5 80q105 0 184 -76l-52 -51q-55 60 -132 60t-133 -60t-56 -143t56 -143.5t133 -60.5q78 0 135 63l52 -51q-79 -79 -187 -79z" />
    <glyph glyph-name="d" unicode="d" 
d="M480 699h75v-699h-75v97q-63 -109 -188 -109q-103 0 -170.5 76t-67.5 195q0 118 67.5 194t170.5 76q125 0 188 -109v279zM306 55q76 0 125 57.5t49 146.5t-49 146t-125 57t-124.5 -57t-48.5 -146t48.5 -146.5t124.5 -57.5z" />
    <glyph glyph-name="e" unicode="e" horiz-adv-x="595" 
d="M309 55q46 0 92.5 18t70.5 44l46 -49q-33 -36 -92.5 -58t-115.5 -22q-106 0 -184 77.5t-78 194.5q0 114 75 191.5t180 77.5q116 0 180.5 -81t64.5 -218h-423q8 -77 58.5 -126t125.5 -49zM306 462q-70 0 -120 -45.5t-60 -119.5h348q-8 74 -51 119.5t-117 45.5z" />
    <glyph glyph-name="f" unicode="f" horiz-adv-x="351" 
d="M193 588v-71h127v-67h-127v-450h-75v450h-81v67h81v71q0 58 35.5 95t90.5 37q54 0 96 -33l-37 -55q-19 21 -54 21q-23 0 -39.5 -18.5t-16.5 -46.5z" />
    <glyph glyph-name="g" unicode="g" horiz-adv-x="636" 
d="M478 517h75v-462q0 -100 -71 -163.5t-183 -63.5q-61 0 -117 19t-92 50l33 59q64 -61 166 -61q89 0 139 42t50 118v84q-64 -101 -188 -101q-104 0 -171 69t-67 177t67 176.5t171 68.5q124 0 188 -101v89zM304 105q77 0 125.5 50t48.5 129q0 78 -49 128t-125 50t-124.5 -50
t-48.5 -128q0 -79 48.5 -129t124.5 -50z" />
    <glyph glyph-name="h" unicode="h" horiz-adv-x="592" 
d="M322 529q85 0 139.5 -56t54.5 -144v-329h-75v319q0 63 -36 103t-93 40q-65 0 -112.5 -39.5t-47.5 -93.5v-329h-75v699h75v-265q23 42 69.5 68.5t100.5 26.5z" />
    <glyph glyph-name="i" unicode="i" horiz-adv-x="225" 
d="M113 611q-21 0 -35.5 15t-14.5 35t14.5 34.5t35.5 14.5q20 0 34.5 -14.5t14.5 -34.5t-14.5 -35t-34.5 -15zM75 0v517h75v-517h-75z" />
    <glyph glyph-name="j" unicode="j" horiz-adv-x="225" 
d="M113 611q-21 0 -35.5 15t-14.5 35t14.5 34.5t35.5 14.5q20 0 34.5 -14.5t14.5 -34.5t-14.5 -35t-34.5 -15zM24 -178q-45 0 -81 16l12 62q29 -11 64 -11q25 0 40.5 18t15.5 47v563h75v-563q0 -58 -35.5 -95t-90.5 -37z" />
    <glyph glyph-name="k" unicode="k" horiz-adv-x="543" 
d="M529 517l-233 -237l220 -280h-94l-179 229l-93 -92v-137h-75v699h75v-468l283 286h96z" />
    <glyph glyph-name="l" unicode="l" horiz-adv-x="227" 
d="M76 0v699h75v-699h-75z" />
    <glyph glyph-name="m" unicode="m" horiz-adv-x="895" 
d="M635 529q81 0 132.5 -56t51.5 -144v-329h-75v319q0 63 -33.5 103t-85.5 40q-62 0 -101 -37.5t-39 -95.5v-329h-75v319q0 63 -33.5 103t-85.5 40q-62 0 -101 -37.5t-39 -95.5v-329h-75v517h75v-76q20 41 59.5 64.5t90.5 23.5q58 0 102 -29.5t65 -80.5q16 50 62 80t105 30z
" />
    <glyph glyph-name="n" unicode="n" horiz-adv-x="592" 
d="M322 529q85 0 139.5 -56t54.5 -144v-329h-75v319q0 63 -36 103t-93 40q-65 0 -112.5 -39.5t-47.5 -93.5v-329h-75v517h75v-83q23 42 69.5 68.5t100.5 26.5z" />
    <glyph glyph-name="o" unicode="o" horiz-adv-x="631" 
d="M316 -12q-109 0 -188.5 80.5t-79.5 190.5t79.5 190t188.5 80t188 -80t79 -190t-79 -190.5t-188 -80.5zM316 55q77 0 132.5 60.5t55.5 143.5t-56 143t-132 60q-77 0 -133 -60t-56 -143t56 -143.5t133 -60.5z" />
    <glyph glyph-name="p" unicode="p" 
d="M346 529q103 0 170.5 -76t67.5 -194q0 -119 -67.5 -195t-170.5 -76q-125 0 -188 109v-269h-75v689h75v-97q63 109 188 109zM332 55q76 0 124.5 57.5t48.5 146.5t-48.5 146t-124.5 57t-125 -57t-49 -146t49 -146.5t125 -57.5z" />
    <glyph glyph-name="q" unicode="q" 
d="M480 517h75v-689h-75v269q-63 -109 -188 -109q-103 0 -170.5 76t-67.5 195q0 118 67.5 194t170.5 76q125 0 188 -109v97zM306 55q76 0 125 57.5t49 146.5t-49 146t-125 57t-124.5 -57t-48.5 -146t48.5 -146.5t124.5 -57.5z" />
    <glyph glyph-name="r" unicode="r" horiz-adv-x="386" 
d="M158 416q23 52 76 82.5t124 30.5v-67q-88 0 -144 -48.5t-56 -124.5v-289h-75v517h75v-101z" />
    <glyph glyph-name="s" unicode="s" horiz-adv-x="496" 
d="M259 -12q-119 0 -214 77l39 55q89 -65 175 -65q51 0 82.5 22t31.5 59q0 20 -9.5 35t-30.5 26t-38.5 17t-51.5 16q-95 27 -134 59.5t-39 87.5q0 69 51 110.5t130 41.5q96 0 185 -58l-36 -58q-77 49 -149 49q-46 0 -76 -20t-30 -56q0 -32 27 -48t107 -42q41 -13 63 -22
t51 -26.5t42 -43t13 -60.5q0 -70 -53.5 -113t-135.5 -43z" />
    <glyph glyph-name="t" unicode="t" horiz-adv-x="370" 
d="M303 76l37 -55q-42 -33 -96 -33q-55 0 -90.5 37t-35.5 95v330h-81v67h81v142h75v-142h127v-67h-127v-330q0 -28 16.5 -46.5t39.5 -18.5q35 0 54 21z" />
    <glyph glyph-name="u" unicode="u" horiz-adv-x="592" 
d="M440 517h75v-517h-75v83q-23 -42 -69.5 -68.5t-100.5 -26.5q-85 0 -139.5 56t-54.5 144v329h75v-319q0 -63 36 -103t93 -40q65 0 112.5 39.5t47.5 93.5v329z" />
    <glyph glyph-name="v" unicode="v" horiz-adv-x="563" 
d="M247 0l-220 517h84l172 -429l169 429h84l-217 -517h-72z" />
    <glyph glyph-name="w" unicode="w" horiz-adv-x="833" 
d="M208 0l-173 517h80l129 -417l141 417h65l141 -417l129 417h80l-174 -517h-71l-137 413l-139 -413h-71z" />
    <glyph glyph-name="x" unicode="x" horiz-adv-x="551" 
d="M519 0h-88l-155 206l-156 -206h-88l200 264l-192 253h88l148 -195l147 195h88l-191 -253z" />
    <glyph glyph-name="y" unicode="y" horiz-adv-x="593" 
d="M153 -180q-45 0 -82 17l18 64q26 -13 61 -13q49 0 75 46l30 64l-225 519h83l181 -430l171 430h81l-236 -575q-26 -64 -64 -92.5t-93 -29.5z" />
    <glyph glyph-name="z" unicode="z" horiz-adv-x="514" 
d="M54 0v59l305 387h-299v71h400v-59l-306 -387h308v-71h-408z" />
    <glyph glyph-name="braceleft" unicode="{" horiz-adv-x="394" 
d="M342 -166q-114 12 -157.5 51t-43.5 118v141q0 50 -22.5 72t-75.5 22v55q53 0 75.5 22.5t22.5 72.5v140q0 80 44 118t157 51l6 -53q-88 -13 -115 -36.5t-27 -83.5l1 -144q0 -88 -75 -114q75 -27 75 -115l-1 -143q0 -61 27 -84.5t115 -36.5z" />
    <glyph glyph-name="bar" unicode="|" horiz-adv-x="278" 
d="M109 -74v817h60v-817h-60z" />
    <glyph glyph-name="braceright" unicode="}" horiz-adv-x="394" 
d="M52 -166l-6 53q88 13 115 36.5t27 84.5l-1 143q0 88 75 115q-75 26 -75 114l1 144q0 60 -27 83.5t-115 36.5l6 53q113 -13 157 -51t44 -118v-140q0 -50 22.5 -72.5t75.5 -22.5v-55q-53 0 -75.5 -22t-22.5 -72v-141q0 -79 -43.5 -118t-157.5 -51z" />
    <glyph glyph-name="asciitilde" unicode="~" horiz-adv-x="445" 
d="M287 300q-32 0 -71.5 33t-57.5 33q-39 0 -50 -68l-46 7q16 119 96 119q32 0 71.5 -33t57.5 -33q39 0 50 68l46 -7q-16 -119 -96 -119z" />
    <glyph glyph-name="exclamdown" unicode="&#xa1;" horiz-adv-x="273" 
d="M135 529q23 0 39 -16t16 -39q0 -21 -16 -37t-39 -16q-22 0 -37.5 16t-15.5 37q0 23 15.5 39t37.5 16zM161 324l19 -494h-92l20 494h53z" />
    <glyph glyph-name="cent" unicode="&#xa2;" horiz-adv-x="542" 
d="M503 67q-67 -67 -161 -78v-63h-78v67q-92 20 -154 95t-62 171t62 171t154 94v65h78v-61q90 -11 158 -75l-52 -51q-44 49 -106 58v-403q63 11 109 61zM127 259q0 -68 39 -122.5t98 -73.5v391q-59 -19 -98 -73.5t-39 -121.5z" />
    <glyph glyph-name="sterling" unicode="&#xa3;" horiz-adv-x="619" 
d="M198 74h375v-74h-518v38l65 36v187h-62v67h62v135q0 104 61 170t156 66q69 0 128 -32t83 -82l-57 -56q-13 43 -56 71t-98 28q-61 0 -100 -46t-39 -119v-135h202v-67h-202v-187z" />
    <glyph glyph-name="yen" unicode="&#xa5;" horiz-adv-x="671" 
d="M653 687l-243 -358h174v-67h-207v-80h207v-67h-207v-115h-82v115h-207v67h207v80h-207v67h174l-244 358h97l221 -333l223 333h94z" />
    <glyph glyph-name="dieresis" unicode="&#xa8;" horiz-adv-x="410" 
d="M109 597q-19 0 -32.5 13.5t-13.5 32.5q0 18 13.5 32t32.5 14t32.5 -14t13.5 -32q0 -19 -13.5 -32.5t-32.5 -13.5zM301 597q-19 0 -32.5 13.5t-13.5 32.5q0 18 13.5 32t32.5 14t32.5 -14t13.5 -32q0 -19 -13.5 -32.5t-32.5 -13.5z" />
    <glyph glyph-name="macron" unicode="&#xaf;" horiz-adv-x="436" 
d="M63 594v55h310v-55h-310z" />
    <glyph glyph-name="acute" unicode="&#xb4;" horiz-adv-x="326" 
d="M63 576l121 144l79 -18l-142 -126h-58z" />
    <glyph glyph-name="cedilla" unicode="&#xb8;" horiz-adv-x="312" 
d="M180 -45q30 0 49.5 -18.5t19.5 -47.5q0 -36 -28 -58.5t-70 -22.5q-53 0 -88 28l19 42q29 -23 65 -23q22 0 36 10.5t14 27.5q0 34 -39 34q-20 0 -34 -11l-16 17l33 78h52l-24 -57q4 1 11 1z" />
    <glyph glyph-name="questiondown" unicode="&#xbf;" horiz-adv-x="507" 
d="M283 529q23 0 39 -16t16 -39q0 -21 -16 -37t-39 -16q-22 0 -37.5 16t-15.5 37q0 23 15.5 39t37.5 16zM323 324v-187q-88 -7 -144 -43.5t-56 -85.5q0 -48 37 -83.5t98 -35.5q94 0 171 95l51 -51q-92 -115 -226 -115q-94 0 -152 52.5t-58 130.5q0 67 56 121.5t144 73.5v128
h79z" />
    <glyph glyph-name="Agrave" unicode="&#xc0;" horiz-adv-x="755" 
d="M408 746h-58l-142 126l79 18zM638 0l-69 156h-383l-69 -156h-85l303 687h85l303 -687h-85zM218 230h319l-159 361z" />
    <glyph glyph-name="Aacute" unicode="&#xc1;" horiz-adv-x="755" 
d="M547 872l-142 -126h-58l121 144zM638 0l-69 156h-383l-69 -156h-85l303 687h85l303 -687h-85zM218 230h319l-159 361z" />
    <glyph glyph-name="Acircumflex" unicode="&#xc2;" horiz-adv-x="755" 
d="M377 832l-78 -86h-57l100 137h70l102 -137h-58zM638 0l-69 156h-383l-69 -156h-85l303 687h85l303 -687h-85zM218 230h319l-159 361z" />
    <glyph glyph-name="Atilde" unicode="&#xc3;" horiz-adv-x="755" 
d="M312 811q-39 0 -50 -68l-46 7q16 119 96 119q32 0 71.5 -33t57.5 -33q39 0 50 68l46 -7q-16 -119 -96 -119q-32 0 -71.5 33t-57.5 33zM638 0l-69 156h-383l-69 -156h-85l303 687h85l303 -687h-85zM218 230h319l-159 361z" />
    <glyph glyph-name="Adieresis" unicode="&#xc4;" horiz-adv-x="755" 
d="M281 767q-19 0 -32.5 13.5t-13.5 32.5q0 18 13.5 32t32.5 14t32.5 -14t13.5 -32q0 -19 -13.5 -32.5t-32.5 -13.5zM473 767q-19 0 -32.5 13.5t-13.5 32.5q0 18 13.5 32t32.5 14t32.5 -14t13.5 -32q0 -19 -13.5 -32.5t-32.5 -13.5zM638 0l-69 156h-383l-69 -156h-85
l303 687h85l303 -687h-85zM218 230h319l-159 361z" />
    <glyph glyph-name="Aring" unicode="&#xc5;" horiz-adv-x="755" 
d="M377 759q-43 0 -73 30t-30 73t30 73t73 30t73 -30t30 -73t-30 -73t-73 -30zM377 921q-24 0 -41.5 -17.5t-17.5 -41.5t17.5 -41.5t41.5 -17.5t41.5 17.5t17.5 41.5t-17.5 41.5t-41.5 17.5zM638 0l-69 156h-383l-69 -156h-85l303 687h85l303 -687h-85zM218 230h319
l-159 361z" />
    <glyph glyph-name="AE" unicode="&#xc6;" horiz-adv-x="1024" 
d="M969 613h-414v-226h373v-74h-373v-239h414v-74h-493v156h-264l-90 -156h-90l396 687h541v-74zM255 230h221v383z" />
    <glyph glyph-name="Ccedilla" unicode="&#xc7;" horiz-adv-x="680" 
d="M651 93q-98 -98 -230 -105l-14 -34q4 1 11 1q30 0 49.5 -18.5t19.5 -47.5q0 -36 -28 -58.5t-70 -22.5q-53 0 -88 28l19 42q29 -23 65 -23q22 0 36 10.5t14 27.5q0 34 -39 34q-20 0 -34 -11l-16 17l24 57q-132 14 -225 116.5t-93 237.5q0 145 104.5 250t247.5 105
q144 0 247 -105l-53 -54q-82 87 -194 87q-111 0 -192 -84t-81 -199t81 -199.5t192 -84.5q112 0 194 87z" />
    <glyph glyph-name="Egrave" unicode="&#xc8;" horiz-adv-x="627" 
d="M396 746h-58l-142 126l79 18zM572 613h-414v-226h373v-74h-373v-239h414v-74h-493v687h493v-74z" />
    <glyph glyph-name="Eacute" unicode="&#xc9;" horiz-adv-x="627" 
d="M446 872l-142 -126h-58l121 144zM572 613h-414v-226h373v-74h-373v-239h414v-74h-493v687h493v-74z" />
    <glyph glyph-name="Ecircumflex" unicode="&#xca;" horiz-adv-x="627" 
d="M326 832l-78 -86h-57l100 137h70l102 -137h-58zM572 613h-414v-226h373v-74h-373v-239h414v-74h-493v687h493v-74z" />
    <glyph glyph-name="Edieresis" unicode="&#xcb;" horiz-adv-x="627" 
d="M230 767q-19 0 -32.5 13.5t-13.5 32.5q0 18 13.5 32t32.5 14t32.5 -14t13.5 -32q0 -19 -13.5 -32.5t-32.5 -13.5zM422 767q-19 0 -32.5 13.5t-13.5 32.5q0 18 13.5 32t32.5 14t32.5 -14t13.5 -32q0 -19 -13.5 -32.5t-32.5 -13.5zM572 613h-414v-226h373v-74h-373v-239
h414v-74h-493v687h493v-74z" />
    <glyph glyph-name="Igrave" unicode="&#xcc;" horiz-adv-x="236" 
d="M90 746l-142 126l79 18l121 -144h-58zM79 0v687h78v-687h-78z" />
    <glyph glyph-name="Iacute" unicode="&#xcd;" horiz-adv-x="236" 
d="M88 746l121 144l79 -18l-142 -126h-58zM79 0v687h78v-687h-78z" />
    <glyph glyph-name="Icircumflex" unicode="&#xce;" horiz-adv-x="236" 
d="M-17 746l100 137h70l102 -137h-58l-79 86l-78 -86h-57zM79 0v687h78v-687h-78z" />
    <glyph glyph-name="Idieresis" unicode="&#xcf;" horiz-adv-x="236" 
d="M22 767q-19 0 -32.5 13.5t-13.5 32.5q0 18 13.5 32t32.5 14t32.5 -14t13.5 -32q0 -19 -13.5 -32.5t-32.5 -13.5zM214 767q-19 0 -32.5 13.5t-13.5 32.5q0 18 13.5 32t32.5 14t32.5 -14t13.5 -32q0 -19 -13.5 -32.5t-32.5 -13.5zM79 0v687h78v-687h-78z" />
    <glyph glyph-name="Eth" unicode="&#xd0;" horiz-adv-x="779" 
d="M343 687q163 0 267.5 -96t104.5 -247t-104.5 -247.5t-267.5 -96.5h-232v313h-69v74h69v300h232zM343 71q129 0 211 76.5t82 196.5q0 119 -82 195.5t-211 76.5h-154v-229h202l-1 -74h-201v-242h154z" />
    <glyph glyph-name="Ntilde" unicode="&#xd1;" horiz-adv-x="770" 
d="M449 745q-32 0 -71.5 33t-57.5 33q-39 0 -50 -68l-46 7q16 119 96 119q32 0 71.5 -33t57.5 -33q39 0 50 68l46 -7q-16 -119 -96 -119zM94 0v687h78l426 -559v559h78v-687h-78l-426 559v-559h-78z" />
    <glyph glyph-name="Ograve" unicode="&#xd2;" horiz-adv-x="807" 
d="M378 746l-142 126l79 18l121 -144h-58zM404 -12q-143 0 -247.5 105.5t-104.5 250.5t104.5 250t247.5 105t247 -105t104 -250t-104 -250.5t-247 -105.5zM404 60q111 0 191.5 84t80.5 200q0 115 -80.5 199t-191.5 84t-192 -84t-81 -199t81 -199.5t192 -84.5z" />
    <glyph glyph-name="Oacute" unicode="&#xd3;" horiz-adv-x="807" 
d="M374 746l121 144l79 -18l-142 -126h-58zM404 -12q-143 0 -247.5 105.5t-104.5 250.5t104.5 250t247.5 105t247 -105t104 -250t-104 -250.5t-247 -105.5zM404 60q111 0 191.5 84t80.5 200q0 115 -80.5 199t-191.5 84t-192 -84t-81 -199t81 -199.5t192 -84.5z" />
    <glyph glyph-name="Ocircumflex" unicode="&#xd4;" horiz-adv-x="807" 
d="M269 746l100 137h70l102 -137h-58l-79 86l-78 -86h-57zM404 -12q-143 0 -247.5 105.5t-104.5 250.5t104.5 250t247.5 105t247 -105t104 -250t-104 -250.5t-247 -105.5zM404 60q111 0 191.5 84t80.5 200q0 115 -80.5 199t-191.5 84t-192 -84t-81 -199t81 -199.5t192 -84.5
z" />
    <glyph glyph-name="Otilde" unicode="&#xd5;" horiz-adv-x="807" 
d="M468 745q-32 0 -71.5 33t-57.5 33q-39 0 -50 -68l-46 7q16 119 96 119q32 0 71.5 -33t57.5 -33q39 0 50 68l46 -7q-16 -119 -96 -119zM404 -12q-143 0 -247.5 105.5t-104.5 250.5t104.5 250t247.5 105t247 -105t104 -250t-104 -250.5t-247 -105.5zM404 60q111 0 191.5 84
t80.5 200q0 115 -80.5 199t-191.5 84t-192 -84t-81 -199t81 -199.5t192 -84.5z" />
    <glyph glyph-name="Odieresis" unicode="&#xd6;" horiz-adv-x="807" 
d="M308 767q-19 0 -32.5 13.5t-13.5 32.5q0 18 13.5 32t32.5 14t32.5 -14t13.5 -32q0 -19 -13.5 -32.5t-32.5 -13.5zM500 767q-19 0 -32.5 13.5t-13.5 32.5q0 18 13.5 32t32.5 14t32.5 -14t13.5 -32q0 -19 -13.5 -32.5t-32.5 -13.5zM404 -12q-143 0 -247.5 105.5
t-104.5 250.5t104.5 250t247.5 105t247 -105t104 -250t-104 -250.5t-247 -105.5zM404 60q111 0 191.5 84t80.5 200q0 115 -80.5 199t-191.5 84t-192 -84t-81 -199t81 -199.5t192 -84.5z" />
    <glyph glyph-name="multiply" unicode="&#xd7;" horiz-adv-x="541" 
d="M459 470l-135 -135l135 -136l-53 -53l-135 136l-136 -136l-53 52l136 136l-136 136l53 53l136 -136l136 136z" />
    <glyph glyph-name="Oslash" unicode="&#xd8;" horiz-adv-x="807" 
d="M659 586q96 -104 96 -242q0 -145 -104 -250.5t-247 -105.5q-113 0 -207 70l-51 -58h-85l88 101q-97 103 -97 243q0 145 104.5 250t247.5 105q115 0 207 -70l51 58h85zM131 344q0 -105 68 -186l363 415q-71 54 -158 54q-111 0 -192 -84t-81 -199zM404 60q111 0 191.5 84
t80.5 200q0 104 -68 185l-362 -415q71 -54 158 -54z" />
    <glyph glyph-name="Ugrave" unicode="&#xd9;" horiz-adv-x="746" 
d="M385 746l-142 126l79 18l121 -144h-58zM373 -12q-126 0 -206.5 83.5t-80.5 213.5v402h78v-402q0 -99 58.5 -162.5t150.5 -63.5t150.5 63.5t58.5 162.5v402h78v-402q0 -130 -80.5 -213.5t-206.5 -83.5z" />
    <glyph glyph-name="Uacute" unicode="&#xda;" horiz-adv-x="746" 
d="M293 746l121 144l79 -18l-142 -126h-58zM373 -12q-126 0 -206.5 83.5t-80.5 213.5v402h78v-402q0 -99 58.5 -162.5t150.5 -63.5t150.5 63.5t58.5 162.5v402h78v-402q0 -130 -80.5 -213.5t-206.5 -83.5z" />
    <glyph glyph-name="Ucircumflex" unicode="&#xdb;" horiz-adv-x="746" 
d="M238 746l100 137h70l102 -137h-58l-79 86l-78 -86h-57zM373 -12q-126 0 -206.5 83.5t-80.5 213.5v402h78v-402q0 -99 58.5 -162.5t150.5 -63.5t150.5 63.5t58.5 162.5v402h78v-402q0 -130 -80.5 -213.5t-206.5 -83.5z" />
    <glyph glyph-name="Udieresis" unicode="&#xdc;" horiz-adv-x="746" 
d="M277 767q-19 0 -32.5 13.5t-13.5 32.5q0 18 13.5 32t32.5 14t32.5 -14t13.5 -32q0 -19 -13.5 -32.5t-32.5 -13.5zM469 767q-19 0 -32.5 13.5t-13.5 32.5q0 18 13.5 32t32.5 14t32.5 -14t13.5 -32q0 -19 -13.5 -32.5t-32.5 -13.5zM373 -12q-126 0 -206.5 83.5t-80.5 213.5
v402h78v-402q0 -99 58.5 -162.5t150.5 -63.5t150.5 63.5t58.5 162.5v402h78v-402q0 -130 -80.5 -213.5t-206.5 -83.5z" />
    <glyph glyph-name="Yacute" unicode="&#xdd;" horiz-adv-x="671" 
d="M256 746l121 144l79 -18l-142 -126h-58zM295 0v280l-277 407h97l221 -333l223 333h94l-276 -407v-280h-82z" />
    <glyph glyph-name="Thorn" unicode="&#xde;" horiz-adv-x="644" 
d="M79 0v687h80v-121h199q108 0 180.5 -62t72.5 -158t-72.5 -158t-180.5 -62h-201v-126h-78zM157 200h187q85 0 136.5 39t51.5 107t-51.5 107t-136.5 39h-187v-292z" />
    <glyph glyph-name="germandbls" unicode="&#xdf;" horiz-adv-x="576" 
d="M84 0v526q0 79 58.5 130t150.5 51q91 0 149.5 -50.5t58.5 -130.5q0 -104 -98 -161q125 -63 125 -177q0 -82 -57.5 -135t-146.5 -53h-87v71h67q64 0 104.5 35.5t40.5 91.5t-40.5 91.5t-104.5 35.5h-67v71h55q56 0 93 35.5t37 84.5q0 53 -36.5 86.5t-93.5 33.5t-93.5 -34.5
t-36.5 -88.5v-513h-78z" />
    <glyph glyph-name="agrave" unicode="&#xe0;" horiz-adv-x="573" 
d="M363 576h-58l-142 126l79 18zM286 529q103 0 156.5 -58.5t53.5 -155.5v-315h-75v81q-27 -44 -77.5 -68.5t-104.5 -24.5q-83 0 -136 45t-53 120q0 76 59 124t144 48q78 0 168 -29v19q0 63 -32 106.5t-108 43.5q-59 0 -151 -47l-30 61q100 50 186 50zM252 54
q56 0 105.5 28.5t63.5 79.5v79q-76 21 -156 21q-59 0 -100.5 -30t-41.5 -76q0 -47 36.5 -74.5t92.5 -27.5z" />
    <glyph glyph-name="aacute" unicode="&#xe1;" horiz-adv-x="573" 
d="M413 702l-142 -126h-58l121 144zM286 529q103 0 156.5 -58.5t53.5 -155.5v-315h-75v81q-27 -44 -77.5 -68.5t-104.5 -24.5q-83 0 -136 45t-53 120q0 76 59 124t144 48q78 0 168 -29v19q0 63 -32 106.5t-108 43.5q-59 0 -151 -47l-30 61q100 50 186 50zM252 54
q56 0 105.5 28.5t63.5 79.5v79q-76 21 -156 21q-59 0 -100.5 -30t-41.5 -76q0 -47 36.5 -74.5t92.5 -27.5z" />
    <glyph glyph-name="acircumflex" unicode="&#xe2;" horiz-adv-x="573" 
d="M293 662l-78 -86h-57l100 137h70l102 -137h-58zM286 529q103 0 156.5 -58.5t53.5 -155.5v-315h-75v81q-27 -44 -77.5 -68.5t-104.5 -24.5q-83 0 -136 45t-53 120q0 76 59 124t144 48q78 0 168 -29v19q0 63 -32 106.5t-108 43.5q-59 0 -151 -47l-30 61q100 50 186 50z
M252 54q56 0 105.5 28.5t63.5 79.5v79q-76 21 -156 21q-59 0 -100.5 -30t-41.5 -76q0 -47 36.5 -74.5t92.5 -27.5z" />
    <glyph glyph-name="atilde" unicode="&#xe3;" horiz-adv-x="573" 
d="M228 641q-39 0 -50 -68l-46 7q16 119 96 119q32 0 71.5 -33t57.5 -33q39 0 50 68l46 -7q-16 -119 -96 -119q-32 0 -71.5 33t-57.5 33zM286 529q103 0 156.5 -58.5t53.5 -155.5v-315h-75v81q-27 -44 -77.5 -68.5t-104.5 -24.5q-83 0 -136 45t-53 120q0 76 59 124t144 48
q78 0 168 -29v19q0 63 -32 106.5t-108 43.5q-59 0 -151 -47l-30 61q100 50 186 50zM252 54q56 0 105.5 28.5t63.5 79.5v79q-76 21 -156 21q-59 0 -100.5 -30t-41.5 -76q0 -47 36.5 -74.5t92.5 -27.5z" />
    <glyph glyph-name="adieresis" unicode="&#xe4;" horiz-adv-x="573" 
d="M197 597q-19 0 -32.5 13.5t-13.5 32.5q0 18 13.5 32t32.5 14t32.5 -14t13.5 -32q0 -19 -13.5 -32.5t-32.5 -13.5zM389 597q-19 0 -32.5 13.5t-13.5 32.5q0 18 13.5 32t32.5 14t32.5 -14t13.5 -32q0 -19 -13.5 -32.5t-32.5 -13.5zM286 529q103 0 156.5 -58.5t53.5 -155.5
v-315h-75v81q-27 -44 -77.5 -68.5t-104.5 -24.5q-83 0 -136 45t-53 120q0 76 59 124t144 48q78 0 168 -29v19q0 63 -32 106.5t-108 43.5q-59 0 -151 -47l-30 61q100 50 186 50zM252 54q56 0 105.5 28.5t63.5 79.5v79q-76 21 -156 21q-59 0 -100.5 -30t-41.5 -76
q0 -47 36.5 -74.5t92.5 -27.5z" />
    <glyph glyph-name="aring" unicode="&#xe5;" horiz-adv-x="573" 
d="M293 589q-43 0 -73 30t-30 73t30 73t73 30t73 -30t30 -73t-30 -73t-73 -30zM293 751q-24 0 -41.5 -17.5t-17.5 -41.5t17.5 -41.5t41.5 -17.5t41.5 17.5t17.5 41.5t-17.5 41.5t-41.5 17.5zM286 529q103 0 156.5 -58.5t53.5 -155.5v-315h-75v81q-27 -44 -77.5 -68.5
t-104.5 -24.5q-83 0 -136 45t-53 120q0 76 59 124t144 48q78 0 168 -29v19q0 63 -32 106.5t-108 43.5q-59 0 -151 -47l-30 61q100 50 186 50zM252 54q56 0 105.5 28.5t63.5 79.5v79q-76 21 -156 21q-59 0 -100.5 -30t-41.5 -76q0 -47 36.5 -74.5t92.5 -27.5z" />
    <glyph glyph-name="ae" unicode="&#xe6;" horiz-adv-x="968" 
d="M682 55q46 0 92.5 18t70.5 44l46 -49q-33 -36 -92.5 -58t-115.5 -22q-65 0 -123 31.5t-94 87.5q-33 -54 -91 -86.5t-126 -32.5q-94 0 -146.5 43.5t-52.5 121.5q0 76 59 124t144 48q78 0 168 -29v19q0 63 -32 106.5t-108 43.5q-59 0 -151 -47l-30 61q100 50 186 50
q138 0 187 -104q36 49 89 76.5t114 27.5q116 0 180.5 -81t64.5 -218h-423q8 -77 58.5 -126t125.5 -49zM679 462q-70 0 -120 -45.5t-60 -119.5h348q-8 74 -51 119.5t-117 45.5zM262 54q65 0 112 44t47 105v38q-76 21 -156 21q-59 0 -100.5 -30t-41.5 -76q0 -48 37 -75
t102 -27z" />
    <glyph glyph-name="ccedilla" unicode="&#xe7;" horiz-adv-x="542" 
d="M330 -45q30 0 49.5 -18.5t19.5 -47.5q0 -36 -28 -58.5t-70 -22.5q-53 0 -88 28l19 42q29 -23 65 -23q22 0 36 10.5t14 27.5q0 34 -39 34q-20 0 -34 -11l-16 17l24 57q-98 14 -166 91t-68 178q0 110 79.5 190t188.5 80q105 0 184 -76l-52 -51q-55 60 -132 60t-133 -60
t-56 -143t56 -143.5t133 -60.5q78 0 135 63l52 -51q-72 -72 -169 -78l-15 -35q4 1 11 1z" />
    <glyph glyph-name="egrave" unicode="&#xe8;" horiz-adv-x="595" 
d="M373 576h-58l-142 126l79 18zM309 55q46 0 92.5 18t70.5 44l46 -49q-33 -36 -92.5 -58t-115.5 -22q-106 0 -184 77.5t-78 194.5q0 114 75 191.5t180 77.5q116 0 180.5 -81t64.5 -218h-423q8 -77 58.5 -126t125.5 -49zM306 462q-70 0 -120 -45.5t-60 -119.5h348
q-8 74 -51 119.5t-117 45.5z" />
    <glyph glyph-name="eacute" unicode="&#xe9;" horiz-adv-x="595" 
d="M423 702l-142 -126h-58l121 144zM309 55q46 0 92.5 18t70.5 44l46 -49q-33 -36 -92.5 -58t-115.5 -22q-106 0 -184 77.5t-78 194.5q0 114 75 191.5t180 77.5q116 0 180.5 -81t64.5 -218h-423q8 -77 58.5 -126t125.5 -49zM306 462q-70 0 -120 -45.5t-60 -119.5h348
q-8 74 -51 119.5t-117 45.5z" />
    <glyph glyph-name="ecircumflex" unicode="&#xea;" horiz-adv-x="595" 
d="M303 662l-78 -86h-57l100 137h70l102 -137h-58zM309 55q46 0 92.5 18t70.5 44l46 -49q-33 -36 -92.5 -58t-115.5 -22q-106 0 -184 77.5t-78 194.5q0 114 75 191.5t180 77.5q116 0 180.5 -81t64.5 -218h-423q8 -77 58.5 -126t125.5 -49zM306 462q-70 0 -120 -45.5
t-60 -119.5h348q-8 74 -51 119.5t-117 45.5z" />
    <glyph glyph-name="edieresis" unicode="&#xeb;" horiz-adv-x="595" 
d="M207 597q-19 0 -32.5 13.5t-13.5 32.5q0 18 13.5 32t32.5 14t32.5 -14t13.5 -32q0 -19 -13.5 -32.5t-32.5 -13.5zM399 597q-19 0 -32.5 13.5t-13.5 32.5q0 18 13.5 32t32.5 14t32.5 -14t13.5 -32q0 -19 -13.5 -32.5t-32.5 -13.5zM309 55q46 0 92.5 18t70.5 44l46 -49
q-33 -36 -92.5 -58t-115.5 -22q-106 0 -184 77.5t-78 194.5q0 114 75 191.5t180 77.5q116 0 180.5 -81t64.5 -218h-423q8 -77 58.5 -126t125.5 -49zM306 462q-70 0 -120 -45.5t-60 -119.5h348q-8 74 -51 119.5t-117 45.5z" />
    <glyph glyph-name="igrave" unicode="&#xec;" horiz-adv-x="225" 
d="M85 576l-142 126l79 18l121 -144h-58zM75 0v517h75v-517h-75z" />
    <glyph glyph-name="iacute" unicode="&#xed;" horiz-adv-x="225" 
d="M83 576l121 144l79 -18l-142 -126h-58zM75 0v517h75v-517h-75z" />
    <glyph glyph-name="icircumflex" unicode="&#xee;" horiz-adv-x="225" 
d="M-22 576l100 137h70l102 -137h-58l-79 86l-78 -86h-57zM75 0v517h75v-517h-75z" />
    <glyph glyph-name="idieresis" unicode="&#xef;" horiz-adv-x="225" 
d="M17 597q-19 0 -32.5 13.5t-13.5 32.5q0 18 13.5 32t32.5 14t32.5 -14t13.5 -32q0 -19 -13.5 -32.5t-32.5 -13.5zM209 597q-19 0 -32.5 13.5t-13.5 32.5q0 18 13.5 32t32.5 14t32.5 -14t13.5 -32q0 -19 -13.5 -32.5t-32.5 -13.5zM75 0v517h75v-517h-75z" />
    <glyph glyph-name="eth" unicode="&#xf0;" horiz-adv-x="627" 
d="M390 608q90 -84 133.5 -164t43.5 -175q0 -124 -70.5 -202.5t-181.5 -78.5q-112 0 -183.5 73t-71.5 187q0 109 65.5 179.5t167.5 70.5q99 0 167 -81q-41 80 -135 162l-122 -54l-27 62l91 40q-54 40 -81 58l76 31q41 -31 73 -58l99 44l27 -62zM315 56q76 0 124.5 53
t48.5 136q0 79 -48.5 133t-127.5 54q-76 0 -125 -52t-49 -133q0 -84 49.5 -137.5t127.5 -53.5z" />
    <glyph glyph-name="ntilde" unicode="&#xf1;" horiz-adv-x="592" 
d="M248 641q-39 0 -50 -68l-46 7q16 119 96 119q32 0 71.5 -33t57.5 -33q39 0 50 68l46 -7q-16 -119 -96 -119q-32 0 -71.5 33t-57.5 33zM322 529q85 0 139.5 -56t54.5 -144v-329h-75v319q0 63 -36 103t-93 40q-65 0 -112.5 -39.5t-47.5 -93.5v-329h-75v517h75v-83
q23 42 69.5 68.5t100.5 26.5z" />
    <glyph glyph-name="ograve" unicode="&#xf2;" horiz-adv-x="631" 
d="M328 576l-142 126l79 18l121 -144h-58zM316 -12q-109 0 -188.5 80.5t-79.5 190.5t79.5 190t188.5 80t188 -80t79 -190t-79 -190.5t-188 -80.5zM316 55q77 0 132.5 60.5t55.5 143.5t-56 143t-132 60q-77 0 -133 -60t-56 -143t56 -143.5t133 -60.5z" />
    <glyph glyph-name="oacute" unicode="&#xf3;" horiz-adv-x="631" 
d="M236 576l121 144l79 -18l-142 -126h-58zM316 -12q-109 0 -188.5 80.5t-79.5 190.5t79.5 190t188.5 80t188 -80t79 -190t-79 -190.5t-188 -80.5zM316 55q77 0 132.5 60.5t55.5 143.5t-56 143t-132 60q-77 0 -133 -60t-56 -143t56 -143.5t133 -60.5z" />
    <glyph glyph-name="ocircumflex" unicode="&#xf4;" horiz-adv-x="631" 
d="M181 576l100 137h70l102 -137h-58l-79 86l-78 -86h-57zM316 -12q-109 0 -188.5 80.5t-79.5 190.5t79.5 190t188.5 80t188 -80t79 -190t-79 -190.5t-188 -80.5zM316 55q77 0 132.5 60.5t55.5 143.5t-56 143t-132 60q-77 0 -133 -60t-56 -143t56 -143.5t133 -60.5z" />
    <glyph glyph-name="otilde" unicode="&#xf5;" horiz-adv-x="631" 
d="M380 575q-32 0 -71.5 33t-57.5 33q-39 0 -50 -68l-46 7q16 119 96 119q32 0 71.5 -33t57.5 -33q39 0 50 68l46 -7q-16 -119 -96 -119zM316 -12q-109 0 -188.5 80.5t-79.5 190.5t79.5 190t188.5 80t188 -80t79 -190t-79 -190.5t-188 -80.5zM316 55q77 0 132.5 60.5
t55.5 143.5t-56 143t-132 60q-77 0 -133 -60t-56 -143t56 -143.5t133 -60.5z" />
    <glyph glyph-name="odieresis" unicode="&#xf6;" horiz-adv-x="631" 
d="M220 597q-19 0 -32.5 13.5t-13.5 32.5q0 18 13.5 32t32.5 14t32.5 -14t13.5 -32q0 -19 -13.5 -32.5t-32.5 -13.5zM412 597q-19 0 -32.5 13.5t-13.5 32.5q0 18 13.5 32t32.5 14t32.5 -14t13.5 -32q0 -19 -13.5 -32.5t-32.5 -13.5zM316 -12q-109 0 -188.5 80.5t-79.5 190.5
t79.5 190t188.5 80t188 -80t79 -190t-79 -190.5t-188 -80.5zM316 55q77 0 132.5 60.5t55.5 143.5t-56 143t-132 60q-77 0 -133 -60t-56 -143t56 -143.5t133 -60.5z" />
    <glyph glyph-name="divide" unicode="&#xf7;" horiz-adv-x="593" 
d="M298 442q-23 0 -39 16t-16 39q0 21 16 37t39 16q22 0 37.5 -16t15.5 -37q0 -23 -15.5 -39t-37.5 -16zM67 297v74h459v-74h-459zM298 118q-23 0 -39 16t-16 39q0 21 16 37t39 16q22 0 37.5 -16t15.5 -37q0 -23 -15.5 -39t-37.5 -16z" />
    <glyph glyph-name="oslash" unicode="&#xf8;" horiz-adv-x="631" 
d="M513 439q70 -78 70 -180q0 -110 -79 -190.5t-188 -80.5q-80 0 -148 46l-29 -34h-85l66 77q-72 77 -72 182q0 110 79.5 190t188.5 80q79 0 149 -47l30 35h85zM127 259q0 -71 41 -125l251 294q-49 34 -103 34q-77 0 -133 -60t-56 -143zM316 55q77 0 132.5 60.5t55.5 143.5
q0 66 -39 123l-251 -294q47 -33 102 -33z" />
    <glyph glyph-name="ugrave" unicode="&#xf9;" horiz-adv-x="592" 
d="M365 576h-58l-142 126l79 18zM440 517h75v-517h-75v83q-23 -42 -69.5 -68.5t-100.5 -26.5q-85 0 -139.5 56t-54.5 144v329h75v-319q0 -63 36 -103t93 -40q65 0 112.5 39.5t47.5 93.5v329z" />
    <glyph glyph-name="uacute" unicode="&#xfa;" horiz-adv-x="592" 
d="M415 702l-142 -126h-58l121 144zM440 517h75v-517h-75v83q-23 -42 -69.5 -68.5t-100.5 -26.5q-85 0 -139.5 56t-54.5 144v329h75v-319q0 -63 36 -103t93 -40q65 0 112.5 39.5t47.5 93.5v329z" />
    <glyph glyph-name="ucircumflex" unicode="&#xfb;" horiz-adv-x="592" 
d="M295 662l-78 -86h-57l100 137h70l102 -137h-58zM440 517h75v-517h-75v83q-23 -42 -69.5 -68.5t-100.5 -26.5q-85 0 -139.5 56t-54.5 144v329h75v-319q0 -63 36 -103t93 -40q65 0 112.5 39.5t47.5 93.5v329z" />
    <glyph glyph-name="udieresis" unicode="&#xfc;" horiz-adv-x="592" 
d="M199 597q-19 0 -32.5 13.5t-13.5 32.5q0 18 13.5 32t32.5 14t32.5 -14t13.5 -32q0 -19 -13.5 -32.5t-32.5 -13.5zM391 597q-19 0 -32.5 13.5t-13.5 32.5q0 18 13.5 32t32.5 14t32.5 -14t13.5 -32q0 -19 -13.5 -32.5t-32.5 -13.5zM440 517h75v-517h-75v83
q-23 -42 -69.5 -68.5t-100.5 -26.5q-85 0 -139.5 56t-54.5 144v329h75v-319q0 -63 36 -103t93 -40q65 0 112.5 39.5t47.5 93.5v329z" />
    <glyph glyph-name="yacute" unicode="&#xfd;" horiz-adv-x="593" 
d="M214 576l121 144l79 -18l-142 -126h-58zM153 -180q-45 0 -82 17l18 64q26 -13 61 -13q49 0 75 46l30 64l-225 519h83l181 -430l171 430h81l-236 -575q-26 -64 -64 -92.5t-93 -29.5z" />
    <glyph glyph-name="thorn" unicode="&#xfe;" 
d="M346 529q103 0 170.5 -76t67.5 -194q0 -119 -67.5 -195t-170.5 -76q-125 0 -188 109v-269h-75v871h75v-279q63 109 188 109zM332 55q76 0 124.5 57.5t48.5 146.5t-48.5 146t-124.5 57t-125 -57t-49 -146t49 -146.5t125 -57.5z" />
    <glyph glyph-name="ydieresis" unicode="&#xff;" horiz-adv-x="593" 
d="M198 597q-19 0 -32.5 13.5t-13.5 32.5q0 18 13.5 32t32.5 14t32.5 -14t13.5 -32q0 -19 -13.5 -32.5t-32.5 -13.5zM390 597q-19 0 -32.5 13.5t-13.5 32.5q0 18 13.5 32t32.5 14t32.5 -14t13.5 -32q0 -19 -13.5 -32.5t-32.5 -13.5zM153 -180q-45 0 -82 17l18 64
q26 -13 61 -13q49 0 75 46l30 64l-225 519h83l181 -430l171 430h81l-236 -575q-26 -64 -64 -92.5t-93 -29.5z" />
    <glyph glyph-name="Amacron" unicode="&#x100;" horiz-adv-x="755" 
d="M532 819v-55h-310v55h310zM638 0l-69 156h-383l-69 -156h-85l303 687h85l303 -687h-85zM218 230h319l-159 361z" />
    <glyph glyph-name="amacron" unicode="&#x101;" horiz-adv-x="573" 
d="M448 649v-55h-310v55h310zM286 529q103 0 156.5 -58.5t53.5 -155.5v-315h-75v81q-27 -44 -77.5 -68.5t-104.5 -24.5q-83 0 -136 45t-53 120q0 76 59 124t144 48q78 0 168 -29v19q0 63 -32 106.5t-108 43.5q-59 0 -151 -47l-30 61q100 50 186 50zM252 54q56 0 105.5 28.5
t63.5 79.5v79q-76 21 -156 21q-59 0 -100.5 -30t-41.5 -76q0 -47 36.5 -74.5t92.5 -27.5z" />
    <glyph glyph-name="Abreve" unicode="&#x102;" horiz-adv-x="755" 
d="M523 819q-60 -60 -146 -60q-85 0 -146 60l47 47q44 -42 99 -42t99 42zM638 0l-69 156h-383l-69 -156h-85l303 687h85l303 -687h-85zM218 230h319l-159 361z" />
    <glyph glyph-name="abreve" unicode="&#x103;" horiz-adv-x="573" 
d="M439 649q-60 -60 -146 -60q-85 0 -146 60l47 47q44 -42 99 -42t99 42zM286 529q103 0 156.5 -58.5t53.5 -155.5v-315h-75v81q-27 -44 -77.5 -68.5t-104.5 -24.5q-83 0 -136 45t-53 120q0 76 59 124t144 48q78 0 168 -29v19q0 63 -32 106.5t-108 43.5q-59 0 -151 -47
l-30 61q100 50 186 50zM252 54q56 0 105.5 28.5t63.5 79.5v79q-76 21 -156 21q-59 0 -100.5 -30t-41.5 -76q0 -47 36.5 -74.5t92.5 -27.5z" />
    <glyph glyph-name="Aogonek" unicode="&#x104;" horiz-adv-x="755" 
d="M770 -95l32 -49q-35 -29 -84 -29t-79 28.5t-30 78.5q0 40 28 68l-68 154h-383l-69 -156h-85l303 687h85l303 -687q-25 0 -41.5 -16t-16.5 -41q0 -27 15.5 -42t42.5 -15q30 0 47 19zM218 230h319l-159 361z" />
    <glyph glyph-name="aogonek" unicode="&#x105;" horiz-adv-x="573" 
d="M543 -95l32 -49q-35 -29 -84 -29t-79 28.5t-30 78.5t39 77v70q-27 -44 -77.5 -68.5t-104.5 -24.5q-83 0 -136 45t-53 120q0 76 59 124t144 48q78 0 168 -29v19q0 63 -32 106.5t-108 43.5q-59 0 -151 -47l-30 61q100 50 186 50q103 0 156.5 -58.5t53.5 -155.5v-315
q-25 0 -41.5 -16t-16.5 -41q0 -27 15 -42t43 -15q30 0 47 19zM252 54q56 0 105.5 28.5t63.5 79.5v79q-76 21 -156 21q-59 0 -100.5 -30t-41.5 -76q0 -47 36.5 -74.5t92.5 -27.5z" />
    <glyph glyph-name="Cacute" unicode="&#x106;" horiz-adv-x="680" 
d="M304 746l121 144l79 -18l-142 -126h-58zM404 -12q-143 0 -247.5 105.5t-104.5 250.5t104.5 250t247.5 105q144 0 247 -105l-53 -54q-82 87 -194 87q-111 0 -192 -84t-81 -199t81 -199.5t192 -84.5q112 0 194 87l53 -54q-105 -105 -247 -105z" />
    <glyph glyph-name="cacute" unicode="&#x107;" horiz-adv-x="542" 
d="M216 576l121 144l79 -18l-142 -126h-58zM316 -12q-109 0 -188.5 80.5t-79.5 190.5t79.5 190t188.5 80q105 0 184 -76l-52 -51q-55 60 -132 60t-133 -60t-56 -143t56 -143.5t133 -60.5q78 0 135 63l52 -51q-79 -79 -187 -79z" />
    <glyph glyph-name="Ccaron" unicode="&#x10c;" horiz-adv-x="680" 
d="M349 746l-100 137h57l78 -86l79 86h58l-102 -137h-70zM404 -12q-143 0 -247.5 105.5t-104.5 250.5t104.5 250t247.5 105q144 0 247 -105l-53 -54q-82 87 -194 87q-111 0 -192 -84t-81 -199t81 -199.5t192 -84.5q112 0 194 87l53 -54q-105 -105 -247 -105z" />
    <glyph glyph-name="ccaron" unicode="&#x10d;" horiz-adv-x="542" 
d="M261 576l-100 137h57l78 -86l79 86h58l-102 -137h-70zM316 -12q-109 0 -188.5 80.5t-79.5 190.5t79.5 190t188.5 80q105 0 184 -76l-52 -51q-55 60 -132 60t-133 -60t-56 -143t56 -143.5t133 -60.5q78 0 135 63l52 -51q-79 -79 -187 -79z" />
    <glyph glyph-name="Dcaron" unicode="&#x10e;" horiz-adv-x="762" 
d="M291 746l-100 137h57l78 -86l79 86h58l-102 -137h-70zM94 0v687h232q163 0 267.5 -96t104.5 -247t-104.5 -247.5t-267.5 -96.5h-232zM172 71h154q129 0 211 76.5t82 196.5q0 119 -82 195.5t-211 76.5h-154v-545z" />
    <glyph glyph-name="dcaron" unicode="&#x10f;" 
d="M480 420v279h75v-699h-75v97q-63 -109 -188 -109q-103 0 -170.5 76t-67.5 195q0 118 67.5 194t170.5 76q125 0 188 -109zM676 699q24 0 38 -19t14 -49q0 -25 -13.5 -51t-51.5 -74l-32 23q35 40 44 79q-19 0 -32 13.5t-13 32.5q0 18 13.5 31.5t32.5 13.5zM306 55
q76 0 125 57.5t49 146.5t-49 146t-125 57t-124.5 -57t-48.5 -146t48.5 -146.5t124.5 -57.5z" />
    <glyph glyph-name="Dcroat" unicode="&#x110;" horiz-adv-x="779" 
d="M343 687q163 0 267.5 -96t104.5 -247t-104.5 -247.5t-267.5 -96.5h-232v313h-69v74h69v300h232zM343 71q129 0 211 76.5t82 196.5q0 119 -82 195.5t-211 76.5h-154v-229h202l-1 -74h-201v-242h154z" />
    <glyph glyph-name="dcroat" unicode="&#x111;" horiz-adv-x="657" 
d="M620 635v-50h-65v-585h-75v97q-63 -109 -188 -109q-103 0 -170.5 76t-67.5 195q0 118 67.5 194t170.5 76q125 0 188 -109v165h-170v50h170v64h75v-64h65zM306 55q76 0 125 57.5t49 146.5t-49 146t-125 57t-124.5 -57t-48.5 -146t48.5 -146.5t124.5 -57.5z" />
    <glyph glyph-name="Emacron" unicode="&#x112;" horiz-adv-x="627" 
d="M481 819v-55h-310v55h310zM572 613h-414v-226h373v-74h-373v-239h414v-74h-493v687h493v-74z" />
    <glyph glyph-name="emacron" unicode="&#x113;" horiz-adv-x="595" 
d="M458 649v-55h-310v55h310zM309 55q46 0 92.5 18t70.5 44l46 -49q-33 -36 -92.5 -58t-115.5 -22q-106 0 -184 77.5t-78 194.5q0 114 75 191.5t180 77.5q116 0 180.5 -81t64.5 -218h-423q8 -77 58.5 -126t125.5 -49zM306 462q-70 0 -120 -45.5t-60 -119.5h348
q-8 74 -51 119.5t-117 45.5z" />
    <glyph glyph-name="Edotaccent" unicode="&#x116;" horiz-adv-x="627" 
d="M326 767q-19 0 -32.5 13.5t-13.5 32.5q0 18 13.5 32t32.5 14t32.5 -14t13.5 -32q0 -19 -13.5 -32.5t-32.5 -13.5zM572 613h-414v-226h373v-74h-373v-239h414v-74h-493v687h493v-74z" />
    <glyph glyph-name="edotaccent" unicode="&#x117;" horiz-adv-x="595" 
d="M303 597q-19 0 -32.5 13.5t-13.5 32.5q0 18 13.5 32t32.5 14t32.5 -14t13.5 -32q0 -19 -13.5 -32.5t-32.5 -13.5zM309 55q46 0 92.5 18t70.5 44l46 -49q-33 -36 -92.5 -58t-115.5 -22q-106 0 -184 77.5t-78 194.5q0 114 75 191.5t180 77.5q116 0 180.5 -81t64.5 -218
h-423q8 -77 58.5 -126t125.5 -49zM306 462q-70 0 -120 -45.5t-60 -119.5h348q-8 74 -51 119.5t-117 45.5z" />
    <glyph glyph-name="Eogonek" unicode="&#x118;" horiz-adv-x="627" 
d="M572 613h-414v-226h373v-74h-373v-239h414v-74h-79q-25 0 -41.5 -16t-16.5 -41q0 -27 15.5 -42t42.5 -15q30 0 47 19l32 -49q-35 -29 -84 -29t-79 28.5t-30 78.5q0 37 26 66h-326v687h493v-74z" />
    <glyph glyph-name="eogonek" unicode="&#x119;" horiz-adv-x="595" 
d="M399 1q-18 -16 -18 -42q0 -27 15.5 -42t42.5 -15q30 0 47 19l32 -49q-35 -29 -84 -29t-79 28.5t-30 78.5q0 20 8 39q-8 -1 -23 -1q-106 0 -184 77.5t-78 194.5q0 114 75 191.5t180 77.5q116 0 180.5 -81t64.5 -218h-423q8 -77 58.5 -126t125.5 -49q46 0 92.5 18t70.5 44
l46 -49q-41 -44 -119 -67zM306 462q-70 0 -120 -45.5t-60 -119.5h348q-8 74 -51 119.5t-117 45.5z" />
    <glyph glyph-name="Ecaron" unicode="&#x11a;" horiz-adv-x="627" 
d="M361 746h-70l-100 137h57l78 -86l79 86h58zM572 613h-414v-226h373v-74h-373v-239h414v-74h-493v687h493v-74z" />
    <glyph glyph-name="ecaron" unicode="&#x11b;" horiz-adv-x="595" 
d="M338 576h-70l-100 137h57l78 -86l79 86h58zM309 55q46 0 92.5 18t70.5 44l46 -49q-33 -36 -92.5 -58t-115.5 -22q-106 0 -184 77.5t-78 194.5q0 114 75 191.5t180 77.5q116 0 180.5 -81t64.5 -218h-423q8 -77 58.5 -126t125.5 -49zM306 462q-70 0 -120 -45.5t-60 -119.5
h348q-8 74 -51 119.5t-117 45.5z" />
    <glyph glyph-name="Gbreve" unicode="&#x11e;" horiz-adv-x="745" 
d="M550 819q-60 -60 -146 -60q-84 0 -146 60l47 47q44 -42 99 -42t99 42zM396 288v74h275v-269q-48 -48 -121.5 -76.5t-145.5 -28.5q-143 0 -247.5 105.5t-104.5 250.5t104.5 250t247.5 105q72 0 146 -28.5t121 -76.5l-53 -54q-37 39 -97 63t-117 24q-111 0 -192 -84
t-81 -199t81 -199.5t192 -84.5q48 0 99.5 17.5t89.5 46.5v164h-197z" />
    <glyph glyph-name="gbreve" unicode="&#x11f;" horiz-adv-x="636" 
d="M471 649q-60 -60 -146 -60q-85 0 -146 60l47 47q44 -42 99 -42t99 42zM478 517h75v-462q0 -100 -71 -163.5t-183 -63.5q-61 0 -117 19t-92 50l33 59q64 -61 166 -61q89 0 139 42t50 118v84q-64 -101 -188 -101q-104 0 -171 69t-67 177t67 176.5t171 68.5q124 0 188 -101
v89zM304 105q77 0 125.5 50t48.5 129q0 78 -49 128t-125 50t-124.5 -50t-48.5 -128q0 -79 48.5 -129t124.5 -50z" />
    <glyph glyph-name="Gcommaaccent" unicode="&#x122;" horiz-adv-x="745" 
d="M396 288v74h275v-269q-48 -48 -121.5 -76.5t-145.5 -28.5q-143 0 -247.5 105.5t-104.5 250.5t104.5 250t247.5 105q72 0 146 -28.5t121 -76.5l-53 -54q-37 39 -97 63t-117 24q-111 0 -192 -84t-81 -199t81 -199.5t192 -84.5q48 0 99.5 17.5t89.5 46.5v164h-197zM401 -82
q24 0 38 -19t14 -49q0 -25 -13.5 -51t-51.5 -74l-32 23q35 40 44 79q-19 0 -32 13.5t-13 32.5q0 18 13.5 31.5t32.5 13.5z" />
    <glyph glyph-name="gcommaaccent" unicode="&#x123;" horiz-adv-x="636" 
d="M312 598q-24 0 -38 19t-14 49q0 25 13.5 51t51.5 74l32 -23q-35 -40 -44 -79q19 0 32 -13.5t13 -32.5q0 -18 -13.5 -31.5t-32.5 -13.5zM478 517h75v-462q0 -100 -71 -163.5t-183 -63.5q-61 0 -117 19t-92 50l33 59q64 -61 166 -61q89 0 139 42t50 118v84
q-64 -101 -188 -101q-104 0 -171 69t-67 177t67 176.5t171 68.5q124 0 188 -101v89zM304 105q77 0 125.5 50t48.5 129q0 78 -49 128t-125 50t-124.5 -50t-48.5 -128q0 -79 48.5 -129t124.5 -50z" />
    <glyph glyph-name="Imacron" unicode="&#x12a;" horiz-adv-x="236" 
d="M-37 764v55h310v-55h-310zM79 0v687h78v-687h-78z" />
    <glyph glyph-name="imacron" unicode="&#x12b;" horiz-adv-x="225" 
d="M-42 594v55h310v-55h-310zM75 0v517h75v-517h-75z" />
    <glyph glyph-name="Iogonek" unicode="&#x12e;" horiz-adv-x="236" 
d="M204 -95l32 -49q-35 -29 -84 -29t-79 28.5t-30 78.5q0 48 36 75v678h78v-687q-25 0 -41.5 -16t-16.5 -41q0 -27 15.5 -42t42.5 -15q30 0 47 19z" />
    <glyph glyph-name="iogonek" unicode="&#x12f;" horiz-adv-x="225" 
d="M113 597q-19 0 -32.5 13.5t-13.5 32.5q0 18 13.5 32t32.5 14t32.5 -14t13.5 -32q0 -19 -13.5 -32.5t-32.5 -13.5zM160 -95l32 -49q-35 -29 -84 -29t-79 28.5t-30 78.5q0 28 15.5 52t37.5 33l23 -7v505h75v-517h-37q-25 0 -41.5 -16t-16.5 -41q0 -27 15.5 -42t42.5 -15
q30 0 47 19z" />
    <glyph glyph-name="Idotaccent" unicode="&#x130;" horiz-adv-x="236" 
d="M118 767q-19 0 -32.5 13.5t-13.5 32.5q0 18 13.5 32t32.5 14t32.5 -14t13.5 -32q0 -19 -13.5 -32.5t-32.5 -13.5zM79 0v687h78v-687h-78z" />
    <glyph glyph-name="dotlessi" unicode="&#x131;" horiz-adv-x="225" 
d="M75 0v517h75v-517h-75z" />
    <glyph glyph-name="Kcommaaccent" unicode="&#x136;" horiz-adv-x="660" 
d="M92 0v687h78v-380l348 380h103l-289 -314l308 -373h-101l-261 320l-108 -114v-206h-78zM328 -275l-32 23q35 40 44 79q-19 0 -32 13.5t-13 32.5q0 18 13.5 31.5t32.5 13.5q24 0 38 -19t14 -49q0 -25 -13.5 -51t-51.5 -74z" />
    <glyph glyph-name="kcommaaccent" unicode="&#x137;" horiz-adv-x="543" 
d="M529 517l-233 -237l220 -280h-94l-179 229l-93 -92v-137h-75v699h75v-468l283 286h96zM276 -82q24 0 38 -19t14 -49q0 -25 -13.5 -51t-51.5 -74l-32 23q35 40 44 79q-19 0 -32 13.5t-13 32.5q0 18 13.5 31.5t32.5 13.5z" />
    <glyph glyph-name="Lacute" unicode="&#x139;" horiz-adv-x="555" 
d="M278 872l-142 -126h-58l121 144zM146 74h375v-74h-453v687h78v-613z" />
    <glyph glyph-name="lacute" unicode="&#x13a;" horiz-adv-x="227" 
d="M85 758l121 144l79 -18l-142 -126h-58zM76 0v699h75v-699h-75z" />
    <glyph glyph-name="Lcaron" unicode="&#x13d;" horiz-adv-x="555" 
d="M266 608q-19 0 -32 13.5t-13 32.5q0 18 13.5 31.5t32.5 13.5q24 0 38 -19t14 -49q0 -25 -13.5 -51t-51.5 -74l-32 23q35 40 44 79zM146 74h375v-74h-453v687h78v-613z" />
    <glyph glyph-name="lcaron" unicode="&#x13e;" horiz-adv-x="227" 
d="M76 0v699h75v-699h-75zM259 506l-32 23q35 40 44 79q-19 0 -32 13.5t-13 32.5q0 18 13.5 31.5t32.5 13.5q24 0 38 -19t14 -49q0 -25 -13.5 -51t-51.5 -74z" />
    <glyph glyph-name="Lslash" unicode="&#x141;" horiz-adv-x="607" 
d="M198 74h375v-74h-453v277l-83 -43v75l83 43v335h78v-295l138 71v-75l-138 -71v-243z" />
    <glyph glyph-name="lslash" unicode="&#x142;" horiz-adv-x="307" 
d="M270 429v-75l-82 -42v-312h-75v273l-76 -39v75l76 39v351h75v-312z" />
    <glyph glyph-name="Nacute" unicode="&#x143;" horiz-adv-x="770" 
d="M305 746l121 144l79 -18l-142 -126h-58zM94 0v687h78l426 -559v559h78v-687h-78l-426 559v-559h-78z" />
    <glyph glyph-name="nacute" unicode="&#x144;" horiz-adv-x="592" 
d="M433 702l-142 -126h-58l121 144zM322 529q85 0 139.5 -56t54.5 -144v-329h-75v319q0 63 -36 103t-93 40q-65 0 -112.5 -39.5t-47.5 -93.5v-329h-75v517h75v-83q23 42 69.5 68.5t100.5 26.5z" />
    <glyph glyph-name="Ncommaaccent" unicode="&#x145;" horiz-adv-x="770" 
d="M94 0v687h78l426 -559v559h78v-687h-78l-426 559v-559h-78zM372 -275l-32 23q35 40 44 79q-19 0 -32 13.5t-13 32.5q0 18 13.5 31.5t32.5 13.5q24 0 38 -19t14 -49q0 -25 -13.5 -51t-51.5 -74z" />
    <glyph glyph-name="ncommaaccent" unicode="&#x146;" horiz-adv-x="592" 
d="M322 529q85 0 139.5 -56t54.5 -144v-329h-75v319q0 63 -36 103t-93 40q-65 0 -112.5 -39.5t-47.5 -93.5v-329h-75v517h75v-83q23 42 69.5 68.5t100.5 26.5zM313 -82q24 0 38 -19t14 -49q0 -25 -13.5 -51t-51.5 -74l-32 23q35 40 44 79q-19 0 -32 13.5t-13 32.5
q0 18 13.5 31.5t32.5 13.5z" />
    <glyph glyph-name="Ncaron" unicode="&#x147;" horiz-adv-x="770" 
d="M350 746l-100 137h57l78 -86l79 86h58l-102 -137h-70zM94 0v687h78l426 -559v559h78v-687h-78l-426 559v-559h-78z" />
    <glyph glyph-name="ncaron" unicode="&#x148;" horiz-adv-x="592" 
d="M348 576h-70l-100 137h57l78 -86l79 86h58zM322 529q85 0 139.5 -56t54.5 -144v-329h-75v319q0 63 -36 103t-93 40q-65 0 -112.5 -39.5t-47.5 -93.5v-329h-75v517h75v-83q23 42 69.5 68.5t100.5 26.5z" />
    <glyph glyph-name="Omacron" unicode="&#x14c;" horiz-adv-x="807" 
d="M249 764v55h310v-55h-310zM404 -12q-143 0 -247.5 105.5t-104.5 250.5t104.5 250t247.5 105t247 -105t104 -250t-104 -250.5t-247 -105.5zM404 60q111 0 191.5 84t80.5 200q0 115 -80.5 199t-191.5 84t-192 -84t-81 -199t81 -199.5t192 -84.5z" />
    <glyph glyph-name="omacron" unicode="&#x14d;" horiz-adv-x="631" 
d="M161 594v55h310v-55h-310zM316 -12q-109 0 -188.5 80.5t-79.5 190.5t79.5 190t188.5 80t188 -80t79 -190t-79 -190.5t-188 -80.5zM316 55q77 0 132.5 60.5t55.5 143.5t-56 143t-132 60q-77 0 -133 -60t-56 -143t56 -143.5t133 -60.5z" />
    <glyph glyph-name="Ohungarumlaut" unicode="&#x150;" horiz-adv-x="807" 
d="M264 745l121 145l79 -18l-142 -127h-58zM464 745l121 143l79 -18l-142 -125h-58zM404 -12q-143 0 -247.5 105.5t-104.5 250.5t104.5 250t247.5 105t247 -105t104 -250t-104 -250.5t-247 -105.5zM404 60q111 0 191.5 84t80.5 200q0 115 -80.5 199t-191.5 84t-192 -84
t-81 -199t81 -199.5t192 -84.5z" />
    <glyph glyph-name="ohungarumlaut" unicode="&#x151;" horiz-adv-x="631" 
d="M181 575l121 145l79 -18l-142 -127h-58zM381 575l121 143l79 -18l-142 -125h-58zM316 -12q-109 0 -188.5 80.5t-79.5 190.5t79.5 190t188.5 80t188 -80t79 -190t-79 -190.5t-188 -80.5zM316 55q77 0 132.5 60.5t55.5 143.5t-56 143t-132 60q-77 0 -133 -60t-56 -143
t56 -143.5t133 -60.5z" />
    <glyph glyph-name="OE" unicode="&#x152;" horiz-adv-x="1032" 
d="M977 613h-414v-226h373v-74h-373v-239h414v-74h-573q-145 0 -248.5 95.5t-103.5 238.5q0 144 104.5 248.5t247.5 104.5h573v-74zM404 72h80v543h-80q-111 0 -192 -83t-81 -198q0 -113 80 -187.5t193 -74.5z" />
    <glyph glyph-name="oe" unicode="&#x153;" horiz-adv-x="1052" 
d="M766 55q46 0 92.5 18t70.5 44l46 -49q-33 -36 -92.5 -58t-115.5 -22q-69 0 -129 35t-95 95q-37 -59 -97.5 -94.5t-129.5 -35.5q-109 0 -188.5 80.5t-79.5 190.5t79.5 190t188.5 80q69 0 129 -35t97 -93q34 59 92 93.5t126 34.5q116 0 180.5 -81t64.5 -218h-423
q8 -77 58.5 -126t125.5 -49zM316 55q77 0 132.5 60.5t55.5 143.5t-56 143t-132 60q-77 0 -133 -60t-56 -143t56 -143.5t133 -60.5zM763 462q-70 0 -120 -45.5t-60 -119.5h348q-8 74 -51 119.5t-117 45.5z" />
    <glyph glyph-name="Racute" unicode="&#x154;" horiz-adv-x="650" 
d="M454 872l-142 -126h-58l121 144zM611 467q0 -80 -52 -137.5t-135 -75.5l178 -254h-89l-174 247h-182v-247h-78v687h279q108 0 180.5 -62t72.5 -158zM157 613v-292h187q85 0 136.5 39t51.5 107t-51.5 107t-136.5 39h-187z" />
    <glyph glyph-name="racute" unicode="&#x155;" horiz-adv-x="386" 
d="M346 702l-142 -126h-58l121 144zM158 416q23 52 76 82.5t124 30.5v-67q-88 0 -144 -48.5t-56 -124.5v-289h-75v517h75v-101z" />
    <glyph glyph-name="Rcommaaccent" unicode="&#x156;" horiz-adv-x="650" 
d="M611 467q0 -80 -52 -137.5t-135 -75.5l178 -254h-89l-174 247h-182v-247h-78v687h279q108 0 180.5 -62t72.5 -158zM157 613v-292h187q85 0 136.5 39t51.5 107t-51.5 107t-136.5 39h-187zM319 -82q24 0 38 -19t14 -49q0 -25 -13.5 -51t-51.5 -74l-32 23q35 40 44 79
q-19 0 -32 13.5t-13 32.5q0 18 13.5 31.5t32.5 13.5z" />
    <glyph glyph-name="rcommaaccent" unicode="&#x157;" horiz-adv-x="386" 
d="M158 416q23 52 76 82.5t124 30.5v-67q-88 0 -144 -48.5t-56 -124.5v-289h-75v517h75v-101zM158 -82q24 0 38 -19t14 -49q0 -25 -13.5 -51t-51.5 -74l-32 23q35 40 44 79q-19 0 -32 13.5t-13 32.5q0 18 13.5 31.5t32.5 13.5z" />
    <glyph glyph-name="Rcaron" unicode="&#x158;" horiz-adv-x="650" 
d="M369 746h-70l-100 137h57l78 -86l79 86h58zM611 467q0 -80 -52 -137.5t-135 -75.5l178 -254h-89l-174 247h-182v-247h-78v687h279q108 0 180.5 -62t72.5 -158zM157 613v-292h187q85 0 136.5 39t51.5 107t-51.5 107t-136.5 39h-187z" />
    <glyph glyph-name="rcaron" unicode="&#x159;" horiz-adv-x="386" 
d="M261 576h-70l-100 137h57l78 -86l79 86h58zM158 416q23 52 76 82.5t124 30.5v-67q-88 0 -144 -48.5t-56 -124.5v-289h-75v517h75v-101z" />
    <glyph glyph-name="Sacute" unicode="&#x15a;" horiz-adv-x="613" 
d="M220 746l121 144l79 -18l-142 -126h-58zM317 -11q-160 0 -271 109l49 61q99 -99 225 -99q76 0 118 35t42 85q0 52 -43.5 79.5t-141.5 50.5q-56 13 -94 27.5t-69.5 36.5t-46.5 54t-15 76q0 83 66 139.5t164 56.5q135 0 241 -98l-48 -61q-91 88 -197 88q-63 0 -105 -35.5
t-42 -83.5q0 -49 43 -74.5t142 -49.5q110 -26 167.5 -70.5t57.5 -128.5q0 -86 -63.5 -142t-178.5 -56z" />
    <glyph glyph-name="sacute" unicode="&#x15b;" horiz-adv-x="496" 
d="M171 576l121 144l79 -18l-142 -126h-58zM259 -12q-119 0 -214 77l39 55q89 -65 175 -65q51 0 82.5 22t31.5 59q0 20 -9.5 35t-30.5 26t-38.5 17t-51.5 16q-95 27 -134 59.5t-39 87.5q0 69 51 110.5t130 41.5q96 0 185 -58l-36 -58q-77 49 -149 49q-46 0 -76 -20t-30 -56
q0 -32 27 -48t107 -42q41 -13 63 -22t51 -26.5t42 -43t13 -60.5q0 -70 -53.5 -113t-135.5 -43z" />
    <glyph glyph-name="Scedilla" unicode="&#x15e;" horiz-adv-x="613" 
d="M559 187q0 -82 -58.5 -137.5t-165.5 -60.5l-15 -35q4 1 11 1q30 0 49.5 -18.5t19.5 -47.5q0 -36 -28 -58.5t-70 -22.5q-53 0 -88 28l19 42q29 -23 65 -23q22 0 36 10.5t14 27.5q0 34 -39 34q-20 0 -34 -11l-16 17l24 57q-139 11 -237 108l49 61q99 -99 225 -99
q76 0 118 35t42 85q0 52 -43.5 79.5t-141.5 50.5q-56 13 -94 27.5t-69.5 36.5t-46.5 54t-15 76q0 83 66 139.5t164 56.5q135 0 241 -98l-48 -61q-91 88 -197 88q-63 0 -105 -35.5t-42 -83.5q0 -49 43 -74.5t142 -49.5q110 -26 167.5 -70.5t57.5 -128.5z" />
    <glyph glyph-name="scedilla" unicode="&#x15f;" horiz-adv-x="496" 
d="M448 144q0 -66 -48.5 -108.5t-124.5 -47.5l-14 -34q4 1 11 1q30 0 49.5 -18.5t19.5 -47.5q0 -36 -28 -58.5t-70 -22.5q-53 0 -88 28l19 42q29 -23 65 -23q22 0 36 10.5t14 27.5q0 34 -39 34q-20 0 -34 -11l-16 17l24 57q-100 11 -179 75l39 55q89 -65 175 -65
q51 0 82.5 22t31.5 59q0 20 -9.5 35t-30.5 26t-38.5 17t-51.5 16q-95 27 -134 59.5t-39 87.5q0 69 51 110.5t130 41.5q96 0 185 -58l-36 -58q-77 49 -149 49q-46 0 -76 -20t-30 -56q0 -32 27 -48t107 -42q41 -13 63 -22t51 -26.5t42 -43t13 -60.5z" />
    <glyph glyph-name="Scaron" unicode="&#x160;" horiz-adv-x="613" 
d="M265 746l-100 137h57l78 -86l79 86h58l-102 -137h-70zM317 -11q-160 0 -271 109l49 61q99 -99 225 -99q76 0 118 35t42 85q0 52 -43.5 79.5t-141.5 50.5q-56 13 -94 27.5t-69.5 36.5t-46.5 54t-15 76q0 83 66 139.5t164 56.5q135 0 241 -98l-48 -61q-91 88 -197 88
q-63 0 -105 -35.5t-42 -83.5q0 -49 43 -74.5t142 -49.5q110 -26 167.5 -70.5t57.5 -128.5q0 -86 -63.5 -142t-178.5 -56z" />
    <glyph glyph-name="scaron" unicode="&#x161;" horiz-adv-x="496" 
d="M216 576l-100 137h57l78 -86l79 86h58l-102 -137h-70zM259 -12q-119 0 -214 77l39 55q89 -65 175 -65q51 0 82.5 22t31.5 59q0 20 -9.5 35t-30.5 26t-38.5 17t-51.5 16q-95 27 -134 59.5t-39 87.5q0 69 51 110.5t130 41.5q96 0 185 -58l-36 -58q-77 49 -149 49
q-46 0 -76 -20t-30 -56q0 -32 27 -48t107 -42q41 -13 63 -22t51 -26.5t42 -43t13 -60.5q0 -70 -53.5 -113t-135.5 -43z" />
    <glyph glyph-name="uni0162" unicode="&#x162;" horiz-adv-x="630" 
d="M354 0h-13l-19 -46q4 1 11 1q30 0 49.5 -18.5t19.5 -47.5q0 -36 -28 -58.5t-70 -22.5q-53 0 -88 28l19 42q29 -23 65 -23q22 0 36 10.5t14 27.5q0 34 -39 34q-20 0 -34 -11l-16 17l28 67h-13v613h-231v74h540v-74h-231v-613z" />
    <glyph glyph-name="uni0163" unicode="&#x163;" horiz-adv-x="370" 
d="M270 -45q30 0 49.5 -18.5t19.5 -47.5q0 -36 -28 -58.5t-70 -22.5q-53 0 -88 28l19 42q29 -23 65 -23q22 0 36 10.5t14 27.5q0 34 -39 34q-20 0 -34 -11l-16 17l24 57q-47 7 -75.5 42.5t-28.5 87.5v330h-81v67h81v142h75v-142h127v-67h-127v-330q0 -28 16.5 -46.5
t39.5 -18.5q35 0 54 21l37 -55q-28 -22 -65 -30l-16 -37q4 1 11 1z" />
    <glyph glyph-name="Tcaron" unicode="&#x164;" horiz-adv-x="630" 
d="M280 746l-100 137h57l78 -86l79 86h58l-102 -137h-70zM276 0v613h-231v74h540v-74h-231v-613h-78z" />
    <glyph glyph-name="tcaron" unicode="&#x165;" horiz-adv-x="370" 
d="M442 699q24 0 38 -19t14 -49q0 -25 -13.5 -51t-51.5 -74l-32 23q35 40 44 79q-19 0 -32 13.5t-13 32.5q0 18 13.5 31.5t32.5 13.5zM249 55q35 0 54 21l37 -55q-42 -33 -96 -33q-55 0 -90.5 37t-35.5 95v330h-81v67h81v142h75v-142h127v-67h-127v-330q0 -28 16.5 -46.5
t39.5 -18.5z" />
    <glyph glyph-name="Umacron" unicode="&#x16a;" horiz-adv-x="746" 
d="M218 764v55h310v-55h-310zM373 -12q-126 0 -206.5 83.5t-80.5 213.5v402h78v-402q0 -99 58.5 -162.5t150.5 -63.5t150.5 63.5t58.5 162.5v402h78v-402q0 -130 -80.5 -213.5t-206.5 -83.5z" />
    <glyph glyph-name="umacron" unicode="&#x16b;" horiz-adv-x="592" 
d="M450 649v-55h-310v55h310zM440 517h75v-517h-75v83q-23 -42 -69.5 -68.5t-100.5 -26.5q-85 0 -139.5 56t-54.5 144v329h75v-319q0 -63 36 -103t93 -40q65 0 112.5 39.5t47.5 93.5v329z" />
    <glyph glyph-name="Uring" unicode="&#x16e;" horiz-adv-x="746" 
d="M373 759q-43 0 -73 30t-30 73t30 73t73 30t73 -30t30 -73t-30 -73t-73 -30zM373 803q24 0 41.5 17.5t17.5 41.5t-17.5 41.5t-41.5 17.5t-41.5 -17.5t-17.5 -41.5t17.5 -41.5t41.5 -17.5zM373 -12q-126 0 -206.5 83.5t-80.5 213.5v402h78v-402q0 -99 58.5 -162.5
t150.5 -63.5t150.5 63.5t58.5 162.5v402h78v-402q0 -130 -80.5 -213.5t-206.5 -83.5z" />
    <glyph glyph-name="uring" unicode="&#x16f;" horiz-adv-x="592" 
d="M295 589q-43 0 -73 30t-30 73t30 73t73 30t73 -30t30 -73t-30 -73t-73 -30zM295 751q-24 0 -41.5 -17.5t-17.5 -41.5t17.5 -41.5t41.5 -17.5t41.5 17.5t17.5 41.5t-17.5 41.5t-41.5 17.5zM440 517h75v-517h-75v83q-23 -42 -69.5 -68.5t-100.5 -26.5q-85 0 -139.5 56
t-54.5 144v329h75v-319q0 -63 36 -103t93 -40q65 0 112.5 39.5t47.5 93.5v329z" />
    <glyph glyph-name="Uhungarumlaut" unicode="&#x170;" horiz-adv-x="746" 
d="M233 745l121 145l79 -18l-142 -127h-58zM433 745l121 143l79 -18l-142 -125h-58zM373 -12q-126 0 -206.5 83.5t-80.5 213.5v402h78v-402q0 -99 58.5 -162.5t150.5 -63.5t150.5 63.5t58.5 162.5v402h78v-402q0 -130 -80.5 -213.5t-206.5 -83.5z" />
    <glyph glyph-name="uhungarumlaut" unicode="&#x171;" horiz-adv-x="592" 
d="M355 702l-142 -127h-58l121 145zM413 575h-58l121 143l79 -18zM440 188v329h75v-517h-75v83q-23 -42 -69.5 -68.5t-100.5 -26.5q-85 0 -139.5 56t-54.5 144v329h75v-319q0 -63 36 -103t93 -40q65 0 112.5 39.5t47.5 93.5z" />
    <glyph glyph-name="Uogonek" unicode="&#x172;" horiz-adv-x="746" 
d="M582 687h78v-402q0 -130 -80.5 -213.5t-206.5 -83.5h-15q-21 -16 -21 -45q0 -27 15.5 -42t42.5 -15q30 0 47 19l32 -49q-35 -29 -84 -29t-79 28.5t-30 78.5q0 33 22 62q-98 22 -157.5 100t-59.5 189v402h78v-402q0 -99 58.5 -162.5t150.5 -63.5t150.5 63.5t58.5 162.5
v402z" />
    <glyph glyph-name="uogonek" unicode="&#x173;" horiz-adv-x="592" 
d="M562 -95l32 -49q-35 -29 -84 -29t-79 28.5t-30 78.5t39 77v72q-23 -42 -69.5 -68.5t-100.5 -26.5q-85 0 -139.5 56t-54.5 144v329h75v-319q0 -63 36 -103t93 -40q65 0 112.5 39.5t47.5 93.5v329h75v-517q-25 0 -41.5 -16t-16.5 -41q0 -27 15.5 -42t42.5 -15q30 0 47 19z
" />
    <glyph glyph-name="Wcircumflex" unicode="&#x174;" horiz-adv-x="1081" 
d="M406 746l100 137h70l102 -137h-58l-79 86l-78 -86h-57zM272 0l-235 687h88l190 -556l182 556h87l182 -556l190 556h88l-235 -687h-77l-191 585l-192 -585h-77z" />
    <glyph glyph-name="wcircumflex" unicode="&#x175;" horiz-adv-x="833" 
d="M283 576l100 137h70l102 -137h-58l-79 86l-78 -86h-57zM208 0l-173 517h80l129 -417l141 417h65l141 -417l129 417h80l-174 -517h-71l-137 413l-139 -413h-71z" />
    <glyph glyph-name="Ycircumflex" unicode="&#x176;" horiz-adv-x="671" 
d="M201 746l100 137h70l102 -137h-58l-79 86l-78 -86h-57zM295 0v280l-277 407h97l221 -333l223 333h94l-276 -407v-280h-82z" />
    <glyph glyph-name="ycircumflex" unicode="&#x177;" horiz-adv-x="593" 
d="M159 576l100 137h70l102 -137h-58l-79 86l-78 -86h-57zM153 -180q-45 0 -82 17l18 64q26 -13 61 -13q49 0 75 46l30 64l-225 519h83l181 -430l171 430h81l-236 -575q-26 -64 -64 -92.5t-93 -29.5z" />
    <glyph glyph-name="Ydieresis" unicode="&#x178;" horiz-adv-x="671" 
d="M240 767q-19 0 -32.5 13.5t-13.5 32.5q0 18 13.5 32t32.5 14t32.5 -14t13.5 -32q0 -19 -13.5 -32.5t-32.5 -13.5zM432 767q-19 0 -32.5 13.5t-13.5 32.5q0 18 13.5 32t32.5 14t32.5 -14t13.5 -32q0 -19 -13.5 -32.5t-32.5 -13.5zM295 0v280l-277 407h97l221 -333l223 333
h94l-276 -407v-280h-82z" />
    <glyph glyph-name="Zacute" unicode="&#x179;" horiz-adv-x="639" 
d="M242 746l121 144l79 -18l-142 -126h-58zM58 0v62l414 551h-407v74h514v-62l-415 -551h419v-74h-525z" />
    <glyph glyph-name="zacute" unicode="&#x17a;" horiz-adv-x="514" 
d="M184 576l121 144l79 -18l-142 -126h-58zM54 0v59l305 387h-299v71h400v-59l-306 -387h308v-71h-408z" />
    <glyph glyph-name="Zdotaccent" unicode="&#x17b;" horiz-adv-x="639" 
d="M322 767q-19 0 -32.5 13.5t-13.5 32.5q0 18 13.5 32t32.5 14t32.5 -14t13.5 -32q0 -19 -13.5 -32.5t-32.5 -13.5zM58 0v62l414 551h-407v74h514v-62l-415 -551h419v-74h-525z" />
    <glyph glyph-name="zdotaccent" unicode="&#x17c;" horiz-adv-x="514" 
d="M264 597q-19 0 -32.5 13.5t-13.5 32.5q0 18 13.5 32t32.5 14t32.5 -14t13.5 -32q0 -19 -13.5 -32.5t-32.5 -13.5zM54 0v59l305 387h-299v71h400v-59l-306 -387h308v-71h-408z" />
    <glyph glyph-name="Zcaron" unicode="&#x17d;" horiz-adv-x="639" 
d="M287 746l-100 137h57l78 -86l79 86h58l-102 -137h-70zM58 0v62l414 551h-407v74h514v-62l-415 -551h419v-74h-525z" />
    <glyph glyph-name="zcaron" unicode="&#x17e;" horiz-adv-x="514" 
d="M229 576l-100 137h57l78 -86l79 86h58l-102 -137h-70zM54 0v59l305 387h-299v71h400v-59l-306 -387h308v-71h-408z" />
    <glyph glyph-name="uni0237" unicode="&#x237;" horiz-adv-x="225" 
d="M24 -178q-45 0 -81 16l12 62q29 -11 64 -11q25 0 40.5 18t15.5 47v563h75v-563q0 -58 -35.5 -95t-90.5 -37z" />
    <glyph glyph-name="circumflex" unicode="&#x2c6;" horiz-adv-x="398" 
d="M63 576l100 137h70l102 -137h-58l-79 86l-78 -86h-57z" />
    <glyph glyph-name="caron" unicode="&#x2c7;" horiz-adv-x="398" 
d="M163 576l-100 137h57l78 -86l79 86h58l-102 -137h-70z" />
    <glyph glyph-name="breve" unicode="&#x2d8;" horiz-adv-x="418" 
d="M209 589q-84 0 -146 60l47 47q44 -42 99 -42t99 42l47 -47q-60 -60 -146 -60z" />
    <glyph glyph-name="dotaccent" unicode="&#x2d9;" horiz-adv-x="218" 
d="M109 597q-19 0 -32.5 13.5t-13.5 32.5q0 18 13.5 32t32.5 14t32.5 -14t13.5 -32q0 -19 -13.5 -32.5t-32.5 -13.5z" />
    <glyph glyph-name="ring" unicode="&#x2da;" horiz-adv-x="332" 
d="M166 589q-43 0 -73 30t-30 73t30 73t73 30t73 -30t30 -73t-30 -73t-73 -30zM166 633q24 0 41.5 17.5t17.5 41.5t-17.5 41.5t-41.5 17.5t-41.5 -17.5t-17.5 -41.5t17.5 -41.5t41.5 -17.5z" />
    <glyph glyph-name="ogonek" unicode="&#x2db;" horiz-adv-x="319" 
d="M172 -173q-49 0 -79 28.5t-30 78.5q0 28 15.5 52t37.5 33l61 -19q-25 0 -41.5 -16t-16.5 -41q0 -27 15.5 -42t42.5 -15q30 0 47 19l32 -49q-35 -29 -84 -29z" />
    <glyph glyph-name="tilde" unicode="&#x2dc;" horiz-adv-x="451" 
d="M290 575q-32 0 -71.5 33t-57.5 33q-39 0 -50 -68l-46 7q16 119 96 119q32 0 71.5 -33t57.5 -33q39 0 50 68l46 -7q-16 -119 -96 -119z" />
    <glyph glyph-name="hungarumlaut" unicode="&#x2dd;" horiz-adv-x="527" 
d="M63 575l121 145l79 -18l-142 -127h-58zM263 575l121 143l79 -18l-142 -125h-58z" />
    <glyph glyph-name="uni0326" unicode="&#x326;" horiz-adv-x="0" 
d="M-142 -275l-32 23q35 40 44 79q-19 0 -32 13.5t-13 32.5q0 18 13.5 31.5t32.5 13.5q24 0 38 -19t14 -49q0 -25 -13.5 -51t-51.5 -74z" />
    <glyph glyph-name="Wgrave" unicode="&#x1e80;" horiz-adv-x="1081" 
d="M513 746l-142 126l79 18l121 -144h-58zM272 0l-235 687h88l190 -556l182 556h87l182 -556l190 556h88l-235 -687h-77l-191 585l-192 -585h-77z" />
    <glyph glyph-name="wgrave" unicode="&#x1e81;" horiz-adv-x="833" 
d="M389 576l-142 126l79 18l121 -144h-58zM208 0l-173 517h80l129 -417l141 417h65l141 -417l129 417h80l-174 -517h-71l-137 413l-139 -413h-71z" />
    <glyph glyph-name="Wacute" unicode="&#x1e82;" horiz-adv-x="1081" 
d="M511 746l121 144l79 -18l-142 -126h-58zM272 0l-235 687h88l190 -556l182 556h87l182 -556l190 556h88l-235 -687h-77l-191 585l-192 -585h-77z" />
    <glyph glyph-name="wacute" unicode="&#x1e83;" horiz-adv-x="833" 
d="M388 576l121 144l79 -18l-142 -126h-58zM208 0l-173 517h80l129 -417l141 417h65l141 -417l129 417h80l-174 -517h-71l-137 413l-139 -413h-71z" />
    <glyph glyph-name="Wdieresis" unicode="&#x1e84;" horiz-adv-x="1081" 
d="M445 767q-19 0 -32.5 13.5t-13.5 32.5q0 18 13.5 32t32.5 14t32.5 -14t13.5 -32q0 -19 -13.5 -32.5t-32.5 -13.5zM637 767q-19 0 -32.5 13.5t-13.5 32.5q0 18 13.5 32t32.5 14t32.5 -14t13.5 -32q0 -19 -13.5 -32.5t-32.5 -13.5zM272 0l-235 687h88l190 -556l182 556h87
l182 -556l190 556h88l-235 -687h-77l-191 585l-192 -585h-77z" />
    <glyph glyph-name="wdieresis" unicode="&#x1e85;" horiz-adv-x="833" 
d="M322 597q-19 0 -32.5 13.5t-13.5 32.5q0 18 13.5 32t32.5 14t32.5 -14t13.5 -32q0 -19 -13.5 -32.5t-32.5 -13.5zM514 597q-19 0 -32.5 13.5t-13.5 32.5q0 18 13.5 32t32.5 14t32.5 -14t13.5 -32q0 -19 -13.5 -32.5t-32.5 -13.5zM208 0l-173 517h80l129 -417l141 417h65
l141 -417l129 417h80l-174 -517h-71l-137 413l-139 -413h-71z" />
    <glyph glyph-name="uni1EB8" unicode="&#x1eb8;" horiz-adv-x="627" 
d="M572 613h-414v-226h373v-74h-373v-239h414v-74h-493v687h493v-74zM326 -80q19 0 32.5 -14t13.5 -32q0 -19 -13.5 -32.5t-32.5 -13.5t-32.5 13.5t-13.5 32.5q0 18 13.5 32t32.5 14z" />
    <glyph glyph-name="uni1EB9" unicode="&#x1eb9;" horiz-adv-x="595" 
d="M309 55q46 0 92.5 18t70.5 44l46 -49q-33 -36 -92.5 -58t-115.5 -22q-106 0 -184 77.5t-78 194.5q0 114 75 191.5t180 77.5q116 0 180.5 -81t64.5 -218h-423q8 -77 58.5 -126t125.5 -49zM306 462q-70 0 -120 -45.5t-60 -119.5h348q-8 74 -51 119.5t-117 45.5zM303 -81
q19 0 32.5 -14t13.5 -32q0 -19 -13.5 -32.5t-32.5 -13.5t-32.5 13.5t-13.5 32.5q0 18 13.5 32t32.5 14z" />
    <glyph glyph-name="uni1EBC" unicode="&#x1ebc;" horiz-adv-x="627" 
d="M261 811q-39 0 -50 -68l-46 7q16 119 96 119q32 0 71.5 -33t57.5 -33q39 0 50 68l46 -7q-16 -119 -96 -119q-32 0 -71.5 33t-57.5 33zM572 613h-414v-226h373v-74h-373v-239h414v-74h-493v687h493v-74z" />
    <glyph glyph-name="uni1EBD" unicode="&#x1ebd;" horiz-adv-x="595" 
d="M238 641q-39 0 -50 -68l-46 7q16 119 96 119q32 0 71.5 -33t57.5 -33q39 0 50 68l46 -7q-16 -119 -96 -119q-32 0 -71.5 33t-57.5 33zM309 55q46 0 92.5 18t70.5 44l46 -49q-33 -36 -92.5 -58t-115.5 -22q-106 0 -184 77.5t-78 194.5q0 114 75 191.5t180 77.5
q116 0 180.5 -81t64.5 -218h-423q8 -77 58.5 -126t125.5 -49zM306 462q-70 0 -120 -45.5t-60 -119.5h348q-8 74 -51 119.5t-117 45.5z" />
    <glyph glyph-name="Ygrave" unicode="&#x1ef2;" horiz-adv-x="671" 
d="M348 746l-142 126l79 18l121 -144h-58zM295 0v280l-277 407h97l221 -333l223 333h94l-276 -407v-280h-82z" />
    <glyph glyph-name="ygrave" unicode="&#x1ef3;" horiz-adv-x="593" 
d="M306 576l-142 126l79 18l121 -144h-58zM153 -180q-45 0 -82 17l18 64q26 -13 61 -13q49 0 75 46l30 64l-225 519h83l181 -430l171 430h81l-236 -575q-26 -64 -64 -92.5t-93 -29.5z" />
    <glyph glyph-name="endash" unicode="&#x2013;" horiz-adv-x="577" 
d="M56 236v71h465v-71h-465z" />
    <glyph glyph-name="emdash" unicode="&#x2014;" horiz-adv-x="882" 
d="M56 236v71h770v-71h-770z" />
    <glyph glyph-name="quoteleft" unicode="&#x2018;" horiz-adv-x="264" 
d="M148 673l37 -28q-40 -46 -52 -93q22 0 38 -16t16 -39q0 -21 -15.5 -37t-39.5 -16q-28 0 -44.5 22.5t-16.5 57.5q0 30 16 61.5t61 87.5z" />
    <glyph glyph-name="quoteright" unicode="&#x2019;" horiz-adv-x="264" 
d="M116 446l-37 28q40 46 52 93q-22 0 -38 16t-16 39q0 22 15.5 37.5t39.5 15.5q28 0 44.5 -22.5t16.5 -57.5q0 -30 -16 -61.5t-61 -87.5z" />
    <glyph glyph-name="quotedblleft" unicode="&#x201c;" horiz-adv-x="464" 
d="M148 673l37 -28q-40 -46 -52 -93q22 0 38 -16t16 -39q0 -21 -15.5 -37t-39.5 -16q-28 0 -44.5 22.5t-16.5 57.5q0 30 16 61.5t61 87.5zM348 673l37 -28q-40 -46 -52 -93q22 0 38 -16t16 -39q0 -21 -15.5 -37t-39.5 -16q-28 0 -44.5 22.5t-16.5 57.5q0 30 16 61.5t61 87.5
z" />
    <glyph glyph-name="quotedblright" unicode="&#x201d;" horiz-adv-x="464" 
d="M116 446l-37 28q40 46 52 93q-22 0 -38 16t-16 39q0 22 15.5 37.5t39.5 15.5q28 0 44.5 -22.5t16.5 -57.5q0 -30 -16 -61.5t-61 -87.5zM316 446l-37 28q40 46 52 93q-22 0 -38 16t-16 39q0 22 15.5 37.5t39.5 15.5q28 0 44.5 -22.5t16.5 -57.5q0 -30 -16 -61.5t-61 -87.5
z" />
    <glyph glyph-name="ellipsis" unicode="&#x2026;" horiz-adv-x="654" 
d="M128 -12q-23 0 -39 16t-16 39q0 21 16 37t39 16q22 0 37.5 -16t15.5 -37q0 -23 -15.5 -39t-37.5 -16zM328 -12q-23 0 -39 16t-16 39q0 21 16 37t39 16q22 0 37.5 -16t15.5 -37q0 -23 -15.5 -39t-37.5 -16zM528 -12q-23 0 -39 16t-16 39q0 21 16 37t39 16q22 0 37.5 -16
t15.5 -37q0 -23 -15.5 -39t-37.5 -16z" />
    <glyph glyph-name="perthousand" unicode="&#x2030;" horiz-adv-x="1169" 
d="M206 349q-70 0 -114.5 49.5t-44.5 120.5q0 75 45.5 124.5t114.5 49.5q70 0 114.5 -49.5t44.5 -122.5t-45 -122.5t-115 -49.5zM131 0l470 687h66l-470 -687h-66zM207 403q42 0 69 33.5t27 83.5q0 51 -27.5 85t-69.5 34t-69 -33.5t-27 -85.5q0 -50 28 -83.5t69 -33.5z
M588 -10q-69 0 -114 49t-45 123q0 72 45 122t115 50t114.5 -50t44.5 -121q0 -74 -45.5 -123.5t-114.5 -49.5zM961 -10q-69 0 -114 49t-45 123q0 72 45 122t115 50t114.5 -50t44.5 -121q0 -74 -45.5 -123.5t-114.5 -49.5zM589 44q42 0 69 33.5t27 84.5q0 50 -27.5 84
t-69.5 34t-69 -33.5t-27 -83.5q0 -51 27.5 -85t69.5 -34zM962 44q42 0 69 33.5t27 84.5q0 50 -27.5 84t-69.5 34t-69 -33.5t-27 -83.5q0 -51 27.5 -85t69.5 -34z" />
    <glyph glyph-name="Euro" unicode="&#x20ac;" horiz-adv-x="680" 
d="M404 60q112 0 194 87l53 -54q-105 -105 -247 -105q-113 0 -206 70t-129 178h-93v67h78q-2 26 -2 41q0 27 5 59h-81v67h100q40 101 129.5 165t198.5 64q144 0 247 -105l-53 -54q-82 87 -194 87q-77 0 -143 -43.5t-100 -113.5h311v-67h-335q-6 -29 -6 -59q0 -22 3 -41h338
v-67h-320q32 -78 101 -127t151 -49z" />
    <glyph glyph-name="minus" unicode="&#x2212;" horiz-adv-x="593" 
d="M67 297v74h459v-74h-459z" />
    <glyph glyph-name="a.alt" 
d="M480 517h75v-517h-75v97q-63 -109 -188 -109q-103 0 -170.5 76t-67.5 195q0 118 67.5 194t170.5 76q125 0 188 -109v97zM306 55q76 0 125 57.5t49 146.5t-49 146t-125 57t-124.5 -57t-48.5 -146t48.5 -146.5t124.5 -57.5z" />
    <glyph glyph-name="aacute.alt" 
d="M445 702l-142 -126h-58l121 144zM480 517h75v-517h-75v97q-63 -109 -188 -109q-103 0 -170.5 76t-67.5 195q0 118 67.5 194t170.5 76q125 0 188 -109v97zM306 55q76 0 125 57.5t49 146.5t-49 146t-125 57t-124.5 -57t-48.5 -146t48.5 -146.5t124.5 -57.5z" />
    <glyph glyph-name="abreve.alt" 
d="M471 649q-60 -60 -146 -60q-85 0 -146 60l47 47q44 -42 99 -42t99 42zM480 517h75v-517h-75v97q-63 -109 -188 -109q-103 0 -170.5 76t-67.5 195q0 118 67.5 194t170.5 76q125 0 188 -109v97zM306 55q76 0 125 57.5t49 146.5t-49 146t-125 57t-124.5 -57t-48.5 -146
t48.5 -146.5t124.5 -57.5z" />
    <glyph glyph-name="acircumflex.alt" 
d="M325 662l-78 -86h-57l100 137h70l102 -137h-58zM480 517h75v-517h-75v97q-63 -109 -188 -109q-103 0 -170.5 76t-67.5 195q0 118 67.5 194t170.5 76q125 0 188 -109v97zM306 55q76 0 125 57.5t49 146.5t-49 146t-125 57t-124.5 -57t-48.5 -146t48.5 -146.5t124.5 -57.5z
" />
    <glyph glyph-name="adieresis.alt" 
d="M229 597q-19 0 -32.5 13.5t-13.5 32.5q0 18 13.5 32t32.5 14t32.5 -14t13.5 -32q0 -19 -13.5 -32.5t-32.5 -13.5zM421 597q-19 0 -32.5 13.5t-13.5 32.5q0 18 13.5 32t32.5 14t32.5 -14t13.5 -32q0 -19 -13.5 -32.5t-32.5 -13.5zM480 517h75v-517h-75v97
q-63 -109 -188 -109q-103 0 -170.5 76t-67.5 195q0 118 67.5 194t170.5 76q125 0 188 -109v97zM306 55q76 0 125 57.5t49 146.5t-49 146t-125 57t-124.5 -57t-48.5 -146t48.5 -146.5t124.5 -57.5z" />
    <glyph glyph-name="agrave.alt" 
d="M395 576h-58l-142 126l79 18zM480 517h75v-517h-75v97q-63 -109 -188 -109q-103 0 -170.5 76t-67.5 195q0 118 67.5 194t170.5 76q125 0 188 -109v97zM306 55q76 0 125 57.5t49 146.5t-49 146t-125 57t-124.5 -57t-48.5 -146t48.5 -146.5t124.5 -57.5z" />
    <glyph glyph-name="amacron.alt" 
d="M480 649v-55h-310v55h310zM480 517h75v-517h-75v97q-63 -109 -188 -109q-103 0 -170.5 76t-67.5 195q0 118 67.5 194t170.5 76q125 0 188 -109v97zM306 55q76 0 125 57.5t49 146.5t-49 146t-125 57t-124.5 -57t-48.5 -146t48.5 -146.5t124.5 -57.5z" />
    <glyph glyph-name="aogonek.alt" 
d="M602 -95l32 -49q-35 -29 -84 -29t-79 28.5t-30 78.5t39 77v86q-63 -109 -188 -109q-103 0 -170.5 76t-67.5 195q0 118 67.5 194t170.5 76q125 0 188 -109v97h75v-517q-25 0 -41.5 -16t-16.5 -41q0 -27 15.5 -42t42.5 -15q30 0 47 19zM306 55q76 0 125 57.5t49 146.5
t-49 146t-125 57t-124.5 -57t-48.5 -146t48.5 -146.5t124.5 -57.5z" />
    <glyph glyph-name="aring.alt" 
d="M325 589q-43 0 -73 30t-30 73t30 73t73 30t73 -30t30 -73t-30 -73t-73 -30zM325 751q-24 0 -41.5 -17.5t-17.5 -41.5t17.5 -41.5t41.5 -17.5t41.5 17.5t17.5 41.5t-17.5 41.5t-41.5 17.5zM480 517h75v-517h-75v97q-63 -109 -188 -109q-103 0 -170.5 76t-67.5 195
q0 118 67.5 194t170.5 76q125 0 188 -109v97zM306 55q76 0 125 57.5t49 146.5t-49 146t-125 57t-124.5 -57t-48.5 -146t48.5 -146.5t124.5 -57.5z" />
    <glyph glyph-name="atilde.alt" 
d="M260 641q-39 0 -50 -68l-46 7q16 119 96 119q32 0 71.5 -33t57.5 -33q39 0 50 68l46 -7q-16 -119 -96 -119q-32 0 -71.5 33t-57.5 33zM480 517h75v-517h-75v97q-63 -109 -188 -109q-103 0 -170.5 76t-67.5 195q0 118 67.5 194t170.5 76q125 0 188 -109v97zM306 55
q76 0 125 57.5t49 146.5t-49 146t-125 57t-124.5 -57t-48.5 -146t48.5 -146.5t124.5 -57.5z" />
    <glyph glyph-name="ascender" 
d="M83 0v699h75v-699h-75z" />
    <glyph glyph-name="descender" 
d="M83 -172v689h75v-689h-75z" />
    </font>
</defs>
</svg>
