<?xml version="1.0" standalone="no"?>
<!DOCTYPE svg PUBLIC "-//W3C//DTD SVG 1.1//EN" "http://www.w3.org/Graphics/SVG/1.1/DTD/svg11.dtd" >
<svg xmlns="http://www.w3.org/2000/svg" xmlns:xlink="http://www.w3.org/1999/xlink" version="1.1">
<metadata>
Created by FontForge 20170812 at Sun Apr 14 21:27:58 2019
 By www-data
Copyright (c) 2019 Monotype Imaging Inc. All rights reserved.
</metadata>
<defs>
<font id="HelveticaNowText-Black" horiz-adv-x="755" >
  <font-face 
    font-family="HelveticaNowText Black"
    font-weight="900"
    font-stretch="normal"
    units-per-em="1000"
    panose-1="2 11 10 4 3 2 2 2 2 4"
    ascent="875"
    descent="-125"
    x-height="516"
    cap-height="712"
    bbox="-492 -366 1679 1109"
    underline-thickness="50"
    underline-position="-250"
    unicode-range="U+000D-FEFF"
  />
<missing-glyph horiz-adv-x="769" 
d="M709 0h-649v712h649v-712zM284 520v-328h201v328h-201z" />
    <glyph glyph-name="fi" unicode="fi" horiz-adv-x="725" 
d="M97 514v21.999c0 52.667 14.667 95.334 44 128.001c28.667 32 82.667 48 162 48h100v-131h-56c-18 0 -30.5 -3.33301 -37.5 -10s-10.5 -18 -10.5 -34v-23l104 2v-124l-104 2v-394h-202v394l-82 -2v124zM473 580.999v131h202v-131h-202zM675 -0.000976562h-202v516h202
v-516z" />
    <glyph glyph-name="fl" unicode="fl" horiz-adv-x="725" 
d="M97 514v21.999c0 52.667 14.667 95.334 44 128.001c28.667 32 82.667 48 162 48h100v-131h-56c-18 0 -30.5 -3.33301 -37.5 -10s-10.5 -18 -10.5 -34v-23l104 2v-124l-104 2v-394h-202v394l-82 -2v124zM473 -0.000976562v712h202v-712h-202z" />
    <glyph glyph-name=".notdef" horiz-adv-x="769" 
d="M709 0h-649v712h649v-712zM284 520v-328h201v328h-201z" />
    <glyph glyph-name="NULL" horiz-adv-x="0" 
 />
    <glyph glyph-name="NULL" horiz-adv-x="0" 
 />
    <glyph glyph-name="CR" unicode="&#xd;" horiz-adv-x="262" 
 />
    <glyph glyph-name="space" unicode=" " horiz-adv-x="262" 
 />
    <glyph glyph-name="exclam" unicode="!" horiz-adv-x="322" 
d="M209 256h-96l-53 261v195h202v-195zM262 0h-202v183h202v-183z" />
    <glyph glyph-name="quotedbl" unicode="&#x22;" horiz-adv-x="540" 
d="M220 354h-170v358h170v-358zM490 354h-170v358h170v-358z" />
    <glyph glyph-name="numbersign" unicode="#" horiz-adv-x="706" 
d="M676 556v-136l-125 3l-17 -123l102 2v-136l-120 3l-24 -169h-132l24 171h-113l-24 -171h-133l24 169l-108 -3v136l126 -3l17 123l-104 -2v136l123 -3l22 159h133l-23 -161h113l23 161h132l-22 -159zM307 424l-18 -126h113l18 126h-113z" />
    <glyph glyph-name="dollar" unicode="$" 
d="M702 221c0 -68 -22.6689 -123.001 -68.002 -165.001s-109 -67.333 -191 -76v-120h-141v122c-75.333 10.667 -134.166 37.5 -176.499 80.5s-66.166 100.833 -71.499 173.5h225c4.66699 -54 41 -81 109 -81c58.667 0 88 18 88 54c0 28.667 -21 47.334 -63 56.001l-149 33
c-128 28 -192 97 -192 207c0 61.333 19.167 111 57.5 149s95.833 61.667 172.5 71v127h141v-127c142.667 -16.667 217.667 -89 225 -217h-217c-6 36.667 -33.333 55 -82 55c-49.333 0 -74 -14 -74 -42c0 -21.333 18 -36 54 -44l150 -33c135.333 -30 203 -104.333 203 -223z
" />
    <glyph glyph-name="percent" unicode="%" horiz-adv-x="1240" 
d="M273 277c-68 0 -120.5 19.833 -157.5 59.5s-55.5 95.167 -55.5 166.5c0 72 18.5 127.667 55.5 167s89.5 59 157.5 59c67.333 0 119.333 -19.667 156 -59s55 -95 55 -167s-18.333 -127.667 -55 -167s-88.667 -59 -156 -59zM441 -15h-140l492 742h138zM273 385
c55.333 0 83 39.333 83 118c0 78 -27.667 117 -83 117c-56 0 -84 -39 -84 -117c0 -78.667 28 -118 84 -118zM969 -16c-68 0 -120.5 19.833 -157.5 59.5s-55.5 95.167 -55.5 166.5c0 72 18.5 127.667 55.5 167s89.5 59 157.5 59c67.333 0 119.333 -19.667 156 -59
s55 -95 55 -167s-18.333 -127.667 -55 -167s-88.667 -59 -156 -59zM969 92c55.333 0 83 39.333 83 118c0 78 -27.667 117 -83 117c-56 0 -84 -39 -84 -117c0 -78.667 28 -118 84 -118z" />
    <glyph glyph-name="ampersand" unicode="&#x26;" horiz-adv-x="820" 
d="M671 146l135.999 -147h-259l-32 35c-54.667 -36 -119 -54 -193 -54c-86 0 -153 19.833 -201 59.5s-72 93.5 -72 161.5c0 94.667 47.333 159 142 193c-34.667 47.333 -52 94.666 -52 141.999c0 61.333 22.667 109 68 143c45.333 33.333 103.333 50 174 50
c74.667 0 132.334 -18 173.001 -54c41.333 -36 62 -81 62 -135c0 -41.333 -12.5 -78.166 -37.5 -110.499s-59.167 -57.5 -102.5 -75.5l76 -82c17.333 26 30.333 56.333 39 91h178c-11.333 -80 -44.333 -152.333 -99 -217zM428.999 579c-17.333 16 -38.832 19.667 -64.499 11
s-36.834 -24 -33.501 -46c0 -24 12.333 -48.333 37 -73l15 -16c40.667 20.667 61 48.667 61 84c0 16.667 -5 30 -15 40zM351 126c23.333 0 45.333 5.66699 66 17l-129 141c-24.667 -18.667 -37 -42.667 -37 -72c0 -26 9.16699 -46.833 27.5 -62.5s42.5 -23.5 72.5 -23.5z
" />
    <glyph glyph-name="quotesingle" unicode="'" horiz-adv-x="270" 
d="M220 354h-170v358h170v-358z" />
    <glyph glyph-name="parenleft" unicode="(" horiz-adv-x="416" 
d="M386 -204h-207c-89.333 144.667 -134 304 -134 478s44.667 331.667 134 473h207c-76.667 -150.667 -115 -309.667 -115 -477c0 -166.667 38.333 -324.667 115 -474z" />
    <glyph glyph-name="parenright" unicode=")" horiz-adv-x="416" 
d="M237 -204h-207c76.667 149.333 115 307.333 115 474c0 167.333 -38.333 326.333 -115 477h207c89.333 -141.333 134 -299 134 -473s-44.667 -333.333 -134 -478z" />
    <glyph glyph-name="asterisk" unicode="*" horiz-adv-x="602" 
d="M301 385l-82 -160l-122 95l122 124l-169 32l47 143l152 -78l-22 171h148l-22 -171l152 78l47 -143l-172 -32l125 -124l-125 -95z" />
    <glyph glyph-name="plus" unicode="+" 
d="M452 392h203v-142h-203v-207h-151v207h-201v142h201v207h151v-207z" />
    <glyph glyph-name="comma" unicode="," horiz-adv-x="330" 
d="M89 -204h-34v98h25c58 0 87 25.667 87 77v29h-112v192h220v-220c0 -117.333 -62 -176 -186 -176z" />
    <glyph glyph-name="hyphen" unicode="-" horiz-adv-x="347" 
d="M319 197h-291v153h291v-153z" />
    <glyph glyph-name="period" unicode="." horiz-adv-x="330" 
d="M275 0h-220v192h220v-192z" />
    <glyph glyph-name="slash" unicode="/" horiz-adv-x="572" 
d="M246 0h-216l296 712h216z" />
    <glyph glyph-name="zero" unicode="0" 
d="M379 -16c-97.333 0 -176.333 34.335 -237 103.002c-61.333 69.333 -92 159 -92 269s30.667 199.667 92 269c60.667 68.667 139.667 103 237 103c96 0 174.333 -34.333 235 -103s91 -158.334 91 -269.001s-30.333 -200.334 -91 -269.001s-139 -103 -235 -103zM379 148.002
c79.333 0 119 69.333 119 208c0 72 -9.66699 124.667 -29 158s-49.333 50 -90 50c-42 0 -72.833 -16.667 -92.5 -50s-29.5 -86 -29.5 -158c0 -71.333 10 -123.833 30 -157.5s50.667 -50.5 92 -50.5z" />
    <glyph glyph-name="one" unicode="1" horiz-adv-x="516" 
d="M426 0h-224v407h-172v150h7c59.333 0 105.333 10 138 30c34.667 20.667 59 59.667 73 117l2 8h176v-712z" />
    <glyph glyph-name="two" unicode="2" 
d="M678 0h-602c0 71.333 15.333 127.666 46 168.999c30.667 42 92.667 93.333 186 154l84 55c28.667 19.333 48.667 36.5 60 51.5s17 31.5 17 49.5c0 24 -7.66699 42.667 -23 56s-37 20 -65 20c-65.333 0 -98 -38.333 -98 -115v-9h-195v30c0 84.667 25.833 150.5 77.5 197.5
s125.5 70.5 221.5 70.5c90 0 161 -20.167 213 -60.5s78 -98.166 78 -173.499c0 -48 -11.333 -88.333 -34 -121c-23.333 -34 -63 -68.333 -119 -103l-124 -77c-9.33301 -6 -14.333 -10.333 -15 -13h292v-181z" />
    <glyph glyph-name="three" unicode="3" 
d="M539 379c44 -8.66699 78.668 -28.167 104.001 -58.5s38 -67.5 38 -111.5c0 -66 -26 -120.667 -78 -164c-52.667 -43.333 -125.334 -65 -218.001 -65c-96 0 -170.5 23.167 -223.5 69.5s-82.167 111.5 -87.5 195.5h196c4 -70.667 38.667 -106 104 -106
c30.667 0 54.834 6.83301 72.501 20.5s26.5 33.167 26.5 58.5c0 50.667 -35 76 -105 76h-48v137h59c59.333 0 89 24.333 89 73c0 48 -29.333 72 -88 72c-27.333 0 -48 -6.16699 -62 -18.5s-22.667 -32.833 -26 -61.5h-190c9.33301 155.333 103.666 233 282.999 233
c87.333 0 154.333 -18.333 201 -55c47.333 -37.333 71 -84.333 71 -141c0 -36.667 -10.333 -69 -31 -97s-49.667 -47 -87 -57z" />
    <glyph glyph-name="four" unicode="4" 
d="M594 713v-399l101 5v-163l-103 5v-162h-202v162l-329 -5v171l326 386h207zM220 314h171v194h-4z" />
    <glyph glyph-name="five" unicode="5" 
d="M377 -20c-88 0 -158.667 18.999 -212 56.999s-85 93.667 -95 167l209 15c9.33301 -48.667 41.333 -73 96 -73c31.333 0 55.833 8.66699 73.5 26s26.5 41 26.5 71c0 30.667 -8.66699 54.834 -26 72.501s-40.666 26.5 -69.999 26.5c-38 0 -66 -14 -84 -42l-198 10l64 402
h471v-167h-313l-21 -105l3 -3c36.667 28.667 85.667 43 147 43c73.333 0 131.166 -20.833 173.499 -62.5s63.5 -99.167 63.5 -172.5c0 -82.667 -27 -147.5 -81 -194.5s-129.667 -70.5 -227 -70.5z" />
    <glyph glyph-name="six" unicode="6" 
d="M431 497c75.333 0 137.668 -21.668 187.001 -65.001c48.667 -42.667 73 -102.667 73 -180c0 -82 -27.667 -147.667 -83 -197c-56 -50 -129.333 -75 -220 -75c-80.667 0 -149.667 22.667 -207 68c-78 62.667 -117 163 -117 301c0 116.667 27 209.334 81 278.001
c54 68 136 102 246 102c136.667 0 227.667 -55.667 273 -167l-200 -21c-12.667 24.667 -38 37 -76 37c-34.667 0 -61 -10.667 -79 -32s-29.667 -57.333 -35 -108c37.333 39.333 89.666 59 156.999 59zM378.002 142.999c33.333 0 59.168 9.33203 77.501 27.999
s27.5 43.334 27.5 74.001s-9.5 55.167 -28.5 73.5s-44.833 27.5 -77.5 27.5c-32 0 -57 -9.5 -75 -28.5s-28.333 -45.833 -31 -80.5c0.666992 -20 8 -38.333 22 -55c21.333 -26 49.666 -39 84.999 -39z" />
    <glyph glyph-name="seven" unicode="7" 
d="M433 0l-232 0.000976562c0 85.333 21.667 178.333 65 279c42.667 99.333 98.667 180.666 168 243.999h-342v189h570v-166c-152.667 -152.667 -229 -334.667 -229 -546z" />
    <glyph glyph-name="eight" unicode="8" 
d="M609 41c-57.333 -40.667 -134.669 -61 -232.002 -61s-174.333 20.333 -231 61c-58 40.667 -87 97 -87 169c0 44.667 12.333 81 37 109s60 45.667 106 53v3c-35.333 10 -62.666 28.333 -81.999 55s-29 59.334 -29 98.001c0 64 24.833 113.5 74.5 148.5
s120.167 52.5 211.5 52.5c92.667 0 164.334 -17.5 215.001 -52.5s76 -84.5 76 -148.5c0 -79.333 -37.333 -130.333 -112 -153v-3c44.667 -8.66699 79.167 -26.834 103.5 -54.501s36.5 -63.5 36.5 -107.5c0 -72 -29 -128.333 -87 -169zM300.997 452
c17.333 -14.667 43.333 -22 78 -22s60.667 7.33301 78 22c18 14 27 34 27 60c0 51.333 -35 77 -105 77c-70.667 0 -106 -25.667 -106 -77c0 -26 9.33301 -46 28 -60zM378.997 132c36 0 63.833 7.66699 83.5 23s29.5 36.666 29.5 63.999c0 28 -9.83301 49.667 -29.5 65
s-47.5 23 -83.5 23c-36.667 0 -65.167 -7.66699 -85.5 -23s-30.5 -37 -30.5 -65c0 -27.333 10.167 -48.666 30.5 -63.999s48.833 -23 85.5 -23z" />
    <glyph glyph-name="nine" unicode="9" 
d="M574 661c78 -63.333 116.998 -163.667 116.998 -301c0 -116.667 -27 -209 -81 -277c-54 -68.667 -136 -103 -246 -103c-136.667 0 -227.667 55.667 -273 167l200 21c12.667 -24.667 38 -37 76 -37c34.667 0 61 10.667 79 32s29.667 57.333 35 108
c-37.333 -39.333 -89.666 -59 -156.999 -59c-75.333 0 -137.666 21.667 -186.999 65c-48.667 42.667 -73 102.667 -73 180c0 82 28 148 84 198c55.333 49.333 128.333 74 219 74c80.667 0 149.667 -22.667 207 -68zM377.998 362.999c32 0 56.998 9.50098 74.998 28.501
s28.333 45.833 31 80.5c-0.666992 20 -8 38.333 -22 55c-21.333 26 -49.666 39 -84.999 39c-33.333 0 -59.166 -9.33301 -77.499 -28s-27.5 -43.334 -27.5 -74.001s9.5 -55.167 28.5 -73.5s44.833 -27.5 77.5 -27.5z" />
    <glyph glyph-name="colon" unicode=":" horiz-adv-x="330" 
d="M275 318h-220v192h220v-192zM275 0h-220v192h220v-192z" />
    <glyph glyph-name="semicolon" unicode=";" horiz-adv-x="330" 
d="M275 318h-220v192h220v-192zM89 -204h-34v98h25c58 0 87 25.667 87 77v29h-112v192h220v-220c0 -117.333 -62 -176 -186 -176z" />
    <glyph glyph-name="less" unicode="&#x3c;" 
d="M120 409l516 177v-153l-396 -118l396 -119v-153l-516 177v189z" />
    <glyph glyph-name="equal" unicode="=" 
d="M656 386h-556v141h556v-141zM656 113h-556v142h556v-142z" />
    <glyph glyph-name="greater" unicode="&#x3e;" 
d="M120 433v153l516 -177v-189l-516 -177v153l396 119z" />
    <glyph glyph-name="question" unicode="?" horiz-adv-x="690" 
d="M417 240l-202.002 0.00292969v24c0 53.333 11.167 94.666 33.5 123.999s60.833 51 115.5 65c28.667 8 48.334 15.833 59.001 23.5s16 19.167 16 34.5c0 36 -32.667 54 -98 54c-34.667 0 -60 -4.83301 -76 -14.5s-25.667 -26.5 -29 -50.5h-200
c8.66699 152.667 110.667 229 306 229c98.667 0 173.834 -18.333 225.501 -55s77.5 -88.334 77.5 -155.001c0 -88.667 -44.333 -150.334 -133 -185.001l-31 -12c-24.667 -10 -41.5 -20 -50.5 -30s-13.5 -25 -13.5 -45v-7zM416.998 0.00292969h-202v183h202v-183z" />
    <glyph glyph-name="at" unicode="@" horiz-adv-x="1048" 
d="M532 729c142 0 253.666 -37.666 334.999 -112.999c80.667 -76 121 -171.667 121 -287c0 -82.667 -20.333 -149.667 -61 -201c-40.667 -52.667 -98 -79 -172 -79c-74.667 0 -124 29 -148 87c-24.667 -56.667 -68.667 -85 -132 -85c-52 0 -94.167 19.667 -126.5 59
s-48.5 94.666 -48.5 165.999s16.167 127 48.5 167s74.5 60 126.5 60c56.667 0 97.667 -22.667 123 -68l17 54h130v-267c0 -34 16 -51 48 -51c26.667 0 47.5 12.833 62.5 38.5s22.5 62.167 22.5 109.5c0 97.333 -30.5 173 -91.5 227s-145.833 81 -254.5 81
c-114 0 -201.333 -30.167 -262 -90.5s-91 -146.833 -91 -259.5c0 -110.667 30.5 -196.167 91.5 -256.5s147.5 -90.5 259.5 -90.5c70.667 0 140.334 12.667 209.001 38v-102c-64 -24.667 -132.667 -37 -206 -37c-146 0 -261.333 39.667 -346 119
c-84.667 80 -127 189.667 -127 329c0 137.333 42.333 247 127 329s199.667 123 345 123zM526.999 184.001c34 0 55.333 19 64 57v82c-8.66699 38.667 -30 58 -64 58c-45.333 0 -68 -33 -68 -99c0 -65.333 22.667 -98 68 -98z" />
    <glyph glyph-name="A" unicode="A" horiz-adv-x="786" 
d="M771 0h-235l-32 97h-223l-32 -97h-234l268 712h222zM366 355l-35 -107h124l-35 107l-27 93z" />
    <glyph glyph-name="B" unicode="B" horiz-adv-x="746" 
d="M587 390c34.667 -12.667 62.833 -35 84.5 -67s32.5 -68.667 32.5 -110c0 -63.333 -23.667 -114.666 -71 -153.999s-110.333 -59 -189 -59h-384v712h381c68 0 123.667 -16.667 167 -50c42.667 -32.667 64 -77.334 64 -134.001c0 -68 -28.333 -114 -85 -138zM408.999 539
h-125v-99h125c16.667 0 29.834 4.66699 39.501 14s14.5 21.333 14.5 36s-4.83301 26.5 -14.5 35.5s-22.834 13.5 -39.501 13.5zM283.999 178l136.999 -0.000976562c22.667 0 40.334 5.16699 53.001 15.5s19 24.833 19 43.5s-6 33.334 -18 44.001s-28.667 16 -50 16h-141
v-119z" />
    <glyph glyph-name="C" unicode="C" horiz-adv-x="772" 
d="M400 -23c-104.667 0 -189.999 34 -255.999 102s-99 159.333 -99 274s33 206 99 274s151.333 102 256 102c92.667 0 169.667 -25.667 231 -77c60 -50.667 95.667 -120.667 107 -210h-221c-10 72.667 -48.333 109 -115 109c-42.667 0 -75.5 -16.667 -98.5 -50
s-34.5 -82 -34.5 -146c0 -133.333 44.333 -200 133 -200c68.667 0 107 40.667 115 122h223c-6.66699 -92 -41.334 -165 -104.001 -219c-62 -54 -140.667 -81 -236 -81z" />
    <glyph glyph-name="D" unicode="D" horiz-adv-x="778" 
d="M60 712l335 0.000976562c108 0 192 -31 252 -93s90 -149.667 90 -263c0 -108.667 -27.667 -195.334 -83 -260.001c-56 -64 -139 -96 -249 -96h-345v712zM284 187.001h75c48 0 85.667 15 113 45s41 71.333 41 124s-13.667 94 -41 124s-65 45 -113 45h-75v-338z" />
    <glyph glyph-name="E" unicode="E" horiz-adv-x="716" 
d="M284 271v-81h392v-190h-616v712h606v-185h-382v-81h327v-175h-327z" />
    <glyph glyph-name="F" unicode="F" horiz-adv-x="643" 
d="M638 712v-185h-354v-101h293v-175h-293v-251h-224v712h578z" />
    <glyph glyph-name="G" unicode="G" horiz-adv-x="811" 
d="M448 392h303v-392h-149l-10 67c-20 -26 -48.5 -47.5 -85.5 -64.5s-79.167 -25.5 -126.5 -25.5c-96.667 0 -176.334 34.333 -239.001 103c-64 69.333 -96 160.333 -96 273c0 114.667 33 206 99 274s151.333 102 256 102c82 0 152.667 -20.667 212 -62
c58.667 -42 97 -99 115 -171l-215 -15c-20 46.667 -56.667 70 -110 70c-42.667 0 -75.5 -16.667 -98.5 -50s-34.5 -82 -34.5 -146c0 -69.333 12.167 -120 36.5 -152s61.833 -48 112.5 -48c64.667 0 105.334 27.333 122.001 82h-92v155z" />
    <glyph glyph-name="H" unicode="H" horiz-adv-x="769" 
d="M485 470v242h224v-712h-224v278h-201v-278h-224v712h224v-242h201z" />
    <glyph glyph-name="I" unicode="I" horiz-adv-x="344" 
d="M284 0h-224v712h224v-712z" />
    <glyph glyph-name="J" unicode="J" horiz-adv-x="648" 
d="M516 43c-49.333 -44 -115 -66 -197 -66s-147.333 21.667 -196 65c-48.667 42.667 -73 100.667 -73 174v74h206v-60c0 -40.667 18 -61 54 -61s54 20.333 54 61v482h224v-495c0 -72.667 -24 -130.667 -72 -174z" />
    <glyph glyph-name="K" unicode="K" horiz-adv-x="792" 
d="M792 0h-277l-172 279l-59 -64v-215h-224v712h224v-225l204 225h276l-266 -284z" />
    <glyph glyph-name="L" unicode="L" horiz-adv-x="612" 
d="M284 712v-520h318v-192h-542v712h224z" />
    <glyph glyph-name="M" unicode="M" horiz-adv-x="904" 
d="M483 454l64 258h297v-712h-204v299l10 171l-38 -171l-77 -299h-162l-78 299l-35 164l9 -164v-299h-209v712h296l66 -258l31 -145z" />
    <glyph glyph-name="N" unicode="N" horiz-adv-x="781" 
d="M501 342v370h220v-712h-227l-214 366v-366h-220v712h222z" />
    <glyph glyph-name="O" unicode="O" horiz-adv-x="820" 
d="M675 79c-67.333 -68 -155.666 -102.002 -264.999 -102.002s-197.333 34 -264 102c-67.333 68.667 -101 160 -101 274s33.667 205.333 101 274c66.667 68 154.667 102 264 102s197.666 -34 264.999 -102c66.667 -67.333 100 -158.666 100 -273.999
s-33.333 -206.666 -100 -273.999zM306 205.998c24 -34 58.665 -50.999 103.998 -50.999s80.333 17 105 51c24 33.333 36 82.666 36 147.999c0 64 -12.167 112.833 -36.5 146.5s-59.166 50.5 -104.499 50.5s-80.166 -16.833 -104.499 -50.5s-36.5 -82.5 -36.5 -146.5
c0 -66 12.333 -115.333 37 -148z" />
    <glyph glyph-name="P" unicode="P" horiz-adv-x="724" 
d="M60 712h370c78.667 0 142.667 -23 192 -69c48 -46 72 -105.667 72 -179s-24.333 -133 -73 -179c-48.667 -46.667 -113.667 -70 -195 -70h-142v-215h-224v712zM284 385h99c58 0 87 25.333 87 76c0 49.333 -29 74 -87 74h-99v-150z" />
    <glyph glyph-name="Q" unicode="Q" horiz-adv-x="800" 
d="M775 353c0 -122 -37.332 -217.334 -111.999 -286.001l82 -87l-122 -95l-74 115c-44 -15.333 -90.333 -23 -139 -23c-109.333 0 -197.333 34 -264 102c-67.333 68.667 -101 160 -101 274s33.667 205.333 101 274c66.667 68 154.667 102 264 102s197.666 -34 264.999 -102
c66.667 -67.333 100 -158.666 100 -273.999zM269.001 353.999c0 -65.333 11.998 -114.833 35.998 -148.5s59 -50.5 105 -50.5c4 0 12 0.666992 24 2l-89 87l122 95l62 -108c14.667 32 22 73 22 123c0 64 -12.167 112.833 -36.5 146.5s-59.166 50.5 -104.499 50.5
s-80.166 -16.833 -104.499 -50.5s-36.5 -82.5 -36.5 -146.5z" />
    <glyph glyph-name="R" unicode="R" horiz-adv-x="766" 
d="M699 170l17 -170.001h-222l-14 150c-6 66 -39 99 -99 99h-97v-249h-224v712h415c69.333 0 126 -19 170 -57c44 -39.333 66 -89.666 66 -150.999c0 -84 -40.333 -142 -121 -174c64 -22.667 100.333 -76 109 -160zM284 406.999h127c23.333 0 41.833 6.16699 55.5 18.5
s20.5 28.833 20.5 49.5c0 20 -6.66699 36.167 -20 48.5s-32 18.5 -56 18.5h-127v-135z" />
    <glyph glyph-name="S" unicode="S" horiz-adv-x="720" 
d="M361 -23c-98.667 0 -175.832 22.166 -231.499 66.499s-86.834 108.5 -93.501 192.5h225c4.66699 -54 41 -81 109 -81c58.667 0 88 18 88 54c0 28.667 -21 47.334 -63 56.001l-149 33c-128 28 -192 97 -192 207c0 70.667 25 125.667 75 165s125 59 225 59
c189.333 0 288 -73.667 296 -221h-217c-6 36.667 -33.333 55 -82 55c-49.333 0 -74 -14 -74 -42c0 -21.333 18 -36 54 -44l150 -33c135.333 -30 203 -104.333 203 -223c0 -77.333 -28.5 -137.333 -85.5 -180s-136.167 -64 -237.5 -64z" />
    <glyph glyph-name="T" unicode="T" horiz-adv-x="675" 
d="M20 712h635v-192h-205v-520h-224v520h-206v192z" />
    <glyph glyph-name="U" unicode="U" horiz-adv-x="786" 
d="M642 52c-57.333 -50 -140.333 -75.001 -249 -75.001c-109.333 0 -192 25 -248 75c-56.667 48.667 -85 121 -85 217v443h224v-443c0 -76 36.333 -114 109 -114s109 38 109 114v443h224v-443c0 -95.333 -28 -167.666 -84 -216.999z" />
    <glyph glyph-name="V" unicode="V" horiz-adv-x="723" 
d="M411 440l75 272h222l-220 -712h-253l-220 712h226l74 -271l49 -205z" />
    <glyph glyph-name="W" unicode="W" horiz-adv-x="1035" 
d="M733 441l66 271h221l-206 -712h-216l-80 420l-75 -420h-222l-206 712h220l67 -271l32 -184l29 183l55 272h198l60 -272l28 -179z" />
    <glyph glyph-name="X" unicode="X" horiz-adv-x="817" 
d="M782 712l-242 -337l262 -375h-268l-86 141l-39 75l-39 -74l-89 -142h-266l265 376l-243 336h260l68 -112l46 -83l45 83l69 112h257z" />
    <glyph glyph-name="Y" unicode="Y" horiz-adv-x="768" 
d="M414 523l95 189h248l-261 -452v-260h-224v260l-261 452h250l91 -189l31 -81z" />
    <glyph glyph-name="Z" unicode="Z" horiz-adv-x="715" 
d="M651 553l-325 -361h347v-192h-631v184l310 336h-286v192h585v-159z" />
    <glyph glyph-name="bracketleft" unicode="[" horiz-adv-x="451" 
d="M421 -204h-361v950h361v-178h-159v-594h159v-178z" />
    <glyph glyph-name="backslash" unicode="\" horiz-adv-x="572" 
d="M542 0h-216l-296 712h216z" />
    <glyph glyph-name="bracketright" unicode="]" horiz-adv-x="451" 
d="M391 -204h-361v178h159v594h-159v178h361v-950z" />
    <glyph glyph-name="asciicircum" unicode="^" 
d="M256 712h232.999l182 -516h-212l-42 137c-15.333 48.667 -30.666 103.667 -45.999 165c-11.333 -49.333 -26.333 -104.333 -45 -165l-42 -137h-201z" />
    <glyph glyph-name="underscore" unicode="_" horiz-adv-x="500" 
d="M500 -154h-500v79h500v-79z" />
    <glyph glyph-name="grave" unicode="`" horiz-adv-x="500" 
d="M428 611h-183l-172 182h238z" />
    <glyph glyph-name="a" unicode="a" horiz-adv-x="642" 
d="M607 0l-199.999 0.00292969c-10 21.333 -16.333 41.666 -19 60.999c-34 -54 -89.333 -81 -166 -81c-58 0 -104 14.167 -138 42.5s-51 67.166 -51 116.499c0 42 12.833 75.667 38.5 101s66.834 42.666 123.501 51.999l181 28v37c0 30.667 -21.667 46 -65 46
c-20.667 0 -36 -4.33301 -46 -13s-15.667 -23 -17 -43l-192 7c7.33301 62 31.666 107.5 72.999 136.5s104.666 43.5 189.999 43.5c87.333 0 152.333 -14.833 195 -44.5s64 -76.834 64 -141.501v-218c0 -53.333 9.66699 -96.666 29 -129.999zM292.001 107.003
c27.333 0 49.333 7.33398 66 22.001s25 36.667 25 66v23l-88 -16c-42.667 -6.66699 -64 -23.334 -64 -50.001c0 -30 20.333 -45 61 -45z" />
    <glyph glyph-name="b" unicode="b" horiz-adv-x="646" 
d="M403 534c64 0 116.333 -23.999 157 -71.999c40.667 -48.667 61 -116.667 61 -204c0 -86.667 -20 -154.334 -60 -203.001c-40.667 -50 -94.667 -75 -162 -75c-66 0 -117.667 25 -155 75l-6 -55h-188v712h202v-242c42.667 42.667 93 64 151 64zM337 144.001
c52 0 78 39 78 117c0 78.667 -26 118 -78 118c-26.667 0 -47.834 -10.833 -63.501 -32.5s-23.5 -50.167 -23.5 -85.5c0 -36 7.83301 -64.5 23.5 -85.5s36.834 -31.5 63.501 -31.5z" />
    <glyph glyph-name="c" unicode="c" horiz-adv-x="612" 
d="M315 -20c-90 0 -160.667 25.333 -212 76c-52 50 -78 117 -78 201c0 83.333 26 150.666 78 201.999c52 50 122.667 75 212 75c76.667 0 140.334 -19.667 191.001 -59c49.333 -39.333 77 -91 83 -155l-199 -10c-2.66699 56 -27 84 -73 84c-57.333 0 -86 -45.667 -86 -137
s28.667 -137 86 -137c22.667 0 39.667 6.83301 51 20.5s18.333 35.834 21 66.501l199 -10c-8 -66 -36.333 -118.333 -85 -157c-48.667 -40 -111.334 -60 -188.001 -60z" />
    <glyph glyph-name="d" unicode="d" horiz-adv-x="646" 
d="M394 470v241.999h202v-712h-188l-6 55c-37.333 -50 -89 -75 -155 -75c-67.333 0 -121 25 -161 75c-40.667 48.667 -61 116.334 -61 203.001s20.667 154.667 62 204c40.667 48 92.667 72 156 72c58 0 108.333 -21.333 151 -64zM309 143.999
c26.667 0 47.834 10.5 63.501 31.5s23.5 49.5 23.5 85.5c0 35.333 -7.83301 63.833 -23.5 85.5s-36.834 32.5 -63.501 32.5c-52 0 -78 -39.333 -78 -118c0 -78 26 -117 78 -117z" />
    <glyph glyph-name="e" unicode="e" horiz-adv-x="624" 
d="M599 237l-0.00195312 -28.999h-377c8.66699 -58.667 40.334 -88 95.001 -88c38.667 0 65.667 14.667 81 44l189 -12c-18.667 -54.667 -51.5 -97 -98.5 -127s-104.833 -45 -173.5 -45c-90 0 -160.667 25.333 -212 76c-52 50 -78 117 -78 201
c0 82.667 26.667 149.667 80 201c52.667 50.667 122 76 208 76c61.333 0 114.333 -14.333 159 -43s77.334 -65.667 98.001 -111c19.333 -44.667 29 -92.334 29 -143.001zM310.998 394.001c-46.667 0 -75.667 -25.667 -87 -77h171c-7.33301 51.333 -35.333 77 -84 77z" />
    <glyph glyph-name="f" unicode="f" horiz-adv-x="423" 
d="M403 581l-56 -0.000976562c-18 0 -30.5 -3.33301 -37.5 -10s-10.5 -18 -10.5 -34v-23l104 2v-124l-104 2v-394h-202v394l-82 -2v124l82 -2v22c0 52.667 14.667 95.334 44 128.001c28.667 32 82.667 48 162 48h100v-131z" />
    <glyph glyph-name="g" unicode="g" horiz-adv-x="646" 
d="M401 466l7 49.999h188v-482c0 -78.667 -25.833 -140 -77.5 -184s-124.5 -66 -218.5 -66c-147.333 0 -234.666 55.667 -261.999 167l192 17c13.333 -29.333 39.666 -44 78.999 -44c30 0 51.667 6.33301 65 19s20 32 20 58v68c-36.667 -40.667 -85.667 -61 -147 -61
c-67.333 0 -121 23.667 -161 71c-40.667 46.667 -61 111 -61 193c0 82.667 20.667 147.334 62 194.001c41.333 45.333 93.333 68 156 68c62 0 114.667 -22.667 158 -68zM309 163.999c26.667 0 47.834 10 63.501 30s23.5 47 23.5 81c0 33.333 -7.83301 60.333 -23.5 81
s-36.834 31 -63.501 31c-52 0 -78 -37.333 -78 -112c0 -74 26 -111 78 -111z" />
    <glyph glyph-name="h" unicode="h" horiz-adv-x="648" 
d="M403 531c62 0 110 -16.668 144 -50.001s51 -80.666 51 -141.999v-339h-202v290c0 24 -5.83301 42.667 -17.5 56s-27.834 20 -48.501 20c-23.333 0 -42.166 -8.5 -56.499 -25.5s-21.5 -39.167 -21.5 -66.5v-274h-202v712h202v-248c38 44.667 88.333 67 151 67z" />
    <glyph glyph-name="i" unicode="i" horiz-adv-x="302" 
d="M252 581h-202v131h202v-131zM252 0h-202v516h202v-516z" />
    <glyph glyph-name="j" unicode="j" horiz-adv-x="302" 
d="M252 581h-202v131h202v-131zM30 -215h-68v143h35c35.333 0 53 19 53 57v531h202v-531c0 -69.333 -18 -120 -54 -152s-92 -48 -168 -48z" />
    <glyph glyph-name="k" unicode="k" horiz-adv-x="651" 
d="M631 0h-240l-109 186l-30 -30v-156h-202v712h202v-344l123 148h239l-198 -206z" />
    <glyph glyph-name="l" unicode="l" horiz-adv-x="302" 
d="M252 0h-202v712h202v-712z" />
    <glyph glyph-name="m" unicode="m" horiz-adv-x="966" 
d="M718 534c60.667 0 108.835 -17.332 144.502 -51.999s53.5 -83.334 53.5 -146.001v-336h-202v300c0 24 -5.33301 42.333 -16 55s-25.334 19 -44.001 19c-20.667 0 -37.5 -7.33301 -50.5 -22s-19.5 -33.667 -19.5 -57v-295h-202v300c0 24 -5.33301 42.333 -16 55
s-25.334 19 -44.001 19c-20.667 0 -37.5 -7.33301 -50.5 -22s-19.5 -33.667 -19.5 -57v-295h-202v516h185l7 -65c36 55.333 86.667 83 152 83c70 0 122 -27.667 156 -83c41.333 55.333 97.333 83 168 83z" />
    <glyph glyph-name="n" unicode="n" horiz-adv-x="648" 
d="M403 531c62 0 110 -16.668 144 -50.001s51 -80.666 51 -141.999v-339h-202v290c0 24 -5.83301 42.667 -17.5 56s-27.834 20 -48.501 20c-23.333 0 -42.166 -8.5 -56.499 -25.5s-21.5 -39.167 -21.5 -66.5v-274h-202v516h185l7 -65c37.333 53.333 91 80 161 80z" />
    <glyph glyph-name="o" unicode="o" horiz-adv-x="630" 
d="M526 56c-52.667 -50.667 -123 -76 -211 -76c-87.333 0 -157.333 25.333 -210 76c-53.333 51.333 -80 118.333 -80 201s26.667 149.667 80 201c52.667 50.667 122.667 76 210 76c88 0 158.333 -25.333 211 -76s79 -117.667 79 -201s-26.333 -150.333 -79 -201zM252 153
c13.333 -22 34.333 -32.999 63 -32.999s50 11 64 33c13.333 21.333 20 56 20 104c0 47.333 -6.66699 82.333 -20 105c-14 21.333 -35.333 32 -64 32s-49.667 -10.667 -63 -32c-14 -22 -21 -57 -21 -105c0 -48.667 7 -83.334 21 -104.001z" />
    <glyph glyph-name="p" unicode="p" horiz-adv-x="646" 
d="M403 534c64 0 116.333 -23.999 157 -71.999c40.667 -48.667 61 -116.667 61 -204c0 -86.667 -20 -154.334 -60 -203.001c-40.667 -50 -94.667 -75 -162 -75c-61.333 0 -110.333 21.333 -147 64v-248h-202v720h188l6 -54c44 48 97 72 159 72zM337 144.001
c52 0 78 39 78 117c0 78.667 -26 118 -78 118c-26.667 0 -47.834 -10.833 -63.501 -32.5s-23.5 -50.167 -23.5 -85.5c0 -36 7.83301 -64.5 23.5 -85.5s36.834 -31.5 63.501 -31.5z" />
    <glyph glyph-name="q" unicode="q" horiz-adv-x="646" 
d="M402 462l6 53.999h188v-720h-202v248c-36.667 -42.667 -85.667 -64 -147 -64c-67.333 0 -121 25 -161 75c-40.667 48.667 -61 116.334 -61 203.001s20.667 154.667 62 204c40.667 48 92.667 72 156 72c62 0 115 -24 159 -72zM309 143.999
c26.667 0 47.834 10.5 63.501 31.5s23.5 49.5 23.5 85.5c0 35.333 -7.83301 63.833 -23.5 85.5s-36.834 32.5 -63.501 32.5c-52 0 -78 -39.333 -78 -118c0 -78 26 -117 78 -117z" />
    <glyph glyph-name="r" unicode="r" horiz-adv-x="465" 
d="M387 534c17.333 0 34.999 -2.33301 52.999 -7v-174c-16 2 -31.333 3 -46 3c-94.667 0 -142 -42 -142 -126v-230h-202v516h188l6 -72c30.667 60 78.334 90 143.001 90z" />
    <glyph glyph-name="s" unicode="s" horiz-adv-x="606" 
d="M301 -20c-79.333 0 -141.833 16 -187.5 48s-71.834 76.667 -78.501 134h190c6 -40.667 34 -61 84 -61c23.333 0 41.5 4.66699 54.5 14s19.5 22 19.5 38c0 26.667 -19 42 -57 46l-78 7c-134.667 12 -202 63.667 -202 155c0 55.333 22.167 98 66.5 128s106.833 45 187.5 45
c153.333 0 238.333 -54.333 255 -163h-184c-6 34 -32 51 -78 51c-44 0 -66 -14.333 -66 -43c0 -26 19.667 -41 59 -45l77 -8c138.667 -14.667 208 -68.667 208 -162c0 -60 -23.667 -105.667 -71 -137s-113.666 -47 -198.999 -47z" />
    <glyph glyph-name="t" unicode="t" horiz-adv-x="431" 
d="M391 396l-95 2v-191c0 -37.333 16.667 -56 50 -56h45v-151h-117c-68 0 -115 13 -141 39s-39 73 -39 141v218l-79 -2v120l79 -2v158h202v-158l95 2v-120z" />
    <glyph glyph-name="u" unicode="u" horiz-adv-x="648" 
d="M396 242v274.001h202v-516h-185l-7 65c-37.333 -53.333 -91 -80 -161 -80c-62 0 -110 16.667 -144 50s-51 80.666 -51 141.999v339h202v-290c0 -24 5.83301 -42.667 17.5 -56s27.834 -20 48.501 -20c23.333 0 42.166 8.5 56.499 25.5s21.5 39.167 21.5 66.5z" />
    <glyph glyph-name="v" unicode="v" horiz-adv-x="598" 
d="M350 379l42 137h201l-173 -516h-233l-182 516h212l42 -137l46 -183z" />
    <glyph glyph-name="w" unicode="w" horiz-adv-x="893" 
d="M633 293l63 223h192l-170 -516h-196l-67 249l-8 37l-9 -38l-67 -248h-196l-170 516h204l64 -225l15 -69l14 68l54 226h177l58 -221l20 -89z" />
    <glyph glyph-name="x" unicode="x" horiz-adv-x="600" 
d="M410 270l185 -270h-224l-69 123l-68 -123h-229l186 270l-163 246h220l54 -102l54 102h223z" />
    <glyph glyph-name="y" unicode="y" horiz-adv-x="604" 
d="M302 204l85.999 311.999h211l-205 -588c-16.667 -47.333 -40.167 -81.166 -70.5 -101.499s-72.166 -30.5 -125.499 -30.5h-118v159h71c28.667 0 47.667 11.667 57 35l5 13l-208 513h215l62 -206z" />
    <glyph glyph-name="z" unicode="z" horiz-adv-x="551" 
d="M509 373l-229 -218h246v-155h-501v147l225 214h-207v155h466v-143z" />
    <glyph glyph-name="braceleft" unicode="{" horiz-adv-x="500" 
d="M470 -204l-144 -0.00195312c-56.667 0 -98 11.333 -124 34s-39 58.667 -39 108v130c0 42 -9.66699 71.333 -29 88s-54 25.667 -104 27v178c50 0 84.667 8.5 104 25.5s29 47.167 29 90.5v129c0 48.667 13 84.334 39 107.001s67.333 34 124 34h144v-178h-40
c-24.667 0 -41.667 -4.5 -51 -13.5s-14 -25.167 -14 -48.5v-70c0 -49.333 -13 -88 -39 -116s-63 -44.333 -111 -49v-2c48 -4.66699 85 -20 111 -46s39 -61.667 39 -107v-80c0 -23.333 5 -39.666 15 -48.999s27.333 -14 52 -14h38v-178z" />
    <glyph glyph-name="bar" unicode="|" horiz-adv-x="323" 
d="M263 -204h-203v951h203v-951z" />
    <glyph glyph-name="braceright" unicode="}" horiz-adv-x="484" 
d="M158 -204l-128 0.000976562v171h38c25.333 0 42.833 4.83301 52.5 14.5s14.5 27.167 14.5 52.5v97c0 96 56.667 151.667 170 167v2c-113.333 15.333 -170 75.333 -170 180v87c0 24.667 -4.66699 41.667 -14 51s-26.333 14 -51 14h-40v171h128c56.667 0 98 -12 124 -36
s39 -62 39 -114v-146c0 -46 9.66699 -77.833 29 -95.5s54 -26.5 104 -26.5v-171c-50 -1.33301 -84.667 -10.833 -104 -28.5s-29 -48.834 -29 -93.501v-146c0 -52 -13 -90 -39 -114s-67.333 -36 -124 -36z" />
    <glyph glyph-name="asciitilde" unicode="~" 
d="M242 238l-159 0.000976562c0 70 14.333 124 43 162s71.667 57 129 57c27.333 0 55.666 -5.33301 84.999 -16s55.333 -21.334 78 -32.001s39.334 -16 50.001 -16c30 0 45 21.333 45 64h159c0 -70 -14.333 -124 -43 -162s-71.667 -57 -129 -57c-36 0 -78 10.667 -126 32
s-77 32 -87 32c-30 0 -45 -21.333 -45 -64z" />
    <glyph glyph-name="uni00A0" unicode="&#xa0;" horiz-adv-x="262" 
 />
    <glyph glyph-name="exclamdown" unicode="&#xa1;" horiz-adv-x="322" 
d="M262 333h-202v183h202v-183zM262 -196h-202v195l53 261h96l53 -261v-195z" />
    <glyph glyph-name="cent" unicode="&#xa2;" 
d="M388 120c22.667 0 39.666 6.83105 50.999 20.498s18.333 35.834 21 66.501l199 -10c-6.66699 -54 -27.667 -99.667 -63 -137s-81.333 -61.666 -138 -72.999v-131h-140v130c-69.333 12 -123.666 42 -162.999 90s-59 108.333 -59 181s19.667 133 59 181
s93.666 78 162.999 90v138h140v-139c58 -11.333 104.833 -35.5 140.5 -72.5s56.167 -81.833 61.5 -134.5l-199 -10c-3.33301 56 -27.666 84 -72.999 84c-57.333 0 -86 -45.667 -86 -137s28.667 -137 86 -137z" />
    <glyph glyph-name="sterling" unicode="&#xa3;" 
d="M439 135h249v-135h-620v135h74c61.333 0 108.166 8.83301 140.499 26.5s48.5 40.167 48.5 67.5c0 11.333 -3 22 -9 32l-254 -6v135l144 -7c-68 32.667 -102 84 -102 154c0 58 23 104.333 69 139s111.667 52 197 52c94 0 166.5 -20.667 217.5 -62s77.5 -98 79.5 -170h-189
c-2.66699 54 -33.667 81 -93 81c-56.667 0 -85 -23.333 -85 -70c0 -19.333 7.83301 -38.333 23.5 -57s43.834 -40.334 84.501 -65.001l223 5v-135l-132 7c2.66699 -7.33301 4 -16.333 4 -27c0 -41.333 -23.333 -74.666 -70 -99.999z" />
    <glyph glyph-name="currency" unicode="&#xa4;" 
d="M713 595l-114 -107c20 -38 30 -79.667 30 -125s-10 -87 -30 -125l114 -108l-103 -103l-108 114c-38 -20 -79.667 -30 -125 -30s-87 10 -125 30l-107 -114l-103 103l114 107c-20 38.667 -30 80.667 -30 126s10 87 30 125l-114 107l103 103l107 -114
c38 20 79.667 30 125 30s87 -10 125 -30l108 114zM297 279c20.667 -22 47.667 -33 81 -33s60.333 11 81 33c20.667 21.333 31 49.333 31 84c0 33.333 -10.5 61 -31.5 83s-47.833 33 -80.5 33s-59.667 -11 -81 -33s-32 -49.667 -32 -83s10.667 -61.333 32 -84z" />
    <glyph glyph-name="yen" unicode="&#xa5;" 
d="M503 712h248l-197 -342h108v-110h-172v-73h172v-110h-172v-77h-224v77h-171v110h171v73h-171v110h107l-197 342h250l91 -189l31 -81l31 81z" />
    <glyph glyph-name="brokenbar" unicode="&#xa6;" horiz-adv-x="323" 
d="M263 411h-203v336h203v-336zM263 -204h-203v336h203v-336z" />
    <glyph glyph-name="section" unicode="&#xa7;" horiz-adv-x="685" 
d="M551 177c35.333 -29.333 53 -69.665 53 -120.998c0 -59.333 -22.5 -105.5 -67.5 -138.5s-109.833 -49.5 -194.5 -49.5c-78.667 0 -139.834 14.667 -183.501 44s-68.167 71.666 -73.5 126.999h185c6.66699 -34 32.667 -51 78 -51s68 16.333 68 49c0 26 -18 43.333 -54 52
l-157 38c-106.667 26 -160 80.667 -160 164c0 62 30.333 109 91 141c-36.667 30.667 -55 71.334 -55 122.001c0 57.333 23.5 102.833 70.5 136.5s111.833 50.5 194.5 50.5c76 0 136 -14.833 180 -44.5s68.667 -71.834 74 -126.501h-185c-7.33301 34 -33.666 51 -78.999 51
c-44.667 0 -67 -16.333 -67 -49c0 -26 18.333 -43.333 55 -52l156 -39c106.667 -26.667 160 -81.334 160 -164.001c0 -62 -29.667 -108.667 -89 -140zM295 264.001l114 -29c28.667 8 43 25 43 51c0 29.333 -21 49 -63 59l-111 28c-30.667 -8.66699 -46 -25.667 -46 -51
c0 -28.667 21 -48 63 -58z" />
    <glyph glyph-name="dieresis" unicode="&#xa8;" horiz-adv-x="500" 
d="M198 580h-195v132h195v-132zM497 580h-195v132h195v-132z" />
    <glyph glyph-name="copyright" unicode="&#xa9;" horiz-adv-x="861" 
d="M430 -22c-111.333 0 -203.332 36.333 -275.999 109c-72.667 72 -109 163.333 -109 274s36.333 202 109 274c73.333 71.333 165.333 107 276 107c111.333 0 203.666 -35.667 276.999 -107c72.667 -72 109 -163.333 109 -274c0 -111.333 -36.333 -203 -109 -275
s-165 -108 -277 -108zM430.001 67c84 0 153.001 27.668 207.001 83.001c53.333 55.333 80 125.666 80 210.999c0 84.667 -27 154.667 -81 210c-54 54.667 -122.667 82 -206 82c-84 0 -152.333 -27.333 -205 -82c-54 -55.333 -81 -125.333 -81 -210
c0 -86 27 -156.333 81 -211c53.333 -55.333 121.666 -83 204.999 -83zM433.002 165.001c-58 0 -104.5 17.834 -139.5 53.501s-52.5 83.5 -52.5 143.5c0 60.667 17 108.5 51 143.5s81 52.5 141 52.5c46.667 0 86.167 -11 118.5 -33s54.5 -53.333 66.5 -94l-119 -25
c-12.667 34 -33.667 51 -63 51c-42 0 -63 -31.667 -63 -95c0 -62.667 21 -94 63 -94c29.333 0 50.333 18 63 54l119 -19c-10 -42.667 -31.5 -76.334 -64.5 -101.001s-73.167 -37 -120.5 -37z" />
    <glyph glyph-name="ordfeminine" unicode="&#xaa;" horiz-adv-x="554" 
d="M276 729c78 0 135.499 -13.333 172.499 -40s55.5 -68.667 55.5 -126v-225h-137l-12 50c-42.667 -35.333 -95.667 -53 -159 -53c-46 0 -81.833 9.66699 -107.5 29s-38.5 47.333 -38.5 84c0 32.667 10.833 58 32.5 76s55.834 29.667 102.501 35l156 19v15
c0 17.333 -5.5 29.833 -16.5 37.5s-28.833 11.5 -53.5 11.5c-38 0 -59.667 -12 -65 -36l-146 13c11.333 38 34.333 65.833 69 83.5s83.667 26.5 147 26.5zM210.999 463c0 -26 18.001 -39 54.001 -39c27.333 0 52.666 9.66699 75.999 29v60l-88 -11
c-28 -2.66699 -42 -15.667 -42 -39z" />
    <glyph glyph-name="guillemotleft" unicode="&#xab;" horiz-adv-x="674" 
d="M308 165v-180l-258 173v197l258 173v-179l-144 -92zM624 165v-180l-258 173v197l258 173v-179l-144 -92z" />
    <glyph glyph-name="logicalnot" unicode="&#xac;" 
d="M638 153h-146v188h-375v141h521v-329z" />
    <glyph glyph-name="uni00AD" unicode="&#xad;" horiz-adv-x="347" 
d="M319 197h-291v153h291v-153z" />
    <glyph glyph-name="registered" unicode="&#xae;" horiz-adv-x="628" 
d="M123 652c52 50 115.667 75 191 75s139 -25 191 -75c52 -50.667 78 -112.667 78 -186c0 -72.667 -26 -134 -78 -184c-51.333 -50.667 -115 -76 -191 -76s-139.667 25.333 -191 76c-52 50 -78 111.333 -78 184c0 73.333 26 135.333 78 186zM170 324
c38.667 -38 86.667 -57 144 -57s105.666 19 144.999 57c38.667 38 58 85.333 58 142c0 57.333 -19.333 105 -58 143s-87 57 -145 57c-57.333 0 -105.666 -19 -144.999 -57c-38.667 -38 -58 -85.667 -58 -143c0 -56.667 19.667 -104 59 -142zM427 402l2 -33.999
c0.666992 -14.667 4 -24.334 10 -29.001h-81c-4 7.33301 -6.33301 17 -7 29l-2 28c-0.666992 11.333 -3.16699 19 -7.5 23s-11.833 6 -22.5 6h-33v-86h-78v258h127c30.667 0 54.5 -6.83301 71.5 -20.5s25.5 -32.834 25.5 -57.501c0 -25.333 -11.667 -44.666 -35 -57.999
c18.667 -10 28.667 -29.667 30 -59zM286 534.001v-50h38c18 0 27 8.33301 27 25s-9 25 -27 25h-38z" />
    <glyph glyph-name="overscore" unicode="&#xaf;" horiz-adv-x="500" 
d="M439 614h-378v118h378v-118z" />
    <glyph glyph-name="degree" unicode="&#xb0;" horiz-adv-x="486" 
d="M400 355c-41.333 -41.333 -93.667 -61.999 -157 -61.999c-62.667 0 -114.667 20.667 -156 62s-62 93.333 -62 156c0 63.333 20.667 115.666 62 156.999c40.667 40.667 92.667 61 156 61c64 0 116.333 -20.333 157 -61s61 -93 61 -157
c0 -63.333 -20.333 -115.333 -61 -156zM177.999 444.001c17.333 -17.333 39 -26.001 65 -26.001c27.333 0 49.333 9 66 27c17.333 17.333 26 39.333 26 66s-8.66699 48.667 -26 66s-39.333 26 -66 26c-26 0 -47.667 -8.66699 -65 -26s-26 -39.333 -26 -66
c0 -27.333 8.66699 -49.666 26 -66.999z" />
    <glyph glyph-name="plusminus" unicode="&#xb1;" 
d="M453 612v-141h203v-142h-203v-141h-151v141h-203v142h203v141h151zM655 -15h-556v142h556v-142z" />
    <glyph glyph-name="two.sups" unicode="&#xb2;" horiz-adv-x="510" 
d="M460 338l-410 0.000976562c0 105.333 45.667 172.666 137 201.999l89 29c38 12 57 30.333 57 55c0 30.667 -23.333 46 -70 46c-47.333 0 -75.333 -18 -84 -54l-117 17c17.333 94 84 141 200 141c60 0 107 -12.5 141 -37.5s51 -60.5 51 -106.5
c0 -71.333 -43.333 -118 -130 -140l-73 -19c-28 -6.66699 -43.667 -16.667 -47 -30h256v-103z" />
    <glyph glyph-name="three.sups" unicode="&#xb3;" horiz-adv-x="504" 
d="M247 330c-115.333 0 -180.999 45.667 -196.999 137l118 15c10.667 -36.667 37.667 -55 81 -55c49.333 0 74 15.667 74 47c0 28 -23.333 42 -70 42h-55v94h51c44 0 66 13 66 39c0 28.667 -23 43 -69 43c-21.333 0 -37.833 -3.66699 -49.5 -11
s-20.834 -19.666 -27.501 -36.999l-116 16c11.333 39.333 34.166 69.5 68.499 90.5s77.833 31.5 130.5 31.5c54.667 0 99 -11 133 -33s51 -51.667 51 -89c0 -40.667 -22.333 -70.334 -67 -89.001v-2c56.667 -18 85 -52.333 85 -103c0 -42.667 -18.167 -76 -54.5 -100
s-87.166 -36 -152.499 -36z" />
    <glyph glyph-name="acute" unicode="&#xb4;" horiz-adv-x="500" 
d="M256 611h-183l117 182h238z" />
    <glyph glyph-name="uni00B5" unicode="&#xb5;" horiz-adv-x="648" 
d="M252 -204h-202.001v720h202v-290c0 -24 5.83301 -42.667 17.5 -56s27.834 -20 48.501 -20c23.333 0 42.166 8.5 56.499 25.5s21.5 39.167 21.5 66.5v274h202v-516h-185l-7 65c-32 -49.333 -81 -74 -147 -74c-13.333 0 -31.666 1.66699 -54.999 5l-1 -3l49 -103v-94z" />
    <glyph glyph-name="paragraph" unicode="&#xb6;" horiz-adv-x="751" 
d="M437 -105h-141v407c-92 0 -159.333 16.5 -202 49.5s-64 84.833 -64 155.5s21.333 122.5 64 155.5s110 49.5 202 49.5h395v-817h-141v676h-113v-676z" />
    <glyph glyph-name="middot" unicode="&#xb7;" horiz-adv-x="347" 
d="M264 266h-181v176h181v-176z" />
    <glyph glyph-name="cedilla" unicode="&#xb8;" horiz-adv-x="500" 
d="M177 -259h-38v70h12c49.333 0 74 11.333 74 34c0 20 -14.333 30 -43 30h-18l-40 49l67 76h91l-60 -62h21c83.333 0 125 -29.667 125 -89c0 -72 -63.667 -108 -191 -108z" />
    <glyph glyph-name="one.sups" unicode="&#xb9;" horiz-adv-x="313" 
d="M263 338h-126v254h-112v94h20c32 0 55.333 5.5 70 16.5s22 28.5 22 52.5v10h126v-427z" />
    <glyph glyph-name="ordmasculine" unicode="&#xba;" horiz-adv-x="500" 
d="M415 382c-39.333 -34.667 -94.667 -52 -166 -52s-126.333 17.333 -165 52c-39.333 35.333 -59 83.333 -59 144c0 62 19.667 110.5 59 145.5s94.333 52.5 165 52.5s126 -17.5 166 -52.5s60 -83.5 60 -145.5c0 -61.333 -20 -109.333 -60 -144zM248.999 435
c46 0 69 30.333 69 91c0 62.667 -23 94 -69 94c-44.667 0 -67 -31.333 -67 -94c0 -60.667 22.333 -91 67 -91z" />
    <glyph glyph-name="guillemotright" unicode="&#xbb;" horiz-adv-x="673" 
d="M308 158l-258 -173v180l144 92l-144 92v179l258 -173v-197zM623 158l-258 -173v180l144 92l-144 92v179l258 -173v-197z" />
    <glyph glyph-name="onequarter" unicode="&#xbc;" horiz-adv-x="1179" 
d="M377 -15h-140l492 742h138zM298 285h-126v254h-112v94h20c32 0 55.333 5.5 70 16.5s22 28.5 22 52.5v10h126v-427zM1046 0h-123v96l-232 -10v101l209 240h146v-251l73 11v-101l-73 10v-96zM921 307l-111 -124l113 -7v131h-2z" />
    <glyph glyph-name="onehalf" unicode="&#xbd;" horiz-adv-x="1201" 
d="M377 -15h-140l492 742h138zM298 285h-126v254h-112v94h20c32 0 55.333 5.5 70 16.5s22 28.5 22 52.5v10h126v-427zM1141 0l-410.001 0.000976562c0 105.333 45.667 172.666 137 201.999l89 29c38 12 57 30.333 57 55c0 30.667 -23.333 46 -70 46s-74.667 -18 -84 -54
l-117 17c16.667 94 83.334 141 200.001 141c60 0 107 -12.5 141 -37.5s51 -60.5 51 -106.5c0 -71.333 -43.333 -118 -130 -140l-73 -19c-28 -6.66699 -43.667 -16.667 -47 -30h256v-103z" />
    <glyph glyph-name="threequarters" unicode="&#xbe;" horiz-adv-x="1272" 
d="M247 277c-115.333 0 -180.999 45.667 -196.999 137l118 15c10.667 -36.667 37.667 -55 81 -55c49.333 0 74 15.667 74 47c0 28 -23.333 42 -70 42h-55v94h51c44 0 66 13 66 39c0 28.667 -23 43 -69 43c-21.333 0 -37.833 -3.66699 -49.5 -11
s-20.834 -19.666 -27.501 -36.999l-116 16c11.333 39.333 34.166 69.5 68.499 90.5s77.833 31.5 130.5 31.5c54.667 0 99 -11 133 -33s51 -51.667 51 -89c0 -40.667 -22.333 -70.334 -67 -89.001v-2c56.667 -18 85 -52.333 85 -103c0 -42.667 -18.167 -76 -54.5 -100
s-87.166 -36 -152.499 -36zM480.001 -15h-140l492 742h138zM1149 0h-123v96l-232 -10v101l209 240h146v-251l73 11v-101l-73 10v-96zM1024 307l-111 -124l113 -7v131h-2z" />
    <glyph glyph-name="questiondown" unicode="&#xbf;" horiz-adv-x="690" 
d="M475 342h-202v174h202v-174zM348 -204c-98.667 0 -173.832 18.3301 -225.499 54.9971s-77.5 88.334 -77.5 155.001c0 88.667 44.333 150.334 133 185.001l31 12c24.667 10 41.5 20.167 50.5 30.5s13.5 25.5 13.5 45.5v6h202v-24
c0 -53.333 -11.167 -94.666 -33.5 -123.999s-60.833 -51 -115.5 -65c-28.667 -8 -48.334 -15.833 -59.001 -23.5s-16 -19.167 -16 -34.5c0 -36 32.667 -54 98 -54c34.667 0 60 4.83301 76 14.5s25.667 26.5 29 50.5h200c-8.66699 -152.667 -110.667 -229 -306 -229z" />
    <glyph glyph-name="Agrave" unicode="&#xc0;" horiz-adv-x="786" 
d="M384 989l117 -182h-183l-172 182h238zM771 0h-235l-32 97h-223l-32 -97h-234l268 712h222zM366 355l-35 -107h124l-35 107l-27 93z" />
    <glyph glyph-name="Aacute" unicode="&#xc1;" horiz-adv-x="786" 
d="M412 989h238l-172 -182h-183zM771 0h-235l-32 97h-223l-32 -97h-234l268 712h222zM366 355l-35 -107h124l-35 107l-27 93z" />
    <glyph glyph-name="Acircumflex" unicode="&#xc2;" horiz-adv-x="786" 
d="M484 802l-86 96l-85 -96h-164l159 179h181l159 -179h-164zM771 0h-235l-32 97h-223l-32 -97h-234l268 712h222zM366 355l-35 -107h124l-35 107l-27 93z" />
    <glyph glyph-name="Atilde" unicode="&#xc3;" horiz-adv-x="786" 
d="M322 861c-27.333 0 -40.998 -21.334 -40.998 -64.001h-126c0 61.333 12 109.333 36 144s59.333 52 106 52c24.667 0.666992 49 -5.33301 73 -18s44.667 -25.167 62 -37.5s30.333 -18.166 39 -17.499c27.333 0 41 21.333 41 64h126c0 -60.667 -12.333 -108.5 -37 -143.5
s-60.334 -52.5 -107.001 -52.5c-22 0 -42.333 3.83301 -61 11.5s-33.334 16 -44.001 25s-22 17.333 -34 25s-23 11.5 -33 11.5zM771.002 -0.000976562h-235l-32 97h-223l-32 -97h-234l268 712h222zM366.002 354.999l-35 -107h124l-35 107l-27 93z" />
    <glyph glyph-name="Adieresis" unicode="&#xc4;" horiz-adv-x="786" 
d="M151 959h195v-143h-195v143zM450 959h195v-143h-195v143zM771 0h-235l-32 97h-223l-32 -97h-234l268 712h222zM366 355l-35 -107h124l-35 107l-27 93z" />
    <glyph glyph-name="Aring" unicode="&#xc5;" horiz-adv-x="786" 
d="M771 0h-235l-32 97h-223l-32 -97h-234l259 687c-18 24.667 -27 54 -27 88c0 44 14.333 80.333 43 109c29.333 28 65.333 42 108 42s78.667 -14 108 -42c28.667 -28.667 43 -65 43 -109c0 -36 -10.667 -67.667 -32 -95zM443 822c-18 19.333 -41 23.499 -69 12.499
s-40.667 -30.833 -38 -59.5c0 -18.667 5.83301 -33.834 17.5 -45.501s26.5 -17.5 44.5 -17.5s32.833 5.83301 44.5 17.5s17.5 26.834 17.5 45.501s-5.66699 34.334 -17 47.001zM366 354.999l-35 -107h124l-35 107l-27 93z" />
    <glyph glyph-name="AE" unicode="&#xc6;" horiz-adv-x="1207" 
d="M775 271v-81h392v-190h-616v131h-237l-64 -131h-235l355 712h787v-185h-382v-81h327v-175h-327zM507 527l-110 -226h154v226h-44z" />
    <glyph glyph-name="Ccedilla" unicode="&#xc7;" horiz-adv-x="772" 
d="M517 277l222.999 -0.000976562c-7.33301 -85.333 -37.666 -154.333 -90.999 -207c-56 -54 -125.667 -84.333 -209 -91l-49 -51h21c83.333 0 125 -29.667 125 -89c0 -72 -63.667 -108 -191 -108h-38v70h12c49.333 0 74 11.333 74 34c0 20 -14.333 30 -43 30h-18l-40 49
l58 66c-92.667 11.333 -166.667 50 -222 116c-56 66.667 -84 152.334 -84 257.001c0 114.667 33 206 99 274s151.333 102 256 102c92.667 0 169.667 -25.667 231 -77c60 -50.667 95.667 -120.667 107 -210h-221c-10 72.667 -48.333 109 -115 109
c-42.667 0 -75.5 -16.667 -98.5 -50s-34.5 -82 -34.5 -146c0 -133.333 44.333 -200 133 -200c68.667 0 107 40.667 115 122z" />
    <glyph glyph-name="Egrave" unicode="&#xc8;" horiz-adv-x="716" 
d="M347 989l117 -182h-183l-172 182h238zM284 271v-81h392v-190h-616v712h606v-185h-382v-81h327v-175h-327z" />
    <glyph glyph-name="Eacute" unicode="&#xc9;" horiz-adv-x="716" 
d="M375 989h238l-172 -182h-183zM284 271v-81h392v-190h-616v712h606v-185h-382v-81h327v-175h-327z" />
    <glyph glyph-name="Ecircumflex" unicode="&#xca;" horiz-adv-x="716" 
d="M447 802l-86 96l-85 -96h-164l159 179h181l159 -179h-164zM284 271v-81h392v-190h-616v712h606v-185h-382v-81h327v-175h-327z" />
    <glyph glyph-name="Edieresis" unicode="&#xcb;" horiz-adv-x="716" 
d="M114 959h195v-143h-195v143zM413 959h195v-143h-195v143zM284 271v-81h392v-190h-616v712h606v-185h-382v-81h327v-175h-327z" />
    <glyph glyph-name="Igrave" unicode="&#xcc;" horiz-adv-x="344" 
d="M275 807h-183l-172 182h238zM284 0h-224v712h224v-712z" />
    <glyph glyph-name="Iacute" unicode="&#xcd;" horiz-adv-x="344" 
d="M252 807h-183l117 182h238zM284 0h-224v712h224v-712z" />
    <glyph glyph-name="Icircumflex" unicode="&#xce;" horiz-adv-x="344" 
d="M87 802h-164l159 179h181l159 -179h-164l-86 96zM284 0h-224v712h224v-712z" />
    <glyph glyph-name="Idieresis" unicode="&#xcf;" horiz-adv-x="344" 
d="M120 816h-195v143h195v-143zM419 816h-195v143h195v-143zM284 0h-224v712h224v-712z" />
    <glyph glyph-name="Eth" unicode="&#xd0;" horiz-adv-x="873" 
d="M155 712l335 0.000976562c108 0 192 -31 252 -93s90 -149.667 90 -263c0 -108.667 -27.667 -195.334 -83 -260.001c-56 -64 -139 -96 -249 -96h-345v292l-140 -6v141l140 -6v291zM379 187.001h75c48 0 85.667 15 113 45s41 71.333 41 124s-13.667 94 -41 124
s-65 45 -113 45h-75v-103l109 5v-141l-109 5v-104z" />
    <glyph glyph-name="Ntilde" unicode="&#xd1;" horiz-adv-x="781" 
d="M324 861c-27.333 0 -40.998 -21.334 -40.998 -64.001h-126c0 61.333 12 109.333 36 144s59.333 52 106 52c24.667 0.666992 49 -5.33301 73 -18s44.667 -25.167 62 -37.5s30.333 -18.166 39 -17.499c27.333 0 41 21.333 41 64h126c0 -60.667 -12.333 -108.5 -37 -143.5
s-60.334 -52.5 -107.001 -52.5c-22 0 -42.333 3.83301 -61 11.5s-33.334 16 -44.001 25s-22 17.333 -34 25s-23 11.5 -33 11.5zM501.002 341.999v370h220v-712h-227l-214 366v-366h-220v712h222z" />
    <glyph glyph-name="Ograve" unicode="&#xd2;" horiz-adv-x="820" 
d="M510 807h-183l-172 182h238zM675 79c-67.333 -68 -155.666 -102.002 -264.999 -102.002s-197.333 34 -264 102c-67.333 68.667 -101 160 -101 274s33.667 205.333 101 274c66.667 68 154.667 102 264 102s197.666 -34 264.999 -102
c66.667 -67.333 100 -158.666 100 -273.999s-33.333 -206.666 -100 -273.999zM306 205.998c24 -34 58.665 -50.999 103.998 -50.999s80.333 17 105 51c24 33.333 36 82.666 36 147.999c0 64 -12.167 112.833 -36.5 146.5s-59.166 50.5 -104.499 50.5
s-80.166 -16.833 -104.499 -50.5s-36.5 -82.5 -36.5 -146.5c0 -66 12.333 -115.333 37 -148z" />
    <glyph glyph-name="Oacute" unicode="&#xd3;" horiz-adv-x="820" 
d="M487 807h-183l117 182h238zM675 79c-67.333 -68 -155.666 -102.002 -264.999 -102.002s-197.333 34 -264 102c-67.333 68.667 -101 160 -101 274s33.667 205.333 101 274c66.667 68 154.667 102 264 102s197.666 -34 264.999 -102
c66.667 -67.333 100 -158.666 100 -273.999s-33.333 -206.666 -100 -273.999zM306 205.998c24 -34 58.665 -50.999 103.998 -50.999s80.333 17 105 51c24 33.333 36 82.666 36 147.999c0 64 -12.167 112.833 -36.5 146.5s-59.166 50.5 -104.499 50.5
s-80.166 -16.833 -104.499 -50.5s-36.5 -82.5 -36.5 -146.5c0 -66 12.333 -115.333 37 -148z" />
    <glyph glyph-name="Ocircumflex" unicode="&#xd4;" horiz-adv-x="820" 
d="M322 802h-164l159 179h181l159 -179h-164l-86 96zM675 79c-67.333 -68 -155.666 -102.002 -264.999 -102.002s-197.333 34 -264 102c-67.333 68.667 -101 160 -101 274s33.667 205.333 101 274c66.667 68 154.667 102 264 102s197.666 -34 264.999 -102
c66.667 -67.333 100 -158.666 100 -273.999s-33.333 -206.666 -100 -273.999zM306 205.998c24 -34 58.665 -50.999 103.998 -50.999s80.333 17 105 51c24 33.333 36 82.666 36 147.999c0 64 -12.167 112.833 -36.5 146.5s-59.166 50.5 -104.499 50.5
s-80.166 -16.833 -104.499 -50.5s-36.5 -82.5 -36.5 -146.5c0 -66 12.333 -115.333 37 -148z" />
    <glyph glyph-name="Otilde" unicode="&#xd5;" horiz-adv-x="820" 
d="M290 797l-125.998 -0.000976562c0 61.333 12 109.333 36 144s59.333 52 106 52c24.667 0.666992 49 -5.33301 73 -18s44.667 -25.167 62 -37.5s30.333 -18.166 39 -17.499c27.333 0 41 21.333 41 64h126c0 -60.667 -12.333 -108.5 -37 -143.5
s-60.334 -52.5 -107.001 -52.5c-22 0 -42.333 3.83301 -61 11.5s-33.334 16 -44.001 25s-22 17.333 -34 25s-23 11.5 -33 11.5c-27.333 0 -41 -21.333 -41 -64zM675.002 78.999c-67.333 -68 -155.666 -102.002 -264.999 -102.002s-197.333 34 -264 102
c-67.333 68.667 -101 160 -101 274s33.667 205.333 101 274c66.667 68 154.667 102 264 102s197.666 -34 264.999 -102c66.667 -67.333 100 -158.666 100 -273.999s-33.333 -206.666 -100 -273.999zM306.002 205.997c24 -34 58.665 -50.999 103.998 -50.999
s80.333 17 105 51c24 33.333 36 82.666 36 147.999c0 64 -12.167 112.833 -36.5 146.5s-59.166 50.5 -104.499 50.5s-80.166 -16.833 -104.499 -50.5s-36.5 -82.5 -36.5 -146.5c0 -66 12.333 -115.333 37 -148z" />
    <glyph glyph-name="Odieresis" unicode="&#xd6;" horiz-adv-x="820" 
d="M355 816h-195v143h195v-143zM654 816h-195v143h195v-143zM675 79c-67.333 -68 -155.666 -102.002 -264.999 -102.002s-197.333 34 -264 102c-67.333 68.667 -101 160 -101 274s33.667 205.333 101 274c66.667 68 154.667 102 264 102s197.666 -34 264.999 -102
c66.667 -67.333 100 -158.666 100 -273.999s-33.333 -206.666 -100 -273.999zM306 205.998c24 -34 58.665 -50.999 103.998 -50.999s80.333 17 105 51c24 33.333 36 82.666 36 147.999c0 64 -12.167 112.833 -36.5 146.5s-59.166 50.5 -104.499 50.5
s-80.166 -16.833 -104.499 -50.5s-36.5 -82.5 -36.5 -146.5c0 -66 12.333 -115.333 37 -148z" />
    <glyph glyph-name="multiply" unicode="&#xd7;" 
d="M378 228l-177 -177l-95 95l177 178l-177 176l95 95l177 -176l177 176l95 -95l-176 -176l176 -178l-95 -95z" />
    <glyph glyph-name="Oslash" unicode="&#xd8;" horiz-adv-x="820" 
d="M739 715l-65.001 -87.001c67.333 -69.333 101 -161 101 -275c0 -115.333 -33.333 -206.666 -100 -273.999c-67.333 -68 -155.666 -102 -264.999 -102c-72 0 -134.667 14.667 -188 44l-65 -87l-75 57l65 87c-68 68 -102 159.667 -102 275c0 114 33.667 205.333 101 274
c66.667 68 154.667 102 264 102c70 0 133 -15 189 -45l65 88zM268.999 353.999c0 -37.333 3.99902 -69.333 11.999 -96l203 272c-21.333 14 -46 21 -74 21c-45.333 0 -80.166 -16.833 -104.499 -50.5s-36.5 -82.5 -36.5 -146.5zM409.998 154.999
c46 0 81.001 16.833 105.001 50.5s36 83.167 36 148.5c0 36 -4 67 -12 93l-202 -272c21.333 -13.333 45.666 -20 72.999 -20z" />
    <glyph glyph-name="Ugrave" unicode="&#xd9;" horiz-adv-x="786" 
d="M496 807h-183l-172 182h238zM642 52c-57.333 -50 -140.333 -75.001 -249 -75.001c-109.333 0 -192 25 -248 75c-56.667 48.667 -85 121 -85 217v443h224v-443c0 -76 36.333 -114 109 -114s109 38 109 114v443h224v-443c0 -95.333 -28 -167.666 -84 -216.999z" />
    <glyph glyph-name="Uacute" unicode="&#xda;" horiz-adv-x="786" 
d="M473 807h-183l117 182h238zM642 52c-57.333 -50 -140.333 -75.001 -249 -75.001c-109.333 0 -192 25 -248 75c-56.667 48.667 -85 121 -85 217v443h224v-443c0 -76 36.333 -114 109 -114s109 38 109 114v443h224v-443c0 -95.333 -28 -167.666 -84 -216.999z" />
    <glyph glyph-name="Ucircumflex" unicode="&#xdb;" horiz-adv-x="786" 
d="M308 802h-164l159 179h181l159 -179h-164l-86 96zM642 52c-57.333 -50 -140.333 -75.001 -249 -75.001c-109.333 0 -192 25 -248 75c-56.667 48.667 -85 121 -85 217v443h224v-443c0 -76 36.333 -114 109 -114s109 38 109 114v443h224v-443
c0 -95.333 -28 -167.666 -84 -216.999z" />
    <glyph glyph-name="Udieresis" unicode="&#xdc;" horiz-adv-x="786" 
d="M341 816h-195v143h195v-143zM640 816h-195v143h195v-143zM642 52c-57.333 -50 -140.333 -75.001 -249 -75.001c-109.333 0 -192 25 -248 75c-56.667 48.667 -85 121 -85 217v443h224v-443c0 -76 36.333 -114 109 -114s109 38 109 114v443h224v-443
c0 -95.333 -28 -167.666 -84 -216.999z" />
    <glyph glyph-name="Yacute" unicode="&#xdd;" horiz-adv-x="768" 
d="M404 989h238l-172 -182h-183zM414 523l95 189h248l-261 -452v-260h-224v260l-261 452h250l91 -189l31 -81z" />
    <glyph glyph-name="Thorn" unicode="&#xde;" horiz-adv-x="724" 
d="M284 618h146c78.667 0 142.667 -23 192 -69c48 -46 72 -105.667 72 -179s-24.333 -133 -73 -179c-48.667 -46.667 -113.667 -70 -195 -70h-142v-121h-224v712h224v-94zM284 291h99c58 0 87 25.333 87 76c0 49.333 -29 74 -87 74h-99v-150z" />
    <glyph glyph-name="germandbls" unicode="&#xdf;" horiz-adv-x="670" 
d="M252 0l-202.001 0.000976562v522c0 67.333 23.5 118.666 70.5 153.999s115.5 53 205.5 53c86 0 152.333 -16.167 199 -48.5s70 -77.833 70 -136.5c0 -80.667 -40.333 -131.334 -121 -152.001v-2c114 -17.333 171 -79.333 171 -186
c0 -65.333 -20.667 -115.666 -62 -150.999s-104 -53 -188 -53h-69v140h20c62 0 93 29.667 93 89c0 28.667 -7.16699 49.667 -21.5 63s-38.166 20 -71.499 20h-20v140h21c44 0 66 22 66 66c0 47.333 -26 71 -78 71c-55.333 0 -83 -29 -83 -87v-502z" />
    <glyph glyph-name="agrave" unicode="&#xe0;" horiz-adv-x="642" 
d="M297 793l117 -182h-183l-172 182h238zM607 0l-199.999 0.00292969c-10 21.333 -16.333 41.666 -19 60.999c-34 -54 -89.333 -81 -166 -81c-58 0 -104 14.167 -138 42.5s-51 67.166 -51 116.499c0 42 12.833 75.667 38.5 101s66.834 42.666 123.501 51.999l181 28v37
c0 30.667 -21.667 46 -65 46c-20.667 0 -36 -4.33301 -46 -13s-15.667 -23 -17 -43l-192 7c7.33301 62 31.666 107.5 72.999 136.5s104.666 43.5 189.999 43.5c87.333 0 152.333 -14.833 195 -44.5s64 -76.834 64 -141.501v-218c0 -53.333 9.66699 -96.666 29 -129.999z
M292.001 107.003c27.333 0 49.333 7.33398 66 22.001s25 36.667 25 66v23l-88 -16c-42.667 -6.66699 -64 -23.334 -64 -50.001c0 -30 20.333 -45 61 -45z" />
    <glyph glyph-name="aacute" unicode="&#xe1;" horiz-adv-x="642" 
d="M325 793h238l-172 -182h-183zM607 0l-199.999 0.00292969c-10 21.333 -16.333 41.666 -19 60.999c-34 -54 -89.333 -81 -166 -81c-58 0 -104 14.167 -138 42.5s-51 67.166 -51 116.499c0 42 12.833 75.667 38.5 101s66.834 42.666 123.501 51.999l181 28v37
c0 30.667 -21.667 46 -65 46c-20.667 0 -36 -4.33301 -46 -13s-15.667 -23 -17 -43l-192 7c7.33301 62 31.666 107.5 72.999 136.5s104.666 43.5 189.999 43.5c87.333 0 152.333 -14.833 195 -44.5s64 -76.834 64 -141.501v-218c0 -53.333 9.66699 -96.666 29 -129.999z
M292.001 107.003c27.333 0 49.333 7.33398 66 22.001s25 36.667 25 66v23l-88 -16c-42.667 -6.66699 -64 -23.334 -64 -50.001c0 -30 20.333 -45 61 -45z" />
    <glyph glyph-name="acircumflex" unicode="&#xe2;" horiz-adv-x="642" 
d="M397 606l-86 96l-85 -96h-164l159 179h181l159 -179h-164zM607 0l-199.999 0.00292969c-10 21.333 -16.333 41.666 -19 60.999c-34 -54 -89.333 -81 -166 -81c-58 0 -104 14.167 -138 42.5s-51 67.166 -51 116.499c0 42 12.833 75.667 38.5 101
s66.834 42.666 123.501 51.999l181 28v37c0 30.667 -21.667 46 -65 46c-20.667 0 -36 -4.33301 -46 -13s-15.667 -23 -17 -43l-192 7c7.33301 62 31.666 107.5 72.999 136.5s104.666 43.5 189.999 43.5c87.333 0 152.333 -14.833 195 -44.5s64 -76.834 64 -141.501v-218
c0 -53.333 9.66699 -96.666 29 -129.999zM292.001 107.003c27.333 0 49.333 7.33398 66 22.001s25 36.667 25 66v23l-88 -16c-42.667 -6.66699 -64 -23.334 -64 -50.001c0 -30 20.333 -45 61 -45z" />
    <glyph glyph-name="atilde" unicode="&#xe3;" horiz-adv-x="642" 
d="M235 665c-27.333 0 -40.998 -21.334 -40.998 -64.001h-126c0 61.333 12 109.333 36 144s59.333 52 106 52c24.667 0.666992 49 -5.33301 73 -18s44.667 -25.167 62 -37.5s30.333 -18.166 39 -17.499c27.333 0 41 21.333 41 64h126c0 -60.667 -12.333 -108.5 -37 -143.5
s-60.334 -52.5 -107.001 -52.5c-22 0 -42.333 3.83301 -61 11.5s-33.334 16 -44.001 25s-22 17.333 -34 25s-23 11.5 -33 11.5zM607.002 -0.000976562l-199.999 0.00292969c-10 21.333 -16.333 41.666 -19 60.999c-34 -54 -89.333 -81 -166 -81c-58 0 -104 14.167 -138 42.5
s-51 67.166 -51 116.499c0 42 12.833 75.667 38.5 101s66.834 42.666 123.501 51.999l181 28v37c0 30.667 -21.667 46 -65 46c-20.667 0 -36 -4.33301 -46 -13s-15.667 -23 -17 -43l-192 7c7.33301 62 31.666 107.5 72.999 136.5s104.666 43.5 189.999 43.5
c87.333 0 152.333 -14.833 195 -44.5s64 -76.834 64 -141.501v-218c0 -53.333 9.66699 -96.666 29 -129.999zM292.003 107.002c27.333 0 49.333 7.33398 66 22.001s25 36.667 25 66v23l-88 -16c-42.667 -6.66699 -64 -23.334 -64 -50.001c0 -30 20.333 -45 61 -45z" />
    <glyph glyph-name="adieresis" unicode="&#xe4;" horiz-adv-x="642" 
d="M64 712h195v-132h-195v132zM363 712h195v-132h-195v132zM607 0l-199.999 0.00292969c-10 21.333 -16.333 41.666 -19 60.999c-34 -54 -89.333 -81 -166 -81c-58 0 -104 14.167 -138 42.5s-51 67.166 -51 116.499c0 42 12.833 75.667 38.5 101
s66.834 42.666 123.501 51.999l181 28v37c0 30.667 -21.667 46 -65 46c-20.667 0 -36 -4.33301 -46 -13s-15.667 -23 -17 -43l-192 7c7.33301 62 31.666 107.5 72.999 136.5s104.666 43.5 189.999 43.5c87.333 0 152.333 -14.833 195 -44.5s64 -76.834 64 -141.501v-218
c0 -53.333 9.66699 -96.666 29 -129.999zM292.001 107.003c27.333 0 49.333 7.33398 66 22.001s25 36.667 25 66v23l-88 -16c-42.667 -6.66699 -64 -23.334 -64 -50.001c0 -30 20.333 -45 61 -45z" />
    <glyph glyph-name="aring" unicode="&#xe5;" horiz-adv-x="642" 
d="M419 624c-28.667 -28.667 -64.667 -43 -108 -43s-79.333 14.333 -108 43c-28.667 28 -43 63.333 -43 106c0 44 14.333 80.333 43 109c28.667 28 64.667 42 108 42s79.333 -14 108 -42c28.667 -28.667 43 -65 43 -109c0 -42.667 -14.333 -78 -43 -106zM356 777
c-18 18.667 -41 22.667 -69 12s-40.667 -30.334 -38 -59.001c0 -18.667 5.83301 -33.834 17.5 -45.501s26.5 -17.5 44.5 -17.5s32.833 5.83301 44.5 17.5s17.5 26.834 17.5 45.501s-5.66699 34.334 -17 47.001zM607 0l-199.999 0.00292969
c-10 21.333 -16.333 41.666 -19 60.999c-34 -54 -89.333 -81 -166 -81c-58 0 -104 14.167 -138 42.5s-51 67.166 -51 116.499c0 42 12.833 75.667 38.5 101s66.834 42.666 123.501 51.999l181 28v37c0 30.667 -21.667 46 -65 46c-20.667 0 -36 -4.33301 -46 -13
s-15.667 -23 -17 -43l-192 7c7.33301 62 31.666 107.5 72.999 136.5s104.666 43.5 189.999 43.5c87.333 0 152.333 -14.833 195 -44.5s64 -76.834 64 -141.501v-218c0 -53.333 9.66699 -96.666 29 -129.999zM292.001 107.003c27.333 0 49.333 7.33398 66 22.001
s25 36.667 25 66v23l-88 -16c-42.667 -6.66699 -64 -23.334 -64 -50.001c0 -30 20.333 -45 61 -45z" />
    <glyph glyph-name="ae" unicode="&#xe6;" horiz-adv-x="1022" 
d="M997 236l-0.000976562 -27.999h-377c8.66699 -58.667 40.334 -88 95.001 -88c38.667 0 65.667 14.667 81 44l189 -12c-19.333 -54 -52.5 -96.167 -99.5 -126.5s-103.167 -45.5 -168.5 -45.5c-106 0 -181.667 39 -227 117c-41.333 -78 -119.666 -117 -234.999 -117
c-70.667 0 -125.334 15 -164.001 45s-58 72.333 -58 127c0 103.333 77.333 155 232 155h118v40c0 20 -5.33301 34.333 -16 43s-28 13 -52 13c-22 0 -38.167 -3.83301 -48.5 -11.5s-16.5 -20.5 -18.5 -38.5l-191 7c8.66699 59.333 32.334 103.166 71.001 131.499
s96.334 42.5 173.001 42.5c108.667 0 181.667 -27.667 219 -83c49.333 55.333 116.666 83 201.999 83c89.333 0 157.666 -29 204.999 -87c46.667 -58.667 70 -129 70 -211zM708.999 394.001c-50 0 -79.667 -29.001 -89 -87.001h173
c-3.33301 30.667 -11.833 52.834 -25.5 66.501s-33.167 20.5 -58.5 20.5zM291.999 108c26.667 0 48.501 8 65.501 24s25.5 37 25.5 63v13h-78c-50.667 0 -76 -17 -76 -51c0 -15.333 5.66699 -27.333 17 -36s26.666 -13 45.999 -13z" />
    <glyph glyph-name="ccedilla" unicode="&#xe7;" horiz-adv-x="612" 
d="M317 120c22.667 0 39.665 6.83301 50.998 20.5s18.333 35.834 21 66.501l199 -10c-7.33301 -60.667 -32.5 -110.5 -75.5 -149.5s-98.167 -61.167 -165.5 -66.5l-50 -51h21c83.333 0 125 -29.667 125 -89c0 -72 -63.667 -108 -191 -108h-38v70h12
c49.333 0 74 11.333 74 34c0 20 -14.333 30 -43 30h-18l-40 49l60 68c-73.333 10.667 -130.666 40.167 -171.999 88.5s-62 109.833 -62 184.5c0 83.333 26 150.666 78 201.999c52 50 122.667 75 212 75c76.667 0 140.334 -19.667 191.001 -59c49.333 -39.333 77 -91 83 -155
l-199 -10c-2.66699 56 -27 84 -73 84c-57.333 0 -86 -45.667 -86 -137s28.667 -137 86 -137z" />
    <glyph glyph-name="egrave" unicode="&#xe8;" horiz-adv-x="624" 
d="M298 793l117 -182h-183l-172 182h238zM599 237l-0.00195312 -28.999h-377c8.66699 -58.667 40.334 -88 95.001 -88c38.667 0 65.667 14.667 81 44l189 -12c-18.667 -54.667 -51.5 -97 -98.5 -127s-104.833 -45 -173.5 -45c-90 0 -160.667 25.333 -212 76
c-52 50 -78 117 -78 201c0 82.667 26.667 149.667 80 201c52.667 50.667 122 76 208 76c61.333 0 114.333 -14.333 159 -43s77.334 -65.667 98.001 -111c19.333 -44.667 29 -92.334 29 -143.001zM310.998 394.001c-46.667 0 -75.667 -25.667 -87 -77h171
c-7.33301 51.333 -35.333 77 -84 77z" />
    <glyph glyph-name="eacute" unicode="&#xe9;" horiz-adv-x="624" 
d="M326 793h238l-172 -182h-183zM599 237l-0.00195312 -28.999h-377c8.66699 -58.667 40.334 -88 95.001 -88c38.667 0 65.667 14.667 81 44l189 -12c-18.667 -54.667 -51.5 -97 -98.5 -127s-104.833 -45 -173.5 -45c-90 0 -160.667 25.333 -212 76c-52 50 -78 117 -78 201
c0 82.667 26.667 149.667 80 201c52.667 50.667 122 76 208 76c61.333 0 114.333 -14.333 159 -43s77.334 -65.667 98.001 -111c19.333 -44.667 29 -92.334 29 -143.001zM310.998 394.001c-46.667 0 -75.667 -25.667 -87 -77h171c-7.33301 51.333 -35.333 77 -84 77z" />
    <glyph glyph-name="ecircumflex" unicode="&#xea;" horiz-adv-x="624" 
d="M398 606l-86 96l-85 -96h-164l159 179h181l159 -179h-164zM599 237l-0.00195312 -28.999h-377c8.66699 -58.667 40.334 -88 95.001 -88c38.667 0 65.667 14.667 81 44l189 -12c-18.667 -54.667 -51.5 -97 -98.5 -127s-104.833 -45 -173.5 -45
c-90 0 -160.667 25.333 -212 76c-52 50 -78 117 -78 201c0 82.667 26.667 149.667 80 201c52.667 50.667 122 76 208 76c61.333 0 114.333 -14.333 159 -43s77.334 -65.667 98.001 -111c19.333 -44.667 29 -92.334 29 -143.001zM310.998 394.001
c-46.667 0 -75.667 -25.667 -87 -77h171c-7.33301 51.333 -35.333 77 -84 77z" />
    <glyph glyph-name="edieresis" unicode="&#xeb;" horiz-adv-x="624" 
d="M65 712h195v-132h-195v132zM364 712h195v-132h-195v132zM599 237l-0.00195312 -28.999h-377c8.66699 -58.667 40.334 -88 95.001 -88c38.667 0 65.667 14.667 81 44l189 -12c-18.667 -54.667 -51.5 -97 -98.5 -127s-104.833 -45 -173.5 -45
c-90 0 -160.667 25.333 -212 76c-52 50 -78 117 -78 201c0 82.667 26.667 149.667 80 201c52.667 50.667 122 76 208 76c61.333 0 114.333 -14.333 159 -43s77.334 -65.667 98.001 -111c19.333 -44.667 29 -92.334 29 -143.001zM310.998 394.001
c-46.667 0 -75.667 -25.667 -87 -77h171c-7.33301 51.333 -35.333 77 -84 77z" />
    <glyph glyph-name="igrave" unicode="&#xec;" horiz-adv-x="302" 
d="M254 611h-183l-172 182h238zM252 0h-202v516h202v-516z" />
    <glyph glyph-name="iacute" unicode="&#xed;" horiz-adv-x="302" 
d="M231 611h-183l117 182h238zM252 0h-202v516h202v-516z" />
    <glyph glyph-name="icircumflex" unicode="&#xee;" horiz-adv-x="302" 
d="M66 606h-164l159 179h181l159 -179h-164l-86 96zM252 0h-202v516h202v-516z" />
    <glyph glyph-name="idieresis" unicode="&#xef;" horiz-adv-x="302" 
d="M104 580h-175v132h175v-132zM373 580h-175v132h175v-132zM252 0h-202v516h202v-516z" />
    <glyph glyph-name="eth" unicode="&#xf0;" horiz-adv-x="627" 
d="M534 783l-119.001 -87c124.667 -90 187 -219.667 187 -389c0 -107.333 -26 -188 -78 -242s-124 -81 -216 -81c-86 0 -154.667 22.667 -206 68s-77 107.666 -77 186.999c0 72.667 21.333 130.334 64 173.001c43.333 42 98.333 63 165 63c65.333 0 113.333 -18.333 144 -55
c-0.666992 74 -38 133.333 -112 178l-86 -73l-51 56l69 49c-27.333 11.333 -63.666 22.333 -108.999 33l45 141c76.667 -16 143 -39 199 -69l134 109zM314.999 125c28.667 0 49.666 11.167 62.999 33.5s20 57.5 20 105.5c-6 23.333 -17 41.833 -33 55.5
s-34.667 20.5 -56 20.5c-25.333 0 -44.666 -9.5 -57.999 -28.5s-20 -45.5 -20 -79.5c0 -71.333 28 -107 84 -107z" />
    <glyph glyph-name="ntilde" unicode="&#xf1;" horiz-adv-x="648" 
d="M248 665c-27.333 0 -40.998 -21.334 -40.998 -64.001h-126c0 61.333 12 109.333 36 144s59.333 52 106 52c24.667 0.666992 49 -5.33301 73 -18s44.667 -25.167 62 -37.5s30.333 -18.166 39 -17.499c27.333 0 41 21.333 41 64h126c0 -60.667 -12.333 -108.5 -37 -143.5
s-60.334 -52.5 -107.001 -52.5c-22 0 -42.333 3.83301 -61 11.5s-33.334 16 -44.001 25s-22 17.333 -34 25s-23 11.5 -33 11.5zM403.002 530.999c62 0 110 -16.668 144 -50.001s51 -80.666 51 -141.999v-339h-202v290c0 24 -5.83301 42.667 -17.5 56s-27.834 20 -48.501 20
c-23.333 0 -42.166 -8.5 -56.499 -25.5s-21.5 -39.167 -21.5 -66.5v-274h-202v516h185l7 -65c37.333 53.333 91 80 161 80z" />
    <glyph glyph-name="ograve" unicode="&#xf2;" horiz-adv-x="630" 
d="M418 611h-183l-172 182h238zM526 56c-52.667 -50.667 -123 -76 -211 -76c-87.333 0 -157.333 25.333 -210 76c-53.333 51.333 -80 118.333 -80 201s26.667 149.667 80 201c52.667 50.667 122.667 76 210 76c88 0 158.333 -25.333 211 -76s79 -117.667 79 -201
s-26.333 -150.333 -79 -201zM252 153c13.333 -22 34.333 -32.999 63 -32.999s50 11 64 33c13.333 21.333 20 56 20 104c0 47.333 -6.66699 82.333 -20 105c-14 21.333 -35.333 32 -64 32s-49.667 -10.667 -63 -32c-14 -22 -21 -57 -21 -105c0 -48.667 7 -83.334 21 -104.001
z" />
    <glyph glyph-name="oacute" unicode="&#xf3;" horiz-adv-x="630" 
d="M395 611h-183l117 182h238zM526 56c-52.667 -50.667 -123 -76 -211 -76c-87.333 0 -157.333 25.333 -210 76c-53.333 51.333 -80 118.333 -80 201s26.667 149.667 80 201c52.667 50.667 122.667 76 210 76c88 0 158.333 -25.333 211 -76s79 -117.667 79 -201
s-26.333 -150.333 -79 -201zM252 153c13.333 -22 34.333 -32.999 63 -32.999s50 11 64 33c13.333 21.333 20 56 20 104c0 47.333 -6.66699 82.333 -20 105c-14 21.333 -35.333 32 -64 32s-49.667 -10.667 -63 -32c-14 -22 -21 -57 -21 -105c0 -48.667 7 -83.334 21 -104.001
z" />
    <glyph glyph-name="ocircumflex" unicode="&#xf4;" horiz-adv-x="630" 
d="M230 606h-164l159 179h181l159 -179h-164l-86 96zM526 56c-52.667 -50.667 -123 -76 -211 -76c-87.333 0 -157.333 25.333 -210 76c-53.333 51.333 -80 118.333 -80 201s26.667 149.667 80 201c52.667 50.667 122.667 76 210 76c88 0 158.333 -25.333 211 -76
s79 -117.667 79 -201s-26.333 -150.333 -79 -201zM252 153c13.333 -22 34.333 -32.999 63 -32.999s50 11 64 33c13.333 21.333 20 56 20 104c0 47.333 -6.66699 82.333 -20 105c-14 21.333 -35.333 32 -64 32s-49.667 -10.667 -63 -32c-14 -22 -21 -57 -21 -105
c0 -48.667 7 -83.334 21 -104.001z" />
    <glyph glyph-name="otilde" unicode="&#xf5;" horiz-adv-x="630" 
d="M198 601l-125.998 -0.000976562c0 61.333 12 109.333 36 144s59.333 52 106 52c24.667 0.666992 49 -5.33301 73 -18s44.667 -25.167 62 -37.5s30.333 -18.166 39 -17.499c27.333 0 41 21.333 41 64h126c0 -60.667 -12.333 -108.5 -37 -143.5
s-60.334 -52.5 -107.001 -52.5c-22 0 -42.333 3.83301 -61 11.5s-33.334 16 -44.001 25s-22 17.333 -34 25s-23 11.5 -33 11.5c-27.333 0 -41 -21.333 -41 -64zM526.002 55.999c-52.667 -50.667 -123 -76 -211 -76c-87.333 0 -157.333 25.333 -210 76
c-53.333 51.333 -80 118.333 -80 201s26.667 149.667 80 201c52.667 50.667 122.667 76 210 76c88 0 158.333 -25.333 211 -76s79 -117.667 79 -201s-26.333 -150.333 -79 -201zM252.002 152.999c13.333 -22 34.333 -32.999 63 -32.999s50 11 64 33
c13.333 21.333 20 56 20 104c0 47.333 -6.66699 82.333 -20 105c-14 21.333 -35.333 32 -64 32s-49.667 -10.667 -63 -32c-14 -22 -21 -57 -21 -105c0 -48.667 7 -83.334 21 -104.001z" />
    <glyph glyph-name="odieresis" unicode="&#xf6;" horiz-adv-x="630" 
d="M263 580h-195v132h195v-132zM562 580h-195v132h195v-132zM526 56c-52.667 -50.667 -123 -76 -211 -76c-87.333 0 -157.333 25.333 -210 76c-53.333 51.333 -80 118.333 -80 201s26.667 149.667 80 201c52.667 50.667 122.667 76 210 76c88 0 158.333 -25.333 211 -76
s79 -117.667 79 -201s-26.333 -150.333 -79 -201zM252 153c13.333 -22 34.333 -32.999 63 -32.999s50 11 64 33c13.333 21.333 20 56 20 104c0 47.333 -6.66699 82.333 -20 105c-14 21.333 -35.333 32 -64 32s-49.667 -10.667 -63 -32c-14 -22 -21 -57 -21 -105
c0 -48.667 7 -83.334 21 -104.001z" />
    <glyph glyph-name="divide" unicode="&#xf7;" 
d="M452 490h-148v150h148v-150zM685 250h-614v142h614v-142zM452 0h-148v150h148v-150z" />
    <glyph glyph-name="oslash" unicode="&#xf8;" horiz-adv-x="630" 
d="M583 500l-46.001 -53.001c45.333 -51.333 68 -114.666 68 -189.999c0 -83.333 -26.333 -150.333 -79 -201s-123 -76 -211 -76c-59.333 0 -110.666 11.667 -153.999 35l-51 -58l-62 54l47 54c-46.667 49.333 -70 113.333 -70 192c0 82.667 26.667 149.667 80 201
c52.667 50.667 122.667 76 210 76c60 0 112.333 -12.333 157 -37l49 57zM230.999 256.999c0 -18 0.333984 -29.333 1.00098 -34l134 153c-13.333 12 -30.333 18 -51 18c-28.667 0 -49.834 -11 -63.501 -33s-20.5 -56.667 -20.5 -104zM315 119.999
c28.667 0 49.833 11 63.5 33s20.5 56.667 20.5 104c0 16 -0.333008 26.333 -1 31l-132 -152c12.667 -10.667 29 -16 49 -16z" />
    <glyph glyph-name="ugrave" unicode="&#xf9;" horiz-adv-x="648" 
d="M310 793l117 -182h-183l-172 182h238zM396 242v274.001h202v-516h-185l-7 65c-37.333 -53.333 -91 -80 -161 -80c-62 0 -110 16.667 -144 50s-51 80.666 -51 141.999v339h202v-290c0 -24 5.83301 -42.667 17.5 -56s27.834 -20 48.501 -20
c23.333 0 42.166 8.5 56.499 25.5s21.5 39.167 21.5 66.5z" />
    <glyph glyph-name="uacute" unicode="&#xfa;" horiz-adv-x="648" 
d="M338 793h238l-172 -182h-183zM396 242v274.001h202v-516h-185l-7 65c-37.333 -53.333 -91 -80 -161 -80c-62 0 -110 16.667 -144 50s-51 80.666 -51 141.999v339h202v-290c0 -24 5.83301 -42.667 17.5 -56s27.834 -20 48.501 -20c23.333 0 42.166 8.5 56.499 25.5
s21.5 39.167 21.5 66.5z" />
    <glyph glyph-name="ucircumflex" unicode="&#xfb;" horiz-adv-x="648" 
d="M410 606l-86 96l-85 -96h-164l159 179h181l159 -179h-164zM396 242v274.001h202v-516h-185l-7 65c-37.333 -53.333 -91 -80 -161 -80c-62 0 -110 16.667 -144 50s-51 80.666 -51 141.999v339h202v-290c0 -24 5.83301 -42.667 17.5 -56s27.834 -20 48.501 -20
c23.333 0 42.166 8.5 56.499 25.5s21.5 39.167 21.5 66.5z" />
    <glyph glyph-name="udieresis" unicode="&#xfc;" horiz-adv-x="648" 
d="M77 712h195v-132h-195v132zM376 712h195v-132h-195v132zM396 242v274.001h202v-516h-185l-7 65c-37.333 -53.333 -91 -80 -161 -80c-62 0 -110 16.667 -144 50s-51 80.666 -51 141.999v339h202v-290c0 -24 5.83301 -42.667 17.5 -56s27.834 -20 48.501 -20
c23.333 0 42.166 8.5 56.499 25.5s21.5 39.167 21.5 66.5z" />
    <glyph glyph-name="yacute" unicode="&#xfd;" horiz-adv-x="604" 
d="M316 793h238l-172 -182h-183zM302 204l85.999 311.999h211l-205 -588c-16.667 -47.333 -40.167 -81.166 -70.5 -101.499s-72.166 -30.5 -125.499 -30.5h-118v159h71c28.667 0 47.667 11.667 57 35l5 13l-208 513h215l62 -206z" />
    <glyph glyph-name="thorn" unicode="&#xfe;" horiz-adv-x="646" 
d="M403 534c64 0 116.333 -23.999 157 -71.999c40.667 -48.667 61 -116.667 61 -204c0 -86.667 -20 -154.334 -60 -203.001c-40.667 -50 -94.667 -75 -162 -75c-61.333 0 -110.333 21.333 -147 64v-248h-202v916h202v-242c42.667 42.667 93 64 151 64zM337 144.001
c52 0 78 39 78 117c0 78.667 -26 118 -78 118c-26.667 0 -47.834 -10.833 -63.501 -32.5s-23.5 -50.167 -23.5 -85.5c0 -36 7.83301 -64.5 23.5 -85.5s36.834 -31.5 63.501 -31.5z" />
    <glyph glyph-name="ydieresis" unicode="&#xff;" horiz-adv-x="604" 
d="M55 712h195v-132h-195v132zM354 712h195v-132h-195v132zM302 204l85.999 311.999h211l-205 -588c-16.667 -47.333 -40.167 -81.166 -70.5 -101.499s-72.166 -30.5 -125.499 -30.5h-118v159h71c28.667 0 47.667 11.667 57 35l5 13l-208 513h215l62 -206z" />
    <glyph glyph-name="Amacron" unicode="&#x100;" horiz-adv-x="786" 
d="M209 928h378v-118h-378v118zM771 0h-235l-32 97h-223l-32 -97h-234l268 712h222zM366 355l-35 -107h124l-35 107l-27 93z" />
    <glyph glyph-name="amacron" unicode="&#x101;" horiz-adv-x="642" 
d="M122 732h378v-118h-378v118zM607 0l-199.999 0.00292969c-10 21.333 -16.333 41.666 -19 60.999c-34 -54 -89.333 -81 -166 -81c-58 0 -104 14.167 -138 42.5s-51 67.166 -51 116.499c0 42 12.833 75.667 38.5 101s66.834 42.666 123.501 51.999l181 28v37
c0 30.667 -21.667 46 -65 46c-20.667 0 -36 -4.33301 -46 -13s-15.667 -23 -17 -43l-192 7c7.33301 62 31.666 107.5 72.999 136.5s104.666 43.5 189.999 43.5c87.333 0 152.333 -14.833 195 -44.5s64 -76.834 64 -141.501v-218c0 -53.333 9.66699 -96.666 29 -129.999z
M292.001 107.003c27.333 0 49.333 7.33398 66 22.001s25 36.667 25 66v23l-88 -16c-42.667 -6.66699 -64 -23.334 -64 -50.001c0 -30 20.333 -45 61 -45z" />
    <glyph glyph-name="Abreve" unicode="&#x102;" horiz-adv-x="786" 
d="M563 841c-32.667 -28 -87.667 -42 -165 -42s-132.333 14 -165 42s-49 75 -49 141h118c0 -28 7.5 -48 22.5 -60s39.5 -18 73.5 -18s58.5 6 73.5 18s22.5 32 22.5 60h118c0 -66 -16.333 -113 -49 -141zM771 0h-235l-32 97h-223l-32 -97h-234l268 712h222zM366 355l-35 -107
h124l-35 107l-27 93z" />
    <glyph glyph-name="abreve" unicode="&#x103;" horiz-adv-x="642" 
d="M476 645c-33.333 -28 -88.333 -42 -165 -42s-131.667 14 -165 42c-32.667 28 -49 75 -49 141h118c0 -28 7.5 -48 22.5 -60s39.5 -18 73.5 -18s58.5 6 73.5 18s22.5 32 22.5 60h118c0 -66 -16.333 -113 -49 -141zM607 0l-199.999 0.00292969
c-10 21.333 -16.333 41.666 -19 60.999c-34 -54 -89.333 -81 -166 -81c-58 0 -104 14.167 -138 42.5s-51 67.166 -51 116.499c0 42 12.833 75.667 38.5 101s66.834 42.666 123.501 51.999l181 28v37c0 30.667 -21.667 46 -65 46c-20.667 0 -36 -4.33301 -46 -13
s-15.667 -23 -17 -43l-192 7c7.33301 62 31.666 107.5 72.999 136.5s104.666 43.5 189.999 43.5c87.333 0 152.333 -14.833 195 -44.5s64 -76.834 64 -141.501v-218c0 -53.333 9.66699 -96.666 29 -129.999zM292.001 107.003c27.333 0 49.333 7.33398 66 22.001
s25 36.667 25 66v23l-88 -16c-42.667 -6.66699 -64 -23.334 -64 -50.001c0 -30 20.333 -45 61 -45z" />
    <glyph glyph-name="Aogonek" unicode="&#x104;" horiz-adv-x="786" 
d="M624 -99c0 -31.333 19.333 -47 58 -47h34v-89h-85c-52 0 -91.833 10.167 -119.5 30.5s-41.5 48.5 -41.5 84.5c0 46 23.333 81 70 105l30 15h-34l-32 97h-223l-32 -97h-234l268 712h222l266 -712l-111 -51c-24 -11.333 -36 -27.333 -36 -48zM366 355l-35 -107h124l-35 107
l-27 93z" />
    <glyph glyph-name="aogonek" unicode="&#x105;" horiz-adv-x="642" 
d="M460 -99c0 -31.333 19.334 -46.9971 58.001 -46.9971h34v-89h-85c-52 0 -91.833 10.167 -119.5 30.5s-41.5 48.5 -41.5 84.5c0 46 23.333 81 70 105l30 15c-9.33301 23.333 -15.333 43.666 -18 60.999c-34.667 -54 -90 -81 -166 -81c-58 0 -104 14.167 -138 42.5
s-51 67.166 -51 116.499c0 42 12.833 75.667 38.5 101s66.834 42.666 123.501 51.999l181 28v37c0 30.667 -21.667 46 -65 46c-20.667 0 -36 -4.33301 -46 -13s-15.667 -23 -17 -43l-192 7c7.33301 62 31.666 107.5 72.999 136.5s104.666 43.5 189.999 43.5
c87.333 0 152.333 -14.833 195 -44.5s64 -76.834 64 -141.501v-218c0 -53.333 9.66699 -96.666 29 -129.999l-111 -51c-24 -11.333 -36 -27.333 -36 -48zM292.001 107.003c27.333 0 49.333 7.33398 66 22.001s25 36.667 25 66v23l-88 -16
c-42.667 -6.66699 -64 -23.334 -64 -50.001c0 -30 20.333 -45 61 -45z" />
    <glyph glyph-name="Cacute" unicode="&#x106;" horiz-adv-x="772" 
d="M467 807h-183l117 182h238zM400 -23c-104.667 0 -189.999 34 -255.999 102s-99 159.333 -99 274s33 206 99 274s151.333 102 256 102c92.667 0 169.667 -25.667 231 -77c60 -50.667 95.667 -120.667 107 -210h-221c-10 72.667 -48.333 109 -115 109
c-42.667 0 -75.5 -16.667 -98.5 -50s-34.5 -82 -34.5 -146c0 -133.333 44.333 -200 133 -200c68.667 0 107 40.667 115 122h223c-6.66699 -92 -41.334 -165 -104.001 -219c-62 -54 -140.667 -81 -236 -81z" />
    <glyph glyph-name="cacute" unicode="&#x107;" horiz-adv-x="612" 
d="M397 611h-183l117 182h238zM315 -20c-90 0 -160.667 25.333 -212 76c-52 50 -78 117 -78 201c0 83.333 26 150.666 78 201.999c52 50 122.667 75 212 75c76.667 0 140.334 -19.667 191.001 -59c49.333 -39.333 77 -91 83 -155l-199 -10c-2.66699 56 -27 84 -73 84
c-57.333 0 -86 -45.667 -86 -137s28.667 -137 86 -137c22.667 0 39.667 6.83301 51 20.5s18.333 35.834 21 66.501l199 -10c-8 -66 -36.333 -118.333 -85 -157c-48.667 -40 -111.334 -60 -188.001 -60z" />
    <glyph glyph-name="Ccircumflex" unicode="&#x108;" horiz-adv-x="772" 
d="M302 802h-164l159 179h181l159 -179h-164l-86 96zM400 -23c-104.667 0 -189.999 34 -255.999 102s-99 159.333 -99 274s33 206 99 274s151.333 102 256 102c92.667 0 169.667 -25.667 231 -77c60 -50.667 95.667 -120.667 107 -210h-221c-10 72.667 -48.333 109 -115 109
c-42.667 0 -75.5 -16.667 -98.5 -50s-34.5 -82 -34.5 -146c0 -133.333 44.333 -200 133 -200c68.667 0 107 40.667 115 122h223c-6.66699 -92 -41.334 -165 -104.001 -219c-62 -54 -140.667 -81 -236 -81z" />
    <glyph glyph-name="ccircumflex" unicode="&#x109;" horiz-adv-x="612" 
d="M232 606h-164l159 179h181l159 -179h-164l-86 96zM315 -20c-90 0 -160.667 25.333 -212 76c-52 50 -78 117 -78 201c0 83.333 26 150.666 78 201.999c52 50 122.667 75 212 75c76.667 0 140.334 -19.667 191.001 -59c49.333 -39.333 77 -91 83 -155l-199 -10
c-2.66699 56 -27 84 -73 84c-57.333 0 -86 -45.667 -86 -137s28.667 -137 86 -137c22.667 0 39.667 6.83301 51 20.5s18.333 35.834 21 66.501l199 -10c-8 -66 -36.333 -118.333 -85 -157c-48.667 -40 -111.334 -60 -188.001 -60z" />
    <glyph glyph-name="Cdotaccent" unicode="&#x10a;" horiz-adv-x="772" 
d="M485 816h-195v143h195v-143zM400 -23c-104.667 0 -189.999 34 -255.999 102s-99 159.333 -99 274s33 206 99 274s151.333 102 256 102c92.667 0 169.667 -25.667 231 -77c60 -50.667 95.667 -120.667 107 -210h-221c-10 72.667 -48.333 109 -115 109
c-42.667 0 -75.5 -16.667 -98.5 -50s-34.5 -82 -34.5 -146c0 -133.333 44.333 -200 133 -200c68.667 0 107 40.667 115 122h223c-6.66699 -92 -41.334 -165 -104.001 -219c-62 -54 -140.667 -81 -236 -81z" />
    <glyph glyph-name="cdotaccent" unicode="&#x10b;" horiz-adv-x="612" 
d="M415 580h-195v132h195v-132zM315 -20c-90 0 -160.667 25.333 -212 76c-52 50 -78 117 -78 201c0 83.333 26 150.666 78 201.999c52 50 122.667 75 212 75c76.667 0 140.334 -19.667 191.001 -59c49.333 -39.333 77 -91 83 -155l-199 -10c-2.66699 56 -27 84 -73 84
c-57.333 0 -86 -45.667 -86 -137s28.667 -137 86 -137c22.667 0 39.667 6.83301 51 20.5s18.333 35.834 21 66.501l199 -10c-8 -66 -36.333 -118.333 -85 -157c-48.667 -40 -111.334 -60 -188.001 -60z" />
    <glyph glyph-name="Ccaron" unicode="&#x10c;" horiz-adv-x="772" 
d="M478 802h-181l-159 179h164l85 -96l86 96h164zM400 -23c-104.667 0 -189.999 34 -255.999 102s-99 159.333 -99 274s33 206 99 274s151.333 102 256 102c92.667 0 169.667 -25.667 231 -77c60 -50.667 95.667 -120.667 107 -210h-221c-10 72.667 -48.333 109 -115 109
c-42.667 0 -75.5 -16.667 -98.5 -50s-34.5 -82 -34.5 -146c0 -133.333 44.333 -200 133 -200c68.667 0 107 40.667 115 122h223c-6.66699 -92 -41.334 -165 -104.001 -219c-62 -54 -140.667 -81 -236 -81z" />
    <glyph glyph-name="ccaron" unicode="&#x10d;" horiz-adv-x="612" 
d="M408 606h-181l-159 179h164l85 -96l86 96h164zM315 -20c-90 0 -160.667 25.333 -212 76c-52 50 -78 117 -78 201c0 83.333 26 150.666 78 201.999c52 50 122.667 75 212 75c76.667 0 140.334 -19.667 191.001 -59c49.333 -39.333 77 -91 83 -155l-199 -10
c-2.66699 56 -27 84 -73 84c-57.333 0 -86 -45.667 -86 -137s28.667 -137 86 -137c22.667 0 39.667 6.83301 51 20.5s18.333 35.834 21 66.501l199 -10c-8 -66 -36.333 -118.333 -85 -157c-48.667 -40 -111.334 -60 -188.001 -60z" />
    <glyph glyph-name="Dcaron" unicode="&#x10e;" horiz-adv-x="778" 
d="M616 981l-159 -179h-181l-159 179h164l85 -96l86 96h164zM60 712l335 0.000976562c108 0 192 -31 252 -93s90 -149.667 90 -263c0 -108.667 -27.667 -195.334 -83 -260.001c-56 -64 -139 -96 -249 -96h-345v712zM284 187.001h75c48 0 85.667 15 113 45s41 71.333 41 124
s-13.667 94 -41 124s-65 45 -113 45h-75v-338z" />
    <glyph glyph-name="dcaron" unicode="&#x10f;" horiz-adv-x="902" 
d="M394 470v241.999h202v-712h-188l-6 55c-37.333 -50 -89 -75 -155 -75c-67.333 0 -121 25 -161 75c-40.667 48.667 -61 116.334 -61 203.001s20.667 154.667 62 204c40.667 48 92.667 72 156 72c58 0 108.333 -21.333 151 -64zM673 451.999l33 260h196l-90 -260h-139z
M309 143.999c26.667 0 47.834 10.5 63.501 31.5s23.5 49.5 23.5 85.5c0 35.333 -7.83301 63.833 -23.5 85.5s-36.834 32.5 -63.501 32.5c-52 0 -78 -39.333 -78 -118c0 -78 26 -117 78 -117z" />
    <glyph glyph-name="Dcroat" unicode="&#x110;" horiz-adv-x="873" 
d="M155 712l335 0.000976562c108 0 192 -31 252 -93s90 -149.667 90 -263c0 -108.667 -27.667 -195.334 -83 -260.001c-56 -64 -139 -96 -249 -96h-345v292l-140 -6v141l140 -6v291zM379 187.001h75c48 0 85.667 15 113 45s41 71.333 41 124s-13.667 94 -41 124
s-65 45 -113 45h-75v-103l109 5v-141l-109 5v-104z" />
    <glyph glyph-name="dslash" unicode="&#x111;" horiz-adv-x="669" 
d="M596 692l63 1.99902v-131l-63 2v-565h-188l-6 55c-37.333 -50 -89 -75 -155 -75c-67.333 0 -121 25 -161 75c-40.667 48.667 -61 116.334 -61 203.001s20.667 154.667 62 204c40.667 48 92.667 72 156 72c58 0 108.333 -21.333 151 -64v96l-121 -3v131l121 -3v51h202v-50
zM309 143.999c26.667 0 47.834 10.5 63.501 31.5s23.5 49.5 23.5 85.5c0 35.333 -7.83301 63.833 -23.5 85.5s-36.834 32.5 -63.501 32.5c-52 0 -78 -39.333 -78 -118c0 -78 26 -117 78 -117z" />
    <glyph glyph-name="Emacron" unicode="&#x112;" horiz-adv-x="716" 
d="M172 928h378v-118h-378v118zM284 271v-81h392v-190h-616v712h606v-185h-382v-81h327v-175h-327z" />
    <glyph glyph-name="emacron" unicode="&#x113;" horiz-adv-x="624" 
d="M123 732h378v-118h-378v118zM599 237l-0.00195312 -28.999h-377c8.66699 -58.667 40.334 -88 95.001 -88c38.667 0 65.667 14.667 81 44l189 -12c-18.667 -54.667 -51.5 -97 -98.5 -127s-104.833 -45 -173.5 -45c-90 0 -160.667 25.333 -212 76c-52 50 -78 117 -78 201
c0 82.667 26.667 149.667 80 201c52.667 50.667 122 76 208 76c61.333 0 114.333 -14.333 159 -43s77.334 -65.667 98.001 -111c19.333 -44.667 29 -92.334 29 -143.001zM310.998 394.001c-46.667 0 -75.667 -25.667 -87 -77h171c-7.33301 51.333 -35.333 77 -84 77z" />
    <glyph glyph-name="Ebreve" unicode="&#x114;" horiz-adv-x="716" 
d="M526 841c-33.333 -28 -88.333 -42 -165 -42s-131.667 14 -165 42c-32.667 28 -49 75 -49 141h118c0 -28 7.5 -48 22.5 -60s39.5 -18 73.5 -18s58.5 6 73.5 18s22.5 32 22.5 60h118c0 -66 -16.333 -113 -49 -141zM284 271v-81h392v-190h-616v712h606v-185h-382v-81h327
v-175h-327z" />
    <glyph glyph-name="ebreve" unicode="&#x115;" horiz-adv-x="624" 
d="M477 645c-32.667 -28 -87.667 -42 -165 -42s-132.333 14 -165 42s-49 75 -49 141h118c0 -28 7.5 -48 22.5 -60s39.5 -18 73.5 -18s58.5 6 73.5 18s22.5 32 22.5 60h118c0 -66 -16.333 -113 -49 -141zM599 237l-0.00195312 -28.999h-377
c8.66699 -58.667 40.334 -88 95.001 -88c38.667 0 65.667 14.667 81 44l189 -12c-18.667 -54.667 -51.5 -97 -98.5 -127s-104.833 -45 -173.5 -45c-90 0 -160.667 25.333 -212 76c-52 50 -78 117 -78 201c0 82.667 26.667 149.667 80 201c52.667 50.667 122 76 208 76
c61.333 0 114.333 -14.333 159 -43s77.334 -65.667 98.001 -111c19.333 -44.667 29 -92.334 29 -143.001zM310.998 394.001c-46.667 0 -75.667 -25.667 -87 -77h171c-7.33301 51.333 -35.333 77 -84 77z" />
    <glyph glyph-name="Edotaccent" unicode="&#x116;" horiz-adv-x="716" 
d="M264 959h195v-143h-195v143zM284 271v-81h392v-190h-616v712h606v-185h-382v-81h327v-175h-327z" />
    <glyph glyph-name="edotaccent" unicode="&#x117;" horiz-adv-x="624" 
d="M215 712h195v-132h-195v132zM599 237l-0.00195312 -28.999h-377c8.66699 -58.667 40.334 -88 95.001 -88c38.667 0 65.667 14.667 81 44l189 -12c-18.667 -54.667 -51.5 -97 -98.5 -127s-104.833 -45 -173.5 -45c-90 0 -160.667 25.333 -212 76c-52 50 -78 117 -78 201
c0 82.667 26.667 149.667 80 201c52.667 50.667 122 76 208 76c61.333 0 114.333 -14.333 159 -43s77.334 -65.667 98.001 -111c19.333 -44.667 29 -92.334 29 -143.001zM310.998 394.001c-46.667 0 -75.667 -25.667 -87 -77h171c-7.33301 51.333 -35.333 77 -84 77z" />
    <glyph glyph-name="Eogonek" unicode="&#x118;" horiz-adv-x="716" 
d="M676 0l-111 -51c-24 -11.333 -36 -27.333 -36 -48c0 -31.333 19.333 -47 58 -47h34v-89h-85c-52 0 -91.833 10.167 -119.5 30.5s-41.5 48.5 -41.5 84.5c0 46 23.333 81 70 105l30 15h-415v712h606v-185h-382v-81h327v-175h-327v-81h392v-190z" />
    <glyph glyph-name="eogonek" unicode="&#x119;" horiz-adv-x="624" 
d="M599 237l-0.000976562 -28.999h-377c8.66699 -58.667 40.334 -88 95.001 -88c38.667 0 65.667 14.667 81 44l189 -12c-26.667 -76.667 -78.334 -128 -155.001 -154l-83 -38c-24 -10.667 -36 -26.667 -36 -48c0 -31.333 19.333 -47 58 -47h34v-89h-85
c-52 0 -91.833 10.167 -119.5 30.5s-41.5 48.5 -41.5 84.5c0 43.333 20.667 76.666 62 99.999c-62 16.667 -110.167 48.334 -144.5 95.001s-51.5 103.667 -51.5 171c0 82.667 26.667 149.667 80 201c52.667 50.667 122 76 208 76c61.333 0 114.333 -14.333 159 -43
s77.334 -65.667 98.001 -111c19.333 -44.667 29 -92.334 29 -143.001zM310.999 394.001c-46.667 0 -75.667 -25.667 -87 -77h171c-7.33301 51.333 -35.333 77 -84 77z" />
    <glyph glyph-name="Ecaron" unicode="&#x11a;" horiz-adv-x="716" 
d="M611 981l-159 -179h-181l-159 179h164l85 -96l86 96h164zM284 271v-81h392v-190h-616v712h606v-185h-382v-81h327v-175h-327z" />
    <glyph glyph-name="ecaron" unicode="&#x11b;" horiz-adv-x="624" 
d="M562 785l-159 -179h-181l-159 179h164l85 -96l86 96h164zM599 237l-0.00195312 -28.999h-377c8.66699 -58.667 40.334 -88 95.001 -88c38.667 0 65.667 14.667 81 44l189 -12c-18.667 -54.667 -51.5 -97 -98.5 -127s-104.833 -45 -173.5 -45
c-90 0 -160.667 25.333 -212 76c-52 50 -78 117 -78 201c0 82.667 26.667 149.667 80 201c52.667 50.667 122 76 208 76c61.333 0 114.333 -14.333 159 -43s77.334 -65.667 98.001 -111c19.333 -44.667 29 -92.334 29 -143.001zM310.998 394.001
c-46.667 0 -75.667 -25.667 -87 -77h171c-7.33301 51.333 -35.333 77 -84 77z" />
    <glyph glyph-name="Gcircumflex" unicode="&#x11c;" horiz-adv-x="811" 
d="M495 802l-86 96l-85 -96h-164l159 179h181l159 -179h-164zM448 392h303v-392h-149l-10 67c-20 -26 -48.5 -47.5 -85.5 -64.5s-79.167 -25.5 -126.5 -25.5c-96.667 0 -176.334 34.333 -239.001 103c-64 69.333 -96 160.333 -96 273c0 114.667 33 206 99 274
s151.333 102 256 102c82 0 152.667 -20.667 212 -62c58.667 -42 97 -99 115 -171l-215 -15c-20 46.667 -56.667 70 -110 70c-42.667 0 -75.5 -16.667 -98.5 -50s-34.5 -82 -34.5 -146c0 -69.333 12.167 -120 36.5 -152s61.833 -48 112.5 -48
c64.667 0 105.334 27.333 122.001 82h-92v155z" />
    <glyph glyph-name="gcircumflex" unicode="&#x11d;" horiz-adv-x="646" 
d="M409 606l-86 96l-85 -96h-164l159 179h181l159 -179h-164zM401 466l7 49.999h188v-482c0 -78.667 -25.833 -140 -77.5 -184s-124.5 -66 -218.5 -66c-147.333 0 -234.666 55.667 -261.999 167l192 17c13.333 -29.333 39.666 -44 78.999 -44c30 0 51.667 6.33301 65 19
s20 32 20 58v68c-36.667 -40.667 -85.667 -61 -147 -61c-67.333 0 -121 23.667 -161 71c-40.667 46.667 -61 111 -61 193c0 82.667 20.667 147.334 62 194.001c41.333 45.333 93.333 68 156 68c62 0 114.667 -22.667 158 -68zM309 163.999c26.667 0 47.834 10 63.501 30
s23.5 47 23.5 81c0 33.333 -7.83301 60.333 -23.5 81s-36.834 31 -63.501 31c-52 0 -78 -37.333 -78 -112c0 -74 26 -111 78 -111z" />
    <glyph glyph-name="Gbreve" unicode="&#x11e;" horiz-adv-x="811" 
d="M574 841c-33.333 -28 -88.333 -42 -165 -42s-131.667 14 -165 42c-32.667 28 -49 75 -49 141h118c0 -28 7.5 -48 22.5 -60s39.5 -18 73.5 -18s58.5 6 73.5 18s22.5 32 22.5 60h118c0 -66 -16.333 -113 -49 -141zM448 392h303v-392h-149l-10 67
c-20 -26 -48.5 -47.5 -85.5 -64.5s-79.167 -25.5 -126.5 -25.5c-96.667 0 -176.334 34.333 -239.001 103c-64 69.333 -96 160.333 -96 273c0 114.667 33 206 99 274s151.333 102 256 102c82 0 152.667 -20.667 212 -62c58.667 -42 97 -99 115 -171l-215 -15
c-20 46.667 -56.667 70 -110 70c-42.667 0 -75.5 -16.667 -98.5 -50s-34.5 -82 -34.5 -146c0 -69.333 12.167 -120 36.5 -152s61.833 -48 112.5 -48c64.667 0 105.334 27.333 122.001 82h-92v155z" />
    <glyph glyph-name="gbreve" unicode="&#x11f;" horiz-adv-x="646" 
d="M488 645c-33.333 -28 -88.333 -42 -165 -42s-131.667 14 -165 42c-32.667 28 -49 75 -49 141h118c0 -28 7.5 -48 22.5 -60s39.5 -18 73.5 -18s58.5 6 73.5 18s22.5 32 22.5 60h118c0 -66 -16.333 -113 -49 -141zM401 466l7 49.999h188v-482
c0 -78.667 -25.833 -140 -77.5 -184s-124.5 -66 -218.5 -66c-147.333 0 -234.666 55.667 -261.999 167l192 17c13.333 -29.333 39.666 -44 78.999 -44c30 0 51.667 6.33301 65 19s20 32 20 58v68c-36.667 -40.667 -85.667 -61 -147 -61c-67.333 0 -121 23.667 -161 71
c-40.667 46.667 -61 111 -61 193c0 82.667 20.667 147.334 62 194.001c41.333 45.333 93.333 68 156 68c62 0 114.667 -22.667 158 -68zM309 163.999c26.667 0 47.834 10 63.501 30s23.5 47 23.5 81c0 33.333 -7.83301 60.333 -23.5 81s-36.834 31 -63.501 31
c-52 0 -78 -37.333 -78 -112c0 -74 26 -111 78 -111z" />
    <glyph glyph-name="Gdotaccent" unicode="&#x120;" horiz-adv-x="811" 
d="M312 959h195v-143h-195v143zM448 392h303v-392h-149l-10 67c-20 -26 -48.5 -47.5 -85.5 -64.5s-79.167 -25.5 -126.5 -25.5c-96.667 0 -176.334 34.333 -239.001 103c-64 69.333 -96 160.333 -96 273c0 114.667 33 206 99 274s151.333 102 256 102
c82 0 152.667 -20.667 212 -62c58.667 -42 97 -99 115 -171l-215 -15c-20 46.667 -56.667 70 -110 70c-42.667 0 -75.5 -16.667 -98.5 -50s-34.5 -82 -34.5 -146c0 -69.333 12.167 -120 36.5 -152s61.833 -48 112.5 -48c64.667 0 105.334 27.333 122.001 82h-92v155z" />
    <glyph glyph-name="gdotaccent" unicode="&#x121;" horiz-adv-x="646" 
d="M226 712h195v-132h-195v132zM401 466l7 49.999h188v-482c0 -78.667 -25.833 -140 -77.5 -184s-124.5 -66 -218.5 -66c-147.333 0 -234.666 55.667 -261.999 167l192 17c13.333 -29.333 39.666 -44 78.999 -44c30 0 51.667 6.33301 65 19s20 32 20 58v68
c-36.667 -40.667 -85.667 -61 -147 -61c-67.333 0 -121 23.667 -161 71c-40.667 46.667 -61 111 -61 193c0 82.667 20.667 147.334 62 194.001c41.333 45.333 93.333 68 156 68c62 0 114.667 -22.667 158 -68zM309 163.999c26.667 0 47.834 10 63.501 30s23.5 47 23.5 81
c0 33.333 -7.83301 60.333 -23.5 81s-36.834 31 -63.501 31c-52 0 -78 -37.333 -78 -112c0 -74 26 -111 78 -111z" />
    <glyph glyph-name="uni0122" unicode="&#x122;" horiz-adv-x="811" 
d="M448 392h303v-392h-149l-10 67c-20 -26 -48.5 -47.5 -85.5 -64.5s-79.167 -25.5 -126.5 -25.5c-96.667 0 -176.334 34.333 -239.001 103c-64 69.333 -96 160.333 -96 273c0 114.667 33 206 99 274s151.333 102 256 102c82 0 152.667 -20.667 212 -62
c58.667 -42 97 -99 115 -171l-215 -15c-20 46.667 -56.667 70 -110 70c-42.667 0 -75.5 -16.667 -98.5 -50s-34.5 -82 -34.5 -146c0 -69.333 12.167 -120 36.5 -152s61.833 -48 112.5 -48c64.667 0 105.334 27.333 122.001 82h-92v155zM437 -201l-140 -13v129h225v-136
c0 -91.333 -48.333 -137 -145 -137h-80v77h72c45.333 0 68 20 68 60v20z" />
    <glyph glyph-name="uni0123" unicode="&#x123;" horiz-adv-x="646" 
d="M295 696l140 13v-129h-225v136c0 91.333 48.333 137 145 137h80v-77h-72c-45.333 0 -68 -20 -68 -60v-20zM401 466l7 49.999h188v-482c0 -78.667 -25.833 -140 -77.5 -184s-124.5 -66 -218.5 -66c-147.333 0 -234.666 55.667 -261.999 167l192 17
c13.333 -29.333 39.666 -44 78.999 -44c30 0 51.667 6.33301 65 19s20 32 20 58v68c-36.667 -40.667 -85.667 -61 -147 -61c-67.333 0 -121 23.667 -161 71c-40.667 46.667 -61 111 -61 193c0 82.667 20.667 147.334 62 194.001c41.333 45.333 93.333 68 156 68
c62 0 114.667 -22.667 158 -68zM309 163.999c26.667 0 47.834 10 63.501 30s23.5 47 23.5 81c0 33.333 -7.83301 60.333 -23.5 81s-36.834 31 -63.501 31c-52 0 -78 -37.333 -78 -112c0 -74 26 -111 78 -111z" />
    <glyph glyph-name="Hcircumflex" unicode="&#x124;" horiz-adv-x="769" 
d="M471 802l-86 96l-85 -96h-164l159 179h181l159 -179h-164zM485 470v242h224v-712h-224v278h-201v-278h-224v712h224v-242h201z" />
    <glyph glyph-name="hcircumflex" unicode="&#x125;" horiz-adv-x="648" 
d="M237 802l-86 96l-85 -96h-164l159 179h181l159 -179h-164zM403 531c62 0 110 -16.668 144 -50.001s51 -80.666 51 -141.999v-339h-202v290c0 24 -5.83301 42.667 -17.5 56s-27.834 20 -48.501 20c-23.333 0 -42.166 -8.5 -56.499 -25.5s-21.5 -39.167 -21.5 -66.5v-274
h-202v712h202v-248c38 44.667 88.333 67 151 67z" />
    <glyph glyph-name="Hbar" unicode="&#x126;" horiz-adv-x="769" 
d="M485 630v82h224v-712h-224v218h-201v-218h-224v712h224v-82h201zM284 470v-92h201v92h-201z" />
    <glyph glyph-name="hbar" unicode="&#x127;" horiz-adv-x="671" 
d="M426 521c62 0 110 -16.668 144 -50.001s51 -80.666 51 -141.999v-329h-202v280c0 24 -5.83301 42.667 -17.5 56s-27.834 20 -48.501 20c-23.333 0 -42.166 -8.5 -56.499 -25.5s-21.5 -39.167 -21.5 -66.5v-264h-202v565l-63 -2v131l63 -2v50h202v-51l121 3v-131l-121 3
v-112c38 44.667 88.333 67 151 67z" />
    <glyph glyph-name="Itilde" unicode="&#x128;" horiz-adv-x="344" 
d="M55 797l-125.998 -0.000976562c0 61.333 12 109.333 36 144s59.333 52 106 52c24.667 0.666992 49 -5.33301 73 -18s44.667 -25.167 62 -37.5s30.333 -18.166 39 -17.499c27.333 0 41 21.333 41 64h126c0 -60.667 -12.333 -108.5 -37 -143.5
s-60.334 -52.5 -107.001 -52.5c-22 0 -42.333 3.83301 -61 11.5s-33.334 16 -44.001 25s-22 17.333 -34 25s-23 11.5 -33 11.5c-27.333 0 -41 -21.333 -41 -64zM284.002 -0.000976562h-224v712h224v-712z" />
    <glyph glyph-name="itilde" unicode="&#x129;" horiz-adv-x="302" 
d="M34 601l-125.998 -0.000976562c0 61.333 12 109.333 36 144s59.333 52 106 52c24.667 0.666992 49 -5.33301 73 -18s44.667 -25.167 62 -37.5s30.333 -18.166 39 -17.499c27.333 0 41 21.333 41 64h126c0 -60.667 -12.333 -108.5 -37 -143.5
s-60.334 -52.5 -107.001 -52.5c-22 0 -42.333 3.83301 -61 11.5s-33.334 16 -44.001 25s-22 17.333 -34 25s-23 11.5 -33 11.5c-27.333 0 -41 -21.333 -41 -64zM252.002 -0.000976562h-202v516h202v-516z" />
    <glyph glyph-name="Imacron" unicode="&#x12a;" horiz-adv-x="344" 
d="M361 810h-378v118h378v-118zM284 0h-224v712h224v-712z" />
    <glyph glyph-name="imacron" unicode="&#x12b;" horiz-adv-x="302" 
d="M340 614h-378v118h378v-118zM252 0h-202v516h202v-516z" />
    <glyph glyph-name="Ibreve" unicode="&#x12c;" horiz-adv-x="344" 
d="M337 841c-32.667 -28 -87.667 -42 -165 -42s-132.333 14 -165 42s-49 75 -49 141h118c0 -28 7.5 -48 22.5 -60s39.5 -18 73.5 -18s58.5 6 73.5 18s22.5 32 22.5 60h118c0 -66 -16.333 -113 -49 -141zM284 0h-224v712h224v-712z" />
    <glyph glyph-name="ibreve" unicode="&#x12d;" horiz-adv-x="302" 
d="M316 645c-33.333 -28 -88.333 -42 -165 -42s-131.667 14 -165 42c-32.667 28 -49 75 -49 141h118c0 -28 7.5 -48 22.5 -60s39.5 -18 73.5 -18s58.5 6 73.5 18s22.5 32 22.5 60h118c0 -66 -16.333 -113 -49 -141zM252 0h-202v516h202v-516z" />
    <glyph glyph-name="Iogonek" unicode="&#x12e;" horiz-adv-x="344" 
d="M284 0l-66 -60c-17.333 -15.333 -26 -30.333 -26 -45c0 -27.333 19.333 -41 58 -41h34v-89h-85c-52 0 -91.833 9.33301 -119.5 28s-41.5 45 -41.5 79c0 38.667 16.667 71 50 97l40 31h-68v712h224v-712z" />
    <glyph glyph-name="iogonek" unicode="&#x12f;" horiz-adv-x="302" 
d="M54 712h195v-132h-195v132zM252 0l-66 -60c-17.333 -15.333 -26 -30.333 -26 -45c0 -27.333 19.333 -41 58 -41h34v-89h-85c-52 0 -91.833 9.33301 -119.5 28s-41.5 45 -41.5 79c0 38.667 16.667 71 50 97l40 31h-46v516h202v-516z" />
    <glyph glyph-name="Idot" unicode="&#x130;" horiz-adv-x="344" 
d="M270 816h-195v143h195v-143zM284 0h-224v712h224v-712z" />
    <glyph glyph-name="dotlessi" unicode="&#x131;" horiz-adv-x="302" 
d="M252 0h-202v516h202v-516z" />
    <glyph glyph-name="IJ" unicode="&#x132;" horiz-adv-x="972" 
d="M284 0h-224v712h224v-712zM840 43c-49.333 -44 -115 -66 -197 -66s-147.333 21.667 -196 65c-48.667 42.667 -73 100.667 -73 174v74h206v-60c0 -40.667 18 -61 54 -61s54 20.333 54 61v482h224v-495c0 -72.667 -24 -130.667 -72 -174z" />
    <glyph glyph-name="ij" unicode="&#x133;" horiz-adv-x="604" 
d="M252 581h-202v131h202v-131zM554 581h-202v131h202v-131zM252 0h-202v516h202v-516zM332 -215h-68v143h35c35.333 0 53 19 53 57v531h202v-531c0 -69.333 -18 -120 -54 -152s-92 -48 -168 -48z" />
    <glyph glyph-name="Jcircumflex" unicode="&#x134;" horiz-adv-x="648" 
d="M391 802h-164l159 179h181l159 -179h-164l-86 96zM516 43c-49.333 -44 -115 -66 -197 -66s-147.333 21.667 -196 65c-48.667 42.667 -73 100.667 -73 174v74h206v-60c0 -40.667 18 -61 54 -61s54 20.333 54 61v482h224v-495c0 -72.667 -24 -130.667 -72 -174z" />
    <glyph glyph-name="jcircumflex" unicode="&#x135;" horiz-adv-x="302" 
d="M66 606h-164l159 179h181l159 -179h-164l-86 96zM30 -215h-68v143h35c35.333 0 53 19 53 57v531h202v-531c0 -69.333 -18 -120 -54 -152s-92 -48 -168 -48z" />
    <glyph glyph-name="uni0136" unicode="&#x136;" horiz-adv-x="792" 
d="M764 712l-266 -284l294 -428h-277l-172 279l-59 -64v-215h-224v712h224v-225l204 225h276zM427 -201l-140 -13v129h225v-136c0 -91.333 -48.333 -137 -145 -137h-80v77h72c45.333 0 68 20 68 60v20z" />
    <glyph glyph-name="uni0137" unicode="&#x137;" horiz-adv-x="651" 
d="M282 186l-30 -30v-156h-202v712h202v-344l123 148h239l-198 -206l215 -310h-240zM338 -201l-140 -13v129h225v-136c0 -91.333 -48.333 -137 -145 -137h-80v77h72c45.333 0 68 20 68 60v20z" />
    <glyph glyph-name="kgreenlandic" unicode="&#x138;" horiz-adv-x="651" 
d="M631 0h-240l-109 186l-30 -30v-156h-202v516h202v-148l123 148h239l-198 -206z" />
    <glyph glyph-name="Lacute" unicode="&#x139;" horiz-adv-x="612" 
d="M195 989h238l-172 -182h-183zM284 712v-520h318v-192h-542v712h224z" />
    <glyph glyph-name="lacute" unicode="&#x13a;" horiz-adv-x="302" 
d="M229 807h-183l117 182h238zM252 0h-202v712h202v-712z" />
    <glyph glyph-name="uni013B" unicode="&#x13b;" horiz-adv-x="612" 
d="M284 712v-520h318v-192h-542v712h224zM349 -201l-140 -13v129h225v-136c0 -91.333 -48.333 -137 -145 -137h-80v77h72c45.333 0 68 20 68 60v20z" />
    <glyph glyph-name="uni013C" unicode="&#x13c;" horiz-adv-x="302" 
d="M50 712h202v-712h-202v712zM37 -214v129h225v-136c0 -91.333 -48.333 -137 -145 -137h-80v77h72c45.333 0 68 20 68 60v20z" />
    <glyph glyph-name="Lcaron" unicode="&#x13d;" horiz-adv-x="612" 
d="M60 712h224v-520h318v-192h-542v712zM427 712h196l-90 -260h-139z" />
    <glyph glyph-name="lcaron" unicode="&#x13e;" horiz-adv-x="547" 
d="M252 0h-202v712h202v-712zM457 452h-139l33 260h196z" />
    <glyph glyph-name="Ldot" unicode="&#x13f;" horiz-adv-x="612" 
d="M284 712v-520h318v-192h-542v712h224zM389 524h181v-176h-181v176z" />
    <glyph glyph-name="ldot" unicode="&#x140;" horiz-adv-x="521" 
d="M252 0h-202v712h202v-712zM508 258h-199v194h199v-194z" />
    <glyph glyph-name="Lslash" unicode="&#x141;" horiz-adv-x="730" 
d="M402 360v-168h318v-192h-542v252l-153 -78v167l153 63v308h224v-202l206 104v-167z" />
    <glyph glyph-name="lslash" unicode="&#x142;" horiz-adv-x="430" 
d="M316 491l89 43v-158l-89 -31v-345h-202v256l-89 -45v158l89 33v310h202v-221z" />
    <glyph glyph-name="Nacute" unicode="&#x143;" horiz-adv-x="781" 
d="M414 989h238l-172 -182h-183zM501 342v370h220v-712h-227l-214 366v-366h-220v712h222z" />
    <glyph glyph-name="nacute" unicode="&#x144;" horiz-adv-x="648" 
d="M338 793h238l-172 -182h-183zM403 531c62 0 110 -16.668 144 -50.001s51 -80.666 51 -141.999v-339h-202v290c0 24 -5.83301 42.667 -17.5 56s-27.834 20 -48.501 20c-23.333 0 -42.166 -8.5 -56.499 -25.5s-21.5 -39.167 -21.5 -66.5v-274h-202v516h185l7 -65
c37.333 53.333 91 80 161 80z" />
    <glyph glyph-name="uni0145" unicode="&#x145;" horiz-adv-x="781" 
d="M501 342v370h220v-712h-227l-214 366v-366h-220v712h222zM428 -201l-140 -13v129h225v-136c0 -91.333 -48.333 -137 -145 -137h-80v77h72c45.333 0 68 20 68 60v20z" />
    <glyph glyph-name="uni0146" unicode="&#x146;" horiz-adv-x="648" 
d="M403 531c62 0 110 -16.668 144 -50.001s51 -80.666 51 -141.999v-339h-202v290c0 24 -5.83301 42.667 -17.5 56s-27.834 20 -48.501 20c-23.333 0 -42.166 -8.5 -56.499 -25.5s-21.5 -39.167 -21.5 -66.5v-274h-202v516h185l7 -65c37.333 53.333 91 80 161 80z
M352 -201.001l-140 -13v129h225v-136c0 -91.333 -48.333 -137 -145 -137h-80v77h72c45.333 0 68 20 68 60v20z" />
    <glyph glyph-name="Ncaron" unicode="&#x147;" horiz-adv-x="781" 
d="M650 981l-159 -179h-181l-159 179h164l85 -96l86 96h164zM501 342v370h220v-712h-227l-214 366v-366h-220v712h222z" />
    <glyph glyph-name="ncaron" unicode="&#x148;" horiz-adv-x="648" 
d="M574 785l-159 -179h-181l-159 179h164l85 -96l86 96h164zM403 531c62 0 110 -16.668 144 -50.001s51 -80.666 51 -141.999v-339h-202v290c0 24 -5.83301 42.667 -17.5 56s-27.834 20 -48.501 20c-23.333 0 -42.166 -8.5 -56.499 -25.5s-21.5 -39.167 -21.5 -66.5v-274
h-202v516h185l7 -65c37.333 53.333 91 80 161 80z" />
    <glyph glyph-name="napostrophe" unicode="&#x149;" horiz-adv-x="919" 
d="M137 520h-112v192h220v-220c0 -117.333 -62 -176 -186 -176h-34v98h25c58 0 87 25.667 87 77v29zM674 531c62 0 110 -16.668 144 -50.001s51 -80.666 51 -141.999v-339h-202v290c0 24 -5.83301 42.667 -17.5 56s-27.834 20 -48.501 20
c-23.333 0 -42.166 -8.5 -56.499 -25.5s-21.5 -39.167 -21.5 -66.5v-274h-202v516h185l7 -65c37.333 53.333 91 80 161 80z" />
    <glyph glyph-name="Eng" unicode="&#x14a;" horiz-adv-x="781" 
d="M501 348v364h220v-727c0 -133.333 -80 -200 -240 -200h-68v143h35c35.333 0 53 19 53 57v15l-221 372v-372h-220v712h222z" />
    <glyph glyph-name="eng" unicode="&#x14b;" horiz-adv-x="648" 
d="M403 531c62 0 110 -16.668 144 -50.001s51 -80.666 51 -141.999v-354c0 -69.333 -18 -120 -54 -152s-92 -48 -168 -48h-68v143h35c35.333 0 53 19 53 57v305c0 24 -5.83301 42.667 -17.5 56s-27.834 20 -48.501 20c-23.333 0 -42.166 -8.5 -56.499 -25.5
s-21.5 -39.167 -21.5 -66.5v-274h-202v516h185l7 -65c37.333 53.333 91 80 161 80z" />
    <glyph glyph-name="Omacron" unicode="&#x14c;" horiz-adv-x="820" 
d="M596 810h-378v118h378v-118zM675 79c-67.333 -68 -155.666 -102.002 -264.999 -102.002s-197.333 34 -264 102c-67.333 68.667 -101 160 -101 274s33.667 205.333 101 274c66.667 68 154.667 102 264 102s197.666 -34 264.999 -102
c66.667 -67.333 100 -158.666 100 -273.999s-33.333 -206.666 -100 -273.999zM306 205.998c24 -34 58.665 -50.999 103.998 -50.999s80.333 17 105 51c24 33.333 36 82.666 36 147.999c0 64 -12.167 112.833 -36.5 146.5s-59.166 50.5 -104.499 50.5
s-80.166 -16.833 -104.499 -50.5s-36.5 -82.5 -36.5 -146.5c0 -66 12.333 -115.333 37 -148z" />
    <glyph glyph-name="omacron" unicode="&#x14d;" horiz-adv-x="630" 
d="M504 614h-378v118h378v-118zM526 56c-52.667 -50.667 -123 -76 -211 -76c-87.333 0 -157.333 25.333 -210 76c-53.333 51.333 -80 118.333 -80 201s26.667 149.667 80 201c52.667 50.667 122.667 76 210 76c88 0 158.333 -25.333 211 -76s79 -117.667 79 -201
s-26.333 -150.333 -79 -201zM252 153c13.333 -22 34.333 -32.999 63 -32.999s50 11 64 33c13.333 21.333 20 56 20 104c0 47.333 -6.66699 82.333 -20 105c-14 21.333 -35.333 32 -64 32s-49.667 -10.667 -63 -32c-14 -22 -21 -57 -21 -105c0 -48.667 7 -83.334 21 -104.001
z" />
    <glyph glyph-name="Obreve" unicode="&#x14e;" horiz-adv-x="820" 
d="M572 841c-33.333 -28 -88.333 -42 -165 -42s-131.667 14 -165 42c-32.667 28 -49 75 -49 141h118c0 -28 7.5 -48 22.5 -60s39.5 -18 73.5 -18s58.5 6 73.5 18s22.5 32 22.5 60h118c0 -66 -16.333 -113 -49 -141zM675 79c-67.333 -68 -155.666 -102.002 -264.999 -102.002
s-197.333 34 -264 102c-67.333 68.667 -101 160 -101 274s33.667 205.333 101 274c66.667 68 154.667 102 264 102s197.666 -34 264.999 -102c66.667 -67.333 100 -158.666 100 -273.999s-33.333 -206.666 -100 -273.999zM306 205.998
c24 -34 58.665 -50.999 103.998 -50.999s80.333 17 105 51c24 33.333 36 82.666 36 147.999c0 64 -12.167 112.833 -36.5 146.5s-59.166 50.5 -104.499 50.5s-80.166 -16.833 -104.499 -50.5s-36.5 -82.5 -36.5 -146.5c0 -66 12.333 -115.333 37 -148z" />
    <glyph glyph-name="obreve" unicode="&#x14f;" horiz-adv-x="630" 
d="M480 645c-33.333 -28 -88.333 -42 -165 -42s-131.667 14 -165 42c-32.667 28 -49 75 -49 141h118c0 -28 7.5 -48 22.5 -60s39.5 -18 73.5 -18s58.5 6 73.5 18s22.5 32 22.5 60h118c0 -66 -16.333 -113 -49 -141zM526 56c-52.667 -50.667 -123 -76 -211 -76
c-87.333 0 -157.333 25.333 -210 76c-53.333 51.333 -80 118.333 -80 201s26.667 149.667 80 201c52.667 50.667 122.667 76 210 76c88 0 158.333 -25.333 211 -76s79 -117.667 79 -201s-26.333 -150.333 -79 -201zM252 153c13.333 -22 34.333 -32.999 63 -32.999
s50 11 64 33c13.333 21.333 20 56 20 104c0 47.333 -6.66699 82.333 -20 105c-14 21.333 -35.333 32 -64 32s-49.667 -10.667 -63 -32c-14 -22 -21 -57 -21 -105c0 -48.667 7 -83.334 21 -104.001z" />
    <glyph glyph-name="Ohungarumlaut" unicode="&#x150;" horiz-adv-x="820" 
d="M319 796h-173l101 190h215zM618 796h-172l110 190h214zM675 79c-67.333 -68 -155.666 -102.002 -264.999 -102.002s-197.333 34 -264 102c-67.333 68.667 -101 160 -101 274s33.667 205.333 101 274c66.667 68 154.667 102 264 102s197.666 -34 264.999 -102
c66.667 -67.333 100 -158.666 100 -273.999s-33.333 -206.666 -100 -273.999zM306 205.998c24 -34 58.665 -50.999 103.998 -50.999s80.333 17 105 51c24 33.333 36 82.666 36 147.999c0 64 -12.167 112.833 -36.5 146.5s-59.166 50.5 -104.499 50.5
s-80.166 -16.833 -104.499 -50.5s-36.5 -82.5 -36.5 -146.5c0 -66 12.333 -115.333 37 -148z" />
    <glyph glyph-name="ohungarumlaut" unicode="&#x151;" horiz-adv-x="630" 
d="M227 600h-173l101 190h215zM526 600h-172l110 190h214zM526 56c-52.667 -50.667 -123 -76 -211 -76c-87.333 0 -157.333 25.333 -210 76c-53.333 51.333 -80 118.333 -80 201s26.667 149.667 80 201c52.667 50.667 122.667 76 210 76c88 0 158.333 -25.333 211 -76
s79 -117.667 79 -201s-26.333 -150.333 -79 -201zM252 153c13.333 -22 34.333 -32.999 63 -32.999s50 11 64 33c13.333 21.333 20 56 20 104c0 47.333 -6.66699 82.333 -20 105c-14 21.333 -35.333 32 -64 32s-49.667 -10.667 -63 -32c-14 -22 -21 -57 -21 -105
c0 -48.667 7 -83.334 21 -104.001z" />
    <glyph glyph-name="OE" unicode="&#x152;" horiz-adv-x="1207" 
d="M775 271v-81h392v-190h-616v41c-46 -36 -103 -54 -171 -54c-96.667 0 -176.334 33.333 -239.001 100c-64 67.333 -96 156 -96 266s32 198.667 96 266c62.667 66.667 142.334 100 239.001 100c68 0 125 -18 171 -54v47h606v-185h-382v-81h327v-175h-327zM306 206
c24 -34 58.665 -50.999 103.998 -50.999s80.333 17 105 51c24 33.333 36 82.666 36 147.999c0 64 -12.167 112.833 -36.5 146.5s-59.166 50.5 -104.499 50.5s-80.166 -16.833 -104.499 -50.5s-36.5 -82.5 -36.5 -146.5c0 -66 12.333 -115.333 37 -148z" />
    <glyph glyph-name="oe" unicode="&#x153;" horiz-adv-x="1007" 
d="M982 237l-0.00488281 -28.999h-377c8.66699 -58.667 40.334 -88 95.001 -88c38.667 0 65.667 14.667 81 44l189 -12c-19.333 -54 -52.166 -96.167 -98.499 -126.5s-101.5 -45.5 -165.5 -45.5c-89.333 0 -159.666 29.667 -210.999 89
c-45.333 -59.333 -110.666 -89 -195.999 -89c-80 0 -145.667 25.667 -197 77s-77 118 -77 200c0 82.667 25.667 149.667 77 201c50.667 50.667 116.334 76 197.001 76c86 0 151.667 -30 197 -90c50.667 60 120 90 208 90s156.333 -29.333 205 -88s73 -128.334 73 -209.001z
M312.995 120.001c57.333 0 86 45.667 86 137s-28.667 137 -86 137c-28 0 -48.667 -10.833 -62 -32.5s-20 -56.5 -20 -104.5s6.66699 -82.833 20 -104.5s34 -32.5 62 -32.5zM693.995 394.001c-46.667 0 -75.667 -25.667 -87 -77h171c-7.33301 51.333 -35.333 77 -84 77z" />
    <glyph glyph-name="Racute" unicode="&#x154;" horiz-adv-x="766" 
d="M382 989h238l-172 -182h-183zM699 170l17 -170.001h-222l-14 150c-6 66 -39 99 -99 99h-97v-249h-224v712h415c69.333 0 126 -19 170 -57c44 -39.333 66 -89.666 66 -150.999c0 -84 -40.333 -142 -121 -174c64 -22.667 100.333 -76 109 -160zM284 406.999h127
c23.333 0 41.833 6.16699 55.5 18.5s20.5 28.833 20.5 49.5c0 20 -6.66699 36.167 -20 48.5s-32 18.5 -56 18.5h-127v-135z" />
    <glyph glyph-name="racute" unicode="&#x155;" horiz-adv-x="465" 
d="M239 793h238l-172 -182h-183zM238 516l5.99902 -72c30.667 60 78.334 90 143.001 90c17.333 0 35 -2.33301 53 -7v-174c-16 2 -31.333 3 -46 3c-94.667 0 -142 -42 -142 -126v-230h-202v516h188z" />
    <glyph glyph-name="uni0156" unicode="&#x156;" horiz-adv-x="766" 
d="M699 170l17 -170.001h-222l-14 150c-6 66 -39 99 -99 99h-97v-249h-224v712h415c69.333 0 126 -19 170 -57c44 -39.333 66 -89.666 66 -150.999c0 -84 -40.333 -142 -121 -174c64 -22.667 100.333 -76 109 -160zM284 406.999h127c23.333 0 41.833 6.16699 55.5 18.5
s20.5 28.833 20.5 49.5c0 20 -6.66699 36.167 -20 48.5s-32 18.5 -56 18.5h-127v-135zM396 -201.001l-140 -13v129h225v-136c0 -91.333 -48.333 -137 -145 -137h-80v77h72c45.333 0 68 20 68 60v20z" />
    <glyph glyph-name="uni0157" unicode="&#x157;" horiz-adv-x="465" 
d="M387 534c17.333 0 34.999 -2.33301 52.999 -7v-174c-16 2 -31.333 3 -46 3c-94.667 0 -142 -42 -142 -126v-230h-202v516h188l6 -72c30.667 60 78.334 90 143.001 90zM178.999 -201l-140 -13v129h225v-136c0 -91.333 -48.333 -137 -145 -137h-80v77h72
c45.333 0 68 20 68 60v20z" />
    <glyph glyph-name="Rcaron" unicode="&#x158;" horiz-adv-x="766" 
d="M618 981l-159 -179h-181l-159 179h164l85 -96l86 96h164zM699 170l17 -170.001h-222l-14 150c-6 66 -39 99 -99 99h-97v-249h-224v712h415c69.333 0 126 -19 170 -57c44 -39.333 66 -89.666 66 -150.999c0 -84 -40.333 -142 -121 -174c64 -22.667 100.333 -76 109 -160z
M284 406.999h127c23.333 0 41.833 6.16699 55.5 18.5s20.5 28.833 20.5 49.5c0 20 -6.66699 36.167 -20 48.5s-32 18.5 -56 18.5h-127v-135z" />
    <glyph glyph-name="rcaron" unicode="&#x159;" horiz-adv-x="465" 
d="M475 785l-159 -179h-181l-159 179h164l85 -96l86 96h164zM238 516l5.99902 -72c30.667 60 78.334 90 143.001 90c17.333 0 35 -2.33301 53 -7v-174c-16 2 -31.333 3 -46 3c-94.667 0 -142 -42 -142 -126v-230h-202v516h188z" />
    <glyph glyph-name="Sacute" unicode="&#x15a;" horiz-adv-x="720" 
d="M440 807h-183l117 182h238zM361 -23c-98.667 0 -175.832 22.166 -231.499 66.499s-86.834 108.5 -93.501 192.5h225c4.66699 -54 41 -81 109 -81c58.667 0 88 18 88 54c0 28.667 -21 47.334 -63 56.001l-149 33c-128 28 -192 97 -192 207c0 70.667 25 125.667 75 165
s125 59 225 59c189.333 0 288 -73.667 296 -221h-217c-6 36.667 -33.333 55 -82 55c-49.333 0 -74 -14 -74 -42c0 -21.333 18 -36 54 -44l150 -33c135.333 -30 203 -104.333 203 -223c0 -77.333 -28.5 -137.333 -85.5 -180s-136.167 -64 -237.5 -64z" />
    <glyph glyph-name="sacute" unicode="&#x15b;" horiz-adv-x="606" 
d="M391 611h-183l117 182h238zM301 -20c-79.333 0 -141.833 16 -187.5 48s-71.834 76.667 -78.501 134h190c6 -40.667 34 -61 84 -61c23.333 0 41.5 4.66699 54.5 14s19.5 22 19.5 38c0 26.667 -19 42 -57 46l-78 7c-134.667 12 -202 63.667 -202 155
c0 55.333 22.167 98 66.5 128s106.833 45 187.5 45c153.333 0 238.333 -54.333 255 -163h-184c-6 34 -32 51 -78 51c-44 0 -66 -14.333 -66 -43c0 -26 19.667 -41 59 -45l77 -8c138.667 -14.667 208 -68.667 208 -162c0 -60 -23.667 -105.667 -71 -137
s-113.666 -47 -198.999 -47z" />
    <glyph glyph-name="Scircumflex" unicode="&#x15c;" horiz-adv-x="720" 
d="M275 802h-164l159 179h181l159 -179h-164l-86 96zM361 -23c-98.667 0 -175.832 22.166 -231.499 66.499s-86.834 108.5 -93.501 192.5h225c4.66699 -54 41 -81 109 -81c58.667 0 88 18 88 54c0 28.667 -21 47.334 -63 56.001l-149 33c-128 28 -192 97 -192 207
c0 70.667 25 125.667 75 165s125 59 225 59c189.333 0 288 -73.667 296 -221h-217c-6 36.667 -33.333 55 -82 55c-49.333 0 -74 -14 -74 -42c0 -21.333 18 -36 54 -44l150 -33c135.333 -30 203 -104.333 203 -223c0 -77.333 -28.5 -137.333 -85.5 -180
s-136.167 -64 -237.5 -64z" />
    <glyph glyph-name="scircumflex" unicode="&#x15d;" horiz-adv-x="606" 
d="M226 606h-164l159 179h181l159 -179h-164l-86 96zM301 -20c-79.333 0 -141.833 16 -187.5 48s-71.834 76.667 -78.501 134h190c6 -40.667 34 -61 84 -61c23.333 0 41.5 4.66699 54.5 14s19.5 22 19.5 38c0 26.667 -19 42 -57 46l-78 7c-134.667 12 -202 63.667 -202 155
c0 55.333 22.167 98 66.5 128s106.833 45 187.5 45c153.333 0 238.333 -54.333 255 -163h-184c-6 34 -32 51 -78 51c-44 0 -66 -14.333 -66 -43c0 -26 19.667 -41 59 -45l77 -8c138.667 -14.667 208 -68.667 208 -162c0 -60 -23.667 -105.667 -71 -137
s-113.666 -47 -198.999 -47z" />
    <glyph glyph-name="Scedilla" unicode="&#x15e;" horiz-adv-x="720" 
d="M684 221c0 -73.333 -25.333 -131.001 -76 -173.001s-121.667 -65.333 -213 -70l-41 -42h21c83.333 0 125 -29.667 125 -89c0 -72 -63.667 -108 -191 -108h-38v70h12c49.333 0 74 11.333 74 34c0 20 -14.333 30 -43 30h-18l-40 49l51 57c-82.667 8 -147 33.667 -193 77
s-72 103.333 -78 180h225c4.66699 -54 41 -81 109 -81c58.667 0 88 18 88 54c0 28.667 -21 47.334 -63 56.001l-149 33c-128 28 -192 97 -192 207c0 70.667 25 125.667 75 165s125 59 225 59c189.333 0 288 -73.667 296 -221h-217c-6 36.667 -33.333 55 -82 55
c-49.333 0 -74 -14 -74 -42c0 -21.333 18 -36 54 -44l150 -33c135.333 -30 203 -104.333 203 -223z" />
    <glyph glyph-name="scedilla" unicode="&#x15f;" horiz-adv-x="606" 
d="M571 164c0 -54.667 -19.833 -97.5 -59.5 -128.5s-96.167 -49.167 -169.5 -54.5l-50 -51h21c83.333 0 125 -29.667 125 -89c0 -72 -63.667 -108 -191 -108h-38v70h12c49.333 0 74 11.333 74 34c0 20 -14.333 30 -43 30h-18l-40 49l58 66
c-64.667 6.66699 -115.5 25.5 -152.5 56.5s-58.5 72.167 -64.5 123.5h190c6 -40.667 34 -61 84 -61c23.333 0 41.5 4.66699 54.5 14s19.5 22 19.5 38c0 26.667 -19 42 -57 46l-78 7c-134.667 12 -202 63.667 -202 155c0 55.333 22.167 98 66.5 128s106.833 45 187.5 45
c153.333 0 238.333 -54.333 255 -163h-184c-6 34 -32 51 -78 51c-44 0 -66 -14.333 -66 -43c0 -26 19.667 -41 59 -45l77 -8c138.667 -14.667 208 -68.667 208 -162z" />
    <glyph glyph-name="Scaron" unicode="&#x160;" horiz-adv-x="720" 
d="M451 802h-181l-159 179h164l85 -96l86 96h164zM361 -23c-98.667 0 -175.832 22.166 -231.499 66.499s-86.834 108.5 -93.501 192.5h225c4.66699 -54 41 -81 109 -81c58.667 0 88 18 88 54c0 28.667 -21 47.334 -63 56.001l-149 33c-128 28 -192 97 -192 207
c0 70.667 25 125.667 75 165s125 59 225 59c189.333 0 288 -73.667 296 -221h-217c-6 36.667 -33.333 55 -82 55c-49.333 0 -74 -14 -74 -42c0 -21.333 18 -36 54 -44l150 -33c135.333 -30 203 -104.333 203 -223c0 -77.333 -28.5 -137.333 -85.5 -180
s-136.167 -64 -237.5 -64z" />
    <glyph glyph-name="scaron" unicode="&#x161;" horiz-adv-x="606" 
d="M402 606h-181l-159 179h164l85 -96l86 96h164zM301 -20c-79.333 0 -141.833 16 -187.5 48s-71.834 76.667 -78.501 134h190c6 -40.667 34 -61 84 -61c23.333 0 41.5 4.66699 54.5 14s19.5 22 19.5 38c0 26.667 -19 42 -57 46l-78 7c-134.667 12 -202 63.667 -202 155
c0 55.333 22.167 98 66.5 128s106.833 45 187.5 45c153.333 0 238.333 -54.333 255 -163h-184c-6 34 -32 51 -78 51c-44 0 -66 -14.333 -66 -43c0 -26 19.667 -41 59 -45l77 -8c138.667 -14.667 208 -68.667 208 -162c0 -60 -23.667 -105.667 -71 -137
s-113.666 -47 -198.999 -47z" />
    <glyph glyph-name="uni0162" unicode="&#x162;" horiz-adv-x="675" 
d="M450 520v-520h-61l-60 -62h21c83.333 0 125 -29.667 125 -89c0 -72 -63.667 -108 -191 -108h-38v70h12c49.333 0 74 11.333 74 34c0 20 -14.333 30 -43 30h-18l-40 49l67 76h-72v520h-206v192h635v-192h-205z" />
    <glyph glyph-name="uni0163" unicode="&#x163;" horiz-adv-x="431" 
d="M391 396l-95 2v-191c0 -37.333 16.667 -56 50 -56h45v-151h-117h-10l-49 -51h21c83.333 0 125 -29.667 125 -89c0 -72 -63.667 -108 -191 -108h-38v70h12c49.333 0 74 11.333 74 34c0 20 -14.333 30 -43 30h-18l-40 49l66 75c-32 10 -54.833 28.167 -68.5 54.5
s-20.5 64.833 -20.5 115.5v218l-79 -2v120l79 -2v158h202v-158l95 2v-120z" />
    <glyph glyph-name="Tcaron" unicode="&#x164;" horiz-adv-x="675" 
d="M588 981l-159 -179h-181l-159 179h164l85 -96l86 96h164zM20 712h635v-192h-205v-520h-224v520h-206v192z" />
    <glyph glyph-name="tcaron" unicode="&#x165;" horiz-adv-x="521" 
d="M372 594l33 260h196l-90 -260h-139zM296 672v-158l95 2v-120l-95 2v-191c0 -37.333 16.667 -56 50 -56h45v-151h-117c-68 0 -115 13 -141 39s-39 73 -39 141v218l-79 -2v120l79 -2v158h202z" />
    <glyph glyph-name="Tbar" unicode="&#x166;" horiz-adv-x="675" 
d="M655 712v-192h-205v-134l153 3v-151l-153 3v-241h-224v241l-153 -3v151l153 -3v134h-206v192h635z" />
    <glyph glyph-name="tbar" unicode="&#x167;" horiz-adv-x="456" 
d="M416 516v-120l-110 3v-67l110 3v-120l-110 3v-11c0 -37.333 16.667 -56 50 -56h60v-151h-117c-68 0 -115 13 -141 39s-39 73 -39 141v15l4 22l-83 -2v120l94 -3v67l-94 -3v120l86 -2l-7 45v113h202v-113l-7 -46z" />
    <glyph glyph-name="Utilde" unicode="&#x168;" horiz-adv-x="786" 
d="M276 797l-125.998 -0.000976562c0 61.333 12 109.333 36 144s59.333 52 106 52c24.667 0.666992 49 -5.33301 73 -18s44.667 -25.167 62 -37.5s30.333 -18.166 39 -17.499c27.333 0 41 21.333 41 64h126c0 -60.667 -12.333 -108.5 -37 -143.5
s-60.334 -52.5 -107.001 -52.5c-22 0 -42.333 3.83301 -61 11.5s-33.334 16 -44.001 25s-22 17.333 -34 25s-23 11.5 -33 11.5c-27.333 0 -41 -21.333 -41 -64zM642.002 51.999c-57.333 -50 -140.333 -75.001 -249 -75.001c-109.333 0 -192 25 -248 75
c-56.667 48.667 -85 121 -85 217v443h224v-443c0 -76 36.333 -114 109 -114s109 38 109 114v443h224v-443c0 -95.333 -28 -167.666 -84 -216.999z" />
    <glyph glyph-name="utilde" unicode="&#x169;" horiz-adv-x="648" 
d="M248 665c-27.333 0 -40.998 -21.334 -40.998 -64.001h-126c0 61.333 12 109.333 36 144s59.333 52 106 52c24.667 0.666992 49 -5.33301 73 -18s44.667 -25.167 62 -37.5s30.333 -18.166 39 -17.499c27.333 0 41 21.333 41 64h126c0 -60.667 -12.333 -108.5 -37 -143.5
s-60.334 -52.5 -107.001 -52.5c-22 0 -42.333 3.83301 -61 11.5s-33.334 16 -44.001 25s-22 17.333 -34 25s-23 11.5 -33 11.5zM396.002 241.999v274.001h202v-516h-185l-7 65c-37.333 -53.333 -91 -80 -161 -80c-62 0 -110 16.667 -144 50s-51 80.666 -51 141.999v339h202
v-290c0 -24 5.83301 -42.667 17.5 -56s27.834 -20 48.501 -20c23.333 0 42.166 8.5 56.499 25.5s21.5 39.167 21.5 66.5z" />
    <glyph glyph-name="Umacron" unicode="&#x16a;" horiz-adv-x="786" 
d="M582 810h-378v118h378v-118zM642 52c-57.333 -50 -140.333 -75.001 -249 -75.001c-109.333 0 -192 25 -248 75c-56.667 48.667 -85 121 -85 217v443h224v-443c0 -76 36.333 -114 109 -114s109 38 109 114v443h224v-443c0 -95.333 -28 -167.666 -84 -216.999z" />
    <glyph glyph-name="umacron" unicode="&#x16b;" horiz-adv-x="648" 
d="M135 732h378v-118h-378v118zM396 242v274.001h202v-516h-185l-7 65c-37.333 -53.333 -91 -80 -161 -80c-62 0 -110 16.667 -144 50s-51 80.666 -51 141.999v339h202v-290c0 -24 5.83301 -42.667 17.5 -56s27.834 -20 48.501 -20c23.333 0 42.166 8.5 56.499 25.5
s21.5 39.167 21.5 66.5z" />
    <glyph glyph-name="Ubreve" unicode="&#x16c;" horiz-adv-x="786" 
d="M558 841c-33.333 -28 -88.333 -42 -165 -42s-131.667 14 -165 42c-32.667 28 -49 75 -49 141h118c0 -28 7.5 -48 22.5 -60s39.5 -18 73.5 -18s58.5 6 73.5 18s22.5 32 22.5 60h118c0 -66 -16.333 -113 -49 -141zM642 52c-57.333 -50 -140.333 -75.001 -249 -75.001
c-109.333 0 -192 25 -248 75c-56.667 48.667 -85 121 -85 217v443h224v-443c0 -76 36.333 -114 109 -114s109 38 109 114v443h224v-443c0 -95.333 -28 -167.666 -84 -216.999z" />
    <glyph glyph-name="ubreve" unicode="&#x16d;" horiz-adv-x="648" 
d="M489 645c-32.667 -28 -87.667 -42 -165 -42s-132.333 14 -165 42s-49 75 -49 141h118c0 -28 7.5 -48 22.5 -60s39.5 -18 73.5 -18s58.5 6 73.5 18s22.5 32 22.5 60h118c0 -66 -16.333 -113 -49 -141zM396 242v274.001h202v-516h-185l-7 65
c-37.333 -53.333 -91 -80 -161 -80c-62 0 -110 16.667 -144 50s-51 80.666 -51 141.999v339h202v-290c0 -24 5.83301 -42.667 17.5 -56s27.834 -20 48.501 -20c23.333 0 42.166 8.5 56.499 25.5s21.5 39.167 21.5 66.5z" />
    <glyph glyph-name="Uring" unicode="&#x16e;" horiz-adv-x="786" 
d="M501 820c-28.667 -28.667 -64.667 -43 -108 -43s-79.333 14.333 -108 43c-28.667 28 -43 63.333 -43 106c0 44 14.333 80.333 43 109c28.667 28 64.667 42 108 42s79.333 -14 108 -42c28.667 -28.667 43 -65 43 -109c0 -42.667 -14.333 -78 -43 -106zM349 881
c17.333 -19.333 40 -23.667 68 -13s40.667 30 38 58c0 19.333 -5.83301 34.833 -17.5 46.5s-26.5 17.5 -44.5 17.5s-32.833 -5.83301 -44.5 -17.5s-17.5 -27.167 -17.5 -46.5c0 -18.667 6 -33.667 18 -45zM642 51.999c-57.333 -50 -140.333 -75.001 -249 -75.001
c-109.333 0 -192 25 -248 75c-56.667 48.667 -85 121 -85 217v443h224v-443c0 -76 36.333 -114 109 -114s109 38 109 114v443h224v-443c0 -95.333 -28 -167.666 -84 -216.999z" />
    <glyph glyph-name="uring" unicode="&#x16f;" horiz-adv-x="648" 
d="M432 624c-28.667 -28.667 -64.667 -43 -108 -43s-79.333 14.333 -108 43c-28.667 28 -43 63.333 -43 106c0 44 14.333 80.333 43 109c29.333 28 65.333 42 108 42s78.667 -14 108 -42c28.667 -28.667 43 -65 43 -109c0 -42.667 -14.333 -78 -43 -106zM369 777
c-18 18.667 -41 22.667 -69 12s-40.667 -30.334 -38 -59.001c0 -18.667 5.83301 -33.834 17.5 -45.501s26.5 -17.5 44.5 -17.5s32.833 5.83301 44.5 17.5s17.5 26.834 17.5 45.501s-5.66699 34.334 -17 47.001zM396 242v274.001h202v-516h-185l-7 65
c-37.333 -53.333 -91 -80 -161 -80c-62 0 -110 16.667 -144 50s-51 80.666 -51 141.999v339h202v-290c0 -24 5.83301 -42.667 17.5 -56s27.834 -20 48.501 -20c23.333 0 42.166 8.5 56.499 25.5s21.5 39.167 21.5 66.5z" />
    <glyph glyph-name="Uhungarumlaut" unicode="&#x170;" horiz-adv-x="786" 
d="M305 796h-173l101 190h215zM604 796h-172l110 190h214zM642 52c-57.333 -50 -140.333 -75.001 -249 -75.001c-109.333 0 -192 25 -248 75c-56.667 48.667 -85 121 -85 217v443h224v-443c0 -76 36.333 -114 109 -114s109 38 109 114v443h224v-443
c0 -95.333 -28 -167.666 -84 -216.999z" />
    <glyph glyph-name="uhungarumlaut" unicode="&#x171;" horiz-adv-x="648" 
d="M164 790h215l-143 -190h-173zM687 790l-152 -190h-172l110 190h214zM396 242v274.001h202v-516h-185l-7 65c-37.333 -53.333 -91 -80 -161 -80c-62 0 -110 16.667 -144 50s-51 80.666 -51 141.999v339h202v-290c0 -24 5.83301 -42.667 17.5 -56s27.834 -20 48.501 -20
c23.333 0 42.166 8.5 56.499 25.5s21.5 39.167 21.5 66.5z" />
    <glyph glyph-name="Uogonek" unicode="&#x172;" horiz-adv-x="786" 
d="M502 269v442.999h224v-443c0 -147.333 -65 -239 -195 -275l-89 -41c-24 -11.333 -36 -27.333 -36 -48c0 -31.333 19.333 -47 58 -47h34v-89h-85c-52 0 -91.833 10.167 -119.5 30.5s-41.5 48.5 -41.5 84.5c0 42.667 19.333 75.334 58 98.001
c-82.667 12 -145 42.167 -187 90.5s-63 113.833 -63 196.5v443h224v-443c0 -76 36.333 -114 109 -114s109 38 109 114z" />
    <glyph glyph-name="uogonek" unicode="&#x173;" horiz-adv-x="648" 
d="M598 0l-111 -51c-24 -11.333 -36 -27.333 -36 -48c0 -31.333 19.333 -47 58 -47h34v-89h-85c-52 0 -91.833 10.167 -119.5 30.5s-41.5 48.5 -41.5 84.5c0 46 23.333 81 70 105l57 29l-13 68c-39.333 -58 -94.666 -87 -165.999 -87c-55.333 0 -100.333 14 -135 42
c-40 32.667 -60 82.667 -60 150v329h202v-280c0 -26 6.33301 -45.333 19 -58c12 -12 27.667 -18 47 -18c23.333 0 42.166 8.5 56.499 25.5s21.5 39.167 21.5 66.5v264h202v-516z" />
    <glyph glyph-name="Wcircumflex" unicode="&#x174;" horiz-adv-x="1035" 
d="M604 802l-86 96l-85 -96h-164l159 179h181l159 -179h-164zM733 441l66 271h221l-206 -712h-216l-80 420l-75 -420h-222l-206 712h220l67 -271l32 -184l29 183l55 272h198l60 -272l28 -179z" />
    <glyph glyph-name="wcircumflex" unicode="&#x175;" horiz-adv-x="893" 
d="M532 606l-86 96l-85 -96h-164l159 179h181l159 -179h-164zM633 293l63 223h192l-170 -516h-196l-67 249l-8 37l-9 -38l-67 -248h-196l-170 516h204l64 -225l15 -69l14 68l54 226h177l58 -221l20 -89z" />
    <glyph glyph-name="Ycircumflex" unicode="&#x176;" horiz-adv-x="768" 
d="M476 802l-86 96l-85 -96h-164l159 179h181l159 -179h-164zM414 523l95 189h248l-261 -452v-260h-224v260l-261 452h250l91 -189l31 -81z" />
    <glyph glyph-name="ycircumflex" unicode="&#x177;" horiz-adv-x="604" 
d="M388 606l-86 96l-85 -96h-164l159 179h181l159 -179h-164zM302 204l85.999 311.999h211l-205 -588c-16.667 -47.333 -40.167 -81.166 -70.5 -101.499s-72.166 -30.5 -125.499 -30.5h-118v159h71c28.667 0 47.667 11.667 57 35l5 13l-208 513h215l62 -206z" />
    <glyph glyph-name="Ydieresis" unicode="&#x178;" horiz-adv-x="768" 
d="M143 959h195v-143h-195v143zM442 959h195v-143h-195v143zM414 523l95 189h248l-261 -452v-260h-224v260l-261 452h250l91 -189l31 -81z" />
    <glyph glyph-name="Zacute" unicode="&#x179;" horiz-adv-x="715" 
d="M372 989h238l-172 -182h-183zM651 553l-325 -361h347v-192h-631v184l310 336h-286v192h585v-159z" />
    <glyph glyph-name="zacute" unicode="&#x17a;" horiz-adv-x="551" 
d="M290 793h238l-172 -182h-183zM509 516v-143l-229 -218h246v-155h-501v147l225 214h-207v155h466z" />
    <glyph glyph-name="Zdotaccent" unicode="&#x17b;" horiz-adv-x="715" 
d="M261 959h195v-143h-195v143zM651 553l-325 -361h347v-192h-631v184l310 336h-286v192h585v-159z" />
    <glyph glyph-name="zdotaccent" unicode="&#x17c;" horiz-adv-x="551" 
d="M179 712h195v-132h-195v132zM509 373l-229 -218h246v-155h-501v147l225 214h-207v155h466v-143z" />
    <glyph glyph-name="Zcaron" unicode="&#x17d;" horiz-adv-x="715" 
d="M608 981l-159 -179h-181l-159 179h164l85 -96l86 96h164zM651 553l-325 -361h347v-192h-631v184l310 336h-286v192h585v-159z" />
    <glyph glyph-name="zcaron" unicode="&#x17e;" horiz-adv-x="551" 
d="M526 785l-159 -179h-181l-159 179h164l85 -96l86 96h164zM509 516v-143l-229 -218h246v-155h-501v147l225 214h-207v155h466z" />
    <glyph glyph-name="uni018F" unicode="&#x18f;" horiz-adv-x="799" 
d="M389 729c112 0 201 -33.667 267 -101c65.333 -67.333 98 -159 98 -275c0 -114 -32.667 -205.333 -98 -274c-66 -68 -152.333 -102 -259 -102c-109.333 0 -195.333 34.333 -258 103c-62.667 67.333 -94 163.666 -94 288.999c0 12.667 0.666992 27 2 43h480
c-11.333 101.333 -55 152 -131 152c-54 0 -92 -26 -114 -78h-229c17.333 76.667 55.5 136.334 114.5 179.001s132.833 64 221.5 64zM393 140c37.333 0 66.668 10.167 88.001 30.5s35.666 52.833 42.999 97.5h-263c9.33301 -85.333 53.333 -128 132 -128z" />
    <glyph glyph-name="florin" unicode="&#x192;" 
d="M645 574h-62c-18 0 -31.333 -3.5 -40 -10.5s-14.667 -18.833 -18 -35.5l-18 -91l114 2l-24 -124l-113 2l-62 -318c-11.333 -56 -35.333 -98.667 -72 -128s-91 -44 -163 -44h-101l25 139h60c18 0 31.333 3.5 40 10.5s14.667 18.833 18 35.5l60 305l-112 -2l22 124l113 -2
l20 103c11.333 56 35.333 98.667 72 128s91 44 163 44h103z" />
    <glyph glyph-name="uni01F4" unicode="&#x1f4;" horiz-adv-x="811" 
d="M423 989h238l-172 -182h-183zM448 392h303v-392h-149l-10 67c-20 -26 -48.5 -47.5 -85.5 -64.5s-79.167 -25.5 -126.5 -25.5c-96.667 0 -176.334 34.333 -239.001 103c-64 69.333 -96 160.333 -96 273c0 114.667 33 206 99 274s151.333 102 256 102
c82 0 152.667 -20.667 212 -62c58.667 -42 97 -99 115 -171l-215 -15c-20 46.667 -56.667 70 -110 70c-42.667 0 -75.5 -16.667 -98.5 -50s-34.5 -82 -34.5 -146c0 -69.333 12.167 -120 36.5 -152s61.833 -48 112.5 -48c64.667 0 105.334 27.333 122.001 82h-92v155z" />
    <glyph glyph-name="uni01F5" unicode="&#x1f5;" horiz-adv-x="646" 
d="M337 793h238l-172 -182h-183zM401 466l7 49.999h188v-482c0 -78.667 -25.833 -140 -77.5 -184s-124.5 -66 -218.5 -66c-147.333 0 -234.666 55.667 -261.999 167l192 17c13.333 -29.333 39.666 -44 78.999 -44c30 0 51.667 6.33301 65 19s20 32 20 58v68
c-36.667 -40.667 -85.667 -61 -147 -61c-67.333 0 -121 23.667 -161 71c-40.667 46.667 -61 111 -61 193c0 82.667 20.667 147.334 62 194.001c41.333 45.333 93.333 68 156 68c62 0 114.667 -22.667 158 -68zM309 163.999c26.667 0 47.834 10 63.501 30s23.5 47 23.5 81
c0 33.333 -7.83301 60.333 -23.5 81s-36.834 31 -63.501 31c-52 0 -78 -37.333 -78 -112c0 -74 26 -111 78 -111z" />
    <glyph glyph-name="Aringacute" unicode="&#x1fa;" horiz-adv-x="786" 
d="M406 1109h238l-172 -182h-183zM771 0h-235l-32 97h-223l-32 -97h-234l250 653c-16 24.667 -24 52.667 -24 84c0 44 14.333 80.333 43 109c29.333 28 65.333 42 108 42s78.667 -14 108 -42c28.667 -28.667 43 -65 43 -109c0 -30 -7.33301 -56.667 -22 -80zM437 784
c-18 18.667 -41 22.667 -69 12s-40.667 -30.334 -38 -59.001c0 -18.667 5.83301 -33.834 17.5 -45.501s26.5 -17.5 44.5 -17.5s32.833 5.83301 44.5 17.5s17.5 26.834 17.5 45.501s-5.66699 34.334 -17 47.001zM366 356l-35 -108h124l-35 108l-27 93z" />
    <glyph glyph-name="aringacute" unicode="&#x1fb;" horiz-adv-x="642" 
d="M325 1097h238l-172 -182h-183zM419 617c-28.667 -28.667 -64.667 -43 -108 -43s-79.333 14.333 -108 43c-28.667 28 -43 63.333 -43 106c0 44 14.333 80.333 43 109c28.667 28 64.667 42 108 42s79.333 -14 108 -42c28.667 -28.667 43 -65 43 -109
c0 -42.667 -14.333 -78 -43 -106zM356 770c-18 18.667 -41 22.667 -69 12s-40.667 -30.334 -38 -59.001c0 -18.667 5.83301 -33.834 17.5 -45.501s26.5 -17.5 44.5 -17.5s32.833 5.83301 44.5 17.5s17.5 26.834 17.5 45.501s-5.66699 34.334 -17 47.001zM607 0
l-199.999 0.00292969c-10 21.333 -16.333 41.666 -19 60.999c-34 -54 -89.333 -81 -166 -81c-58 0 -104 14.167 -138 42.5s-51 67.166 -51 116.499c0 42 12.833 75.667 38.5 101s66.834 42.666 123.501 51.999l181 28v37c0 30.667 -21.667 46 -65 46
c-20.667 0 -36 -4.33301 -46 -13s-15.667 -23 -17 -43l-192 7c7.33301 62 31.666 107.5 72.999 136.5s104.666 43.5 189.999 43.5c87.333 0 152.333 -14.833 195 -44.5s64 -76.834 64 -141.501v-218c0 -53.333 9.66699 -96.666 29 -129.999zM292.001 107.003
c27.333 0 49.333 7.33398 66 22.001s25 36.667 25 66v23l-88 -16c-42.667 -6.66699 -64 -23.334 -64 -50.001c0 -30 20.333 -45 61 -45z" />
    <glyph glyph-name="AEacute" unicode="&#x1fc;" horiz-adv-x="1207" 
d="M690 989h238l-172 -182h-183zM775 271v-81h392v-190h-616v131h-237l-64 -131h-235l355 712h787v-185h-382v-81h327v-175h-327zM507 527l-110 -226h154v226h-44z" />
    <glyph glyph-name="aeacute" unicode="&#x1fd;" horiz-adv-x="1022" 
d="M524 793h238l-172 -182h-183zM997 236l-0.000976562 -27.999h-377c8.66699 -58.667 40.334 -88 95.001 -88c38.667 0 65.667 14.667 81 44l189 -12c-19.333 -54 -52.5 -96.167 -99.5 -126.5s-103.167 -45.5 -168.5 -45.5c-106 0 -181.667 39 -227 117
c-41.333 -78 -119.666 -117 -234.999 -117c-70.667 0 -125.334 15 -164.001 45s-58 72.333 -58 127c0 103.333 77.333 155 232 155h118v40c0 20 -5.33301 34.333 -16 43s-28 13 -52 13c-22 0 -38.167 -3.83301 -48.5 -11.5s-16.5 -20.5 -18.5 -38.5l-191 7
c8.66699 59.333 32.334 103.166 71.001 131.499s96.334 42.5 173.001 42.5c108.667 0 181.667 -27.667 219 -83c49.333 55.333 116.666 83 201.999 83c89.333 0 157.666 -29 204.999 -87c46.667 -58.667 70 -129 70 -211zM708.999 394.001
c-50 0 -79.667 -29.001 -89 -87.001h173c-3.33301 30.667 -11.833 52.834 -25.5 66.501s-33.167 20.5 -58.5 20.5zM291.999 108c26.667 0 48.501 8 65.501 24s25.5 37 25.5 63v13h-78c-50.667 0 -76 -17 -76 -51c0 -15.333 5.66699 -27.333 17 -36s26.666 -13 45.999 -13z
" />
    <glyph glyph-name="Oslashacute" unicode="&#x1fe;" horiz-adv-x="820" 
d="M421 989h238l-172 -182h-183zM739 715l-65.001 -87.001c67.333 -69.333 101 -161 101 -275c0 -115.333 -33.333 -206.666 -100 -273.999c-67.333 -68 -155.666 -102 -264.999 -102c-72 0 -134.667 14.667 -188 44l-65 -87l-75 57l65 87c-68 68 -102 159.667 -102 275
c0 114 33.667 205.333 101 274c66.667 68 154.667 102 264 102c70 0 133 -15 189 -45l65 88zM268.999 353.999c0 -37.333 3.99902 -69.333 11.999 -96l203 272c-21.333 14 -46 21 -74 21c-45.333 0 -80.166 -16.833 -104.499 -50.5s-36.5 -82.5 -36.5 -146.5z
M409.998 154.999c46 0 81.001 16.833 105.001 50.5s36 83.167 36 148.5c0 36 -4 67 -12 93l-202 -272c21.333 -13.333 45.666 -20 72.999 -20z" />
    <glyph glyph-name="oslashacute" unicode="&#x1ff;" horiz-adv-x="630" 
d="M329 793h238l-172 -182h-183zM583 500l-46.001 -53.001c45.333 -51.333 68 -114.666 68 -189.999c0 -83.333 -26.333 -150.333 -79 -201s-123 -76 -211 -76c-59.333 0 -110.666 11.667 -153.999 35l-51 -58l-62 54l47 54c-46.667 49.333 -70 113.333 -70 192
c0 82.667 26.667 149.667 80 201c52.667 50.667 122.667 76 210 76c60 0 112.333 -12.333 157 -37l49 57zM230.999 256.999c0 -18 0.333984 -29.333 1.00098 -34l134 153c-13.333 12 -30.333 18 -51 18c-28.667 0 -49.834 -11 -63.501 -33s-20.5 -56.667 -20.5 -104z
M315 119.999c28.667 0 49.833 11 63.5 33s20.5 56.667 20.5 104c0 16 -0.333008 26.333 -1 31l-132 -152c12.667 -10.667 29 -16 49 -16z" />
    <glyph glyph-name="uni0218" unicode="&#x218;" horiz-adv-x="720" 
d="M331 477l150.002 -33.001c135.333 -30 203 -104.333 203 -223c0 -77.333 -28.5 -137.333 -85.5 -180s-136.167 -64 -237.5 -64c-98.667 0 -175.834 22.167 -231.501 66.5s-86.834 108.5 -93.501 192.5h225c4.66699 -54 41 -81 109 -81c58.667 0 88 18 88 54
c0 28.667 -21 47.334 -63 56.001l-149 33c-128 28 -192 97 -192 207c0 70.667 25 125.667 75 165s125 59 225 59c189.333 0 288 -73.667 296 -221h-217c-6 36.667 -33.333 55 -82 55c-49.333 0 -74 -14 -74 -42c0 -21.333 18 -36 54 -44zM391.002 -203.001l-140 -13v129h225
v-136c0 -91.333 -48.333 -137 -145 -137h-80v77h72c45.333 0 68 20 68 60v20z" />
    <glyph glyph-name="uni0219" unicode="&#x219;" horiz-adv-x="606" 
d="M286 334l77 -8c138.667 -14.667 208 -68.667 208 -162c0 -60 -23.667 -105.667 -71 -137s-113.666 -47 -198.999 -47c-79.333 0 -141.833 16 -187.5 48s-71.834 76.667 -78.501 134h190c6 -40.667 34 -61 84 -61c23.333 0 41.5 4.66699 54.5 14s19.5 22 19.5 38
c0 26.667 -19 42 -57 46l-78 7c-134.667 12 -202 63.667 -202 155c0 55.333 22.167 98 66.5 128s106.833 45 187.5 45c153.333 0 238.333 -54.333 255 -163h-184c-6 34 -32 51 -78 51c-44 0 -66 -14.333 -66 -43c0 -26 19.667 -41 59 -45zM329 -209l-140 -13v129h225v-136
c0 -91.333 -48.333 -137 -145 -137h-80v77h72c45.333 0 68 20 68 60v20z" />
    <glyph glyph-name="uni021A" unicode="&#x21a;" horiz-adv-x="675" 
d="M20 712h635v-192h-205v-520h-224v520h-206v192zM366 -201l-140 -13v129h225v-136c0 -91.333 -48.333 -137 -145 -137h-80v77h72c45.333 0 68 20 68 60v20z" />
    <glyph glyph-name="uni021B" unicode="&#x21b;" horiz-adv-x="431" 
d="M391 396l-95 2v-191c0 -37.333 16.667 -56 50 -56h45v-151h-117c-68 0 -115 13 -141 39s-39 73 -39 141v218l-79 -2v120l79 -2v158h202v-158l95 2v-120zM233 -201l-140 -13v129h225v-136c0 -91.333 -48.333 -137 -145 -137h-80v77h72c45.333 0 68 20 68 60v20z" />
    <glyph glyph-name="uni0237" unicode="&#x237;" horiz-adv-x="302" 
d="M30 -215h-68v143h35c35.333 0 53 19 53 57v531h202v-531c0 -69.333 -18 -120 -54 -152s-92 -48 -168 -48z" />
    <glyph glyph-name="uni0259" unicode="&#x259;" horiz-adv-x="624" 
d="M309 536c89.333 0 160.003 -25.001 212.003 -75.001c52 -51.333 78 -118.666 78 -201.999s-26.333 -150.333 -79 -201s-122.334 -76 -209.001 -76c-61.333 0 -114.333 14.333 -159 43s-77.334 66 -98.001 112c-19.333 44 -29 91.333 -29 142v29h377
c-8.66699 58.667 -40.334 88 -95.001 88c-38.667 0 -65.667 -14.667 -81 -44l-189 12c18.667 54.667 51.5 97 98.5 127s104.833 45 173.5 45zM313.003 121.999c46.667 0 75.667 25.667 87 77h-171c7.33301 -51.333 35.333 -77 84 -77z" />
    <glyph glyph-name="h.sups" unicode="&#x2b0;" horiz-adv-x="538" 
d="M334 723c48.667 0 86.5 -12.5 113.5 -37.5s40.5 -61.167 40.5 -108.5v-239h-161v194c0 35.333 -17.333 53 -52 53c-18.667 0 -34 -5.66699 -46 -17s-18 -23.333 -18 -36v-194h-161v516h161v-184c29.333 35.333 70.333 53 123 53z" />
    <glyph glyph-name="r.sups" unicode="&#x2b3;" horiz-adv-x="379" 
d="M325 722h29.001v-145h-42c-36 0 -61.833 -7.83301 -77.5 -23.5s-23.5 -41.167 -23.5 -76.5v-139h-161v374h142l9 -56c23.333 44 64.666 66 123.999 66z" />
    <glyph glyph-name="circumflex" unicode="&#x2c6;" horiz-adv-x="500" 
d="M165 606h-164l159 179h181l159 -179h-164l-86 96z" />
    <glyph glyph-name="caron" unicode="&#x2c7;" horiz-adv-x="500" 
d="M341 606h-181l-159 179h164l85 -96l86 96h164z" />
    <glyph glyph-name="uni02C9" unicode="&#x2c9;" horiz-adv-x="500" 
d="M439 614h-378v118h378v-118z" />
    <glyph glyph-name="breve" unicode="&#x2d8;" horiz-adv-x="500" 
d="M415 645c-32.667 -28 -87.667 -42 -165 -42s-132.333 14 -165 42s-49 75 -49 141h118c0 -28 7.5 -48 22.5 -60s39.5 -18 73.5 -18s58.5 6 73.5 18s22.5 32 22.5 60h118c0 -66 -16.333 -113 -49 -141z" />
    <glyph glyph-name="dotaccent" unicode="&#x2d9;" horiz-adv-x="500" 
d="M348 580h-195v132h195v-132z" />
    <glyph glyph-name="ring" unicode="&#x2da;" horiz-adv-x="500" 
d="M358 624c-28.667 -28.667 -64.667 -43 -108 -43s-79.333 14.333 -108 43c-28.667 28 -43 63.333 -43 106c0 44 14.333 80.333 43 109c29.333 28 65.333 42 108 42s78.667 -14 108 -42c28.667 -28.667 43 -65 43 -109c0 -42.667 -14.333 -78 -43 -106zM206 685
c17.333 -19.333 40 -23.667 68 -13s40.667 30 38 58c0 19.333 -5.83301 34.833 -17.5 46.5s-26.5 17.5 -44.5 17.5s-32.833 -5.83301 -44.5 -17.5s-17.5 -27.167 -17.5 -46.5c0 -18.667 6 -33.667 18 -45z" />
    <glyph glyph-name="ogonek" unicode="&#x2db;" horiz-adv-x="500" 
d="M290 -235h-85c-52 0 -91.833 10.167 -119.5 30.5s-41.5 48.5 -41.5 84.5c0 46 23.333 81 70 105l67 34l164 -19l-111 -51c-24 -11.333 -36 -27.333 -36 -48c0 -31.333 19.333 -47 58 -47h34v-89z" />
    <glyph glyph-name="tilde" unicode="&#x2dc;" horiz-adv-x="500" 
d="M135 601l-125.998 -0.000976562c0 61.333 12 109.333 36 144s59.333 52 106 52c24.667 0.666992 49 -5.33301 73 -18s44.667 -25.167 62 -37.5s30.333 -18.166 39 -17.499c27.333 0 41 21.333 41 64h126c0 -60.667 -12.333 -108.5 -37 -143.5
s-60.334 -52.5 -107.001 -52.5c-22 0 -42.333 3.83301 -61 11.5s-33.334 16 -44.001 25s-22 17.333 -34 25s-23 11.5 -33 11.5c-27.333 0 -41 -21.333 -41 -64z" />
    <glyph glyph-name="hungarumlaut" unicode="&#x2dd;" horiz-adv-x="500" 
d="M111 600h-173l101 190h215zM410 600h-172l110 190h214z" />
    <glyph glyph-name="s.sups" unicode="&#x2e2;" horiz-adv-x="489" 
d="M244 321c-121.333 0 -194.332 35.3311 -218.999 105.998l149 22c8.66699 -24.667 35 -37 79 -37c45.333 0 68 10 68 30c0 15.333 -15.333 24.333 -46 27l-82 7c-52.667 4.66699 -91.5 16.334 -116.5 35.001s-37.5 46 -37.5 82c0 42 17.333 74.5 52 97.5s85 34.5 151 34.5
c113.333 0 182.333 -34 207 -102l-142 -16c-6.66699 18.667 -30.334 28 -71.001 28s-61 -9 -61 -27c0 -14 12.667 -21.667 38 -23l105 -8c97.333 -8 146 -47.333 146 -118c0 -45.333 -19.167 -79.666 -57.5 -102.999s-92.5 -35 -162.5 -35z" />
    <glyph glyph-name="gravecomb" unicode="&#x300;" horiz-adv-x="0" 
d="M103 611h-183l-172 182h238z" />
    <glyph glyph-name="acutecomb" unicode="&#x301;" horiz-adv-x="0" 
d="M80 611h-183l117 182h238z" />
    <glyph glyph-name="uni0302" unicode="&#x302;" horiz-adv-x="0" 
d="M-85 606h-164l159 179h181l159 -179h-164l-86 96z" />
    <glyph glyph-name="tildecomb" unicode="&#x303;" horiz-adv-x="0" 
d="M-117 601l-125.998 -0.000976562c0 61.333 12 109.333 36 144s59.333 52 106 52c24.667 0.666992 49 -5.33301 73 -18s44.667 -25.167 62 -37.5s30.333 -18.166 39 -17.499c27.333 0 41 21.333 41 64h126c0 -60.667 -12.333 -108.5 -37 -143.5
s-60.334 -52.5 -107.001 -52.5c-22 0 -42.333 3.83301 -61 11.5s-33.334 16 -44.001 25s-22 17.333 -34 25s-23 11.5 -33 11.5c-27.333 0 -41 -21.333 -41 -64z" />
    <glyph glyph-name="uni0304" unicode="&#x304;" horiz-adv-x="0" 
d="M189 614h-378v118h378v-118z" />
    <glyph glyph-name="uni0306" unicode="&#x306;" horiz-adv-x="0" 
d="M165 645c-32.667 -28 -87.667 -42 -165 -42s-132.333 14 -165 42s-49 75 -49 141h118c0 -28 7.5 -48 22.5 -60s39.5 -18 73.5 -18s58.5 6 73.5 18s22.5 32 22.5 60h118c0 -66 -16.333 -113 -49 -141z" />
    <glyph glyph-name="uni0307" unicode="&#x307;" horiz-adv-x="0" 
d="M98 580h-195v132h195v-132z" />
    <glyph glyph-name="uni0308" unicode="&#x308;" horiz-adv-x="0" 
d="M-52 580h-195v132h195v-132zM247 580h-195v132h195v-132z" />
    <glyph glyph-name="uni030A" unicode="&#x30a;" horiz-adv-x="0" 
d="M108 624c-28.667 -28.667 -64.667 -43 -108 -43s-79.333 14.333 -108 43c-28.667 28 -43 63.333 -43 106c0 44 14.333 80.333 43 109c29.333 28 65.333 42 108 42s78.667 -14 108 -42c28.667 -28.667 43 -65 43 -109c0 -42.667 -14.333 -78 -43 -106zM-45 685
c18 -19.333 41 -23.667 69 -13s40.667 30 38 58c0 19.333 -5.83301 34.833 -17.5 46.5s-26.5 17.5 -44.5 17.5s-32.833 -5.83301 -44.5 -17.5s-17.5 -27.167 -17.5 -46.5c0 -18.667 5.66699 -33.667 17 -45z" />
    <glyph glyph-name="uni030B" unicode="&#x30b;" horiz-adv-x="0" 
d="M-85 600h-173l101 190h215zM214 600h-172l110 190h214z" />
    <glyph glyph-name="uni030C" unicode="&#x30c;" horiz-adv-x="0" 
d="M91 606h-181l-159 179h164l85 -96l86 96h164z" />
    <glyph glyph-name="uni0312" unicode="&#x312;" horiz-adv-x="0" 
d="M112 776h-72c-45.333 0 -68 -20 -68 -60v-20l140 13v-129h-225v136c0 91.333 48.333 137 145 137h80v-77z" />
    <glyph glyph-name="uni0313" unicode="&#x313;" horiz-adv-x="0" 
d="M-113 724v129h225v-136c0 -91.333 -48.333 -137 -145 -137h-80v77h72c45.333 0 68 20 68 60v20z" />
    <glyph glyph-name="dotbelowcomb" unicode="&#x323;" horiz-adv-x="0" 
d="M98 -247h-195v143h195v-143z" />
    <glyph glyph-name="uni0324" unicode="&#x324;" horiz-adv-x="0" 
d="M-52 -247h-195v143h195v-143zM247 -247h-195v143h195v-143z" />
    <glyph glyph-name="uni0325" unicode="&#x325;" horiz-adv-x="0" 
d="M101 -306c-26.667 -26.667 -60.334 -40 -101.001 -40s-74.334 13.333 -101.001 40s-40 60.334 -40 101.001c0 40 13.333 73.167 40 99.5s60.334 39.5 101.001 39.5s74.334 -13.167 101.001 -39.5s40 -59.5 40 -99.5c0 -40.667 -13.333 -74.334 -40 -101.001zM-42 -249
c17.333 -18 38.833 -21.832 64.5 -11.499s37.5 28.833 35.5 55.5c0 17.333 -5.5 31.5 -16.5 42.5s-24.833 16.5 -41.5 16.5s-30.5 -5.5 -41.5 -16.5s-16.5 -25.167 -16.5 -42.5c0 -18.667 5.33301 -33.334 16 -44.001z" />
    <glyph glyph-name="uni0326" unicode="&#x326;" horiz-adv-x="0" 
d="M-112 -214v129h225v-136c0 -91.333 -48.333 -137 -145 -137h-80v77h72c45.333 0 68 20 68 60v20z" />
    <glyph glyph-name="uni0327" unicode="&#x327;" horiz-adv-x="0" 
d="M-54 -259h-38v70h12c49.333 0 74 11.333 74 34c0 20 -14.333 30 -43 30h-18l-40 49l67 76h91l-60 -62h21c83.333 0 125 -29.667 125 -89c0 -72 -63.667 -108 -191 -108z" />
    <glyph glyph-name="uni0328" unicode="&#x328;" horiz-adv-x="0" 
d="M-55 -235h-85c-52 0 -91.833 10.167 -119.5 30.5s-41.5 48.5 -41.5 84.5c0 46 23.333 81 70 105l67 34l164 -19l-111 -51c-24 -11.333 -36 -27.333 -36 -48c0 -31.333 19.333 -47 58 -47h34v-89z" />
    <glyph glyph-name="uni032E" unicode="&#x32e;" horiz-adv-x="0" 
d="M165 -228c-32.667 -28 -87.667 -42 -165 -42s-132.333 14 -165 42s-49 75 -49 141h118c0 -28 7.5 -48 22.5 -60s39.5 -18 73.5 -18s58.5 6 73.5 18s22.5 32 22.5 60h118c0 -66 -16.333 -113 -49 -141z" />
    <glyph glyph-name="uni0331" unicode="&#x331;" horiz-adv-x="0" 
d="M189 -216h-378v118h378v-118z" />
    <glyph glyph-name="uni0335" unicode="&#x335;" horiz-adv-x="0" 
d="M-188 318l-188 -5v120l188 -5l188 5v-120z" />
    <glyph glyph-name="uni0337" unicode="&#x337;" horiz-adv-x="0" 
d="M254 516l-434 -582l-75 57l434 582z" />
    <glyph glyph-name="uni0338" unicode="&#x338;" horiz-adv-x="0" 
d="M329 715l-583 -781l-75 57l583 781z" />
    <glyph glyph-name="uni0394" unicode="&#x394;" horiz-adv-x="786" 
d="M283 712h222l266 -712h-756zM361 375l-69 -204h202l-69 204l-32 110z" />
    <glyph glyph-name="uni03A9" unicode="&#x3a9;" horiz-adv-x="849" 
d="M389 0l-343.999 -0.000976562v182h136v3c-86.667 62.667 -130 144 -130 244c0 90.667 32.333 163.334 97 218.001s157 82 277 82c119.333 0 211.333 -27.333 276 -82s97 -127.334 97 -218.001c0 -99.333 -43 -180.666 -129 -243.999v-3h135v-182h-342v163
c38.667 20 67.167 46.333 85.5 79s27.5 76 27.5 130c0 130 -50 195 -150 195s-150 -65 -150 -195c0 -54 9.16699 -97.333 27.5 -130s47.166 -59 86.499 -79v-163z" />
    <glyph glyph-name="uni03BC" unicode="&#x3bc;" horiz-adv-x="648" 
d="M252 -204h-202.001v720h202v-290c0 -24 5.83301 -42.667 17.5 -56s27.834 -20 48.501 -20c23.333 0 42.166 8.5 56.499 25.5s21.5 39.167 21.5 66.5v274h202v-516h-185l-7 65c-32 -49.333 -81 -74 -147 -74c-13.333 0 -31.666 1.66699 -54.999 5l-1 -3l49 -103v-94z" />
    <glyph glyph-name="pi" unicode="&#x3c0;" horiz-adv-x="806" 
d="M766 516v-190h-121v-126c0 -29.333 14.333 -44 43 -44h41v-156h-132c-49.333 0 -87.333 14 -114 42s-40 67.667 -40 119v165h-100v-326h-202v326h-126v190h751z" />
    <glyph glyph-name="d.sups" unicode="&#x1d48;" horiz-adv-x="543" 
d="M332 685v168.999h161v-516h-147l-7 47c-26.667 -40.667 -69 -61 -127 -61c-57.333 0 -102.833 17.833 -136.5 53.5s-50.5 84.834 -50.5 147.501c0 64 17 113.333 51 148s80 52 138 52c52 0 91.333 -13.333 118 -40zM259 454.999c51.333 0 77 24 77 72
c0 48.667 -26 73 -78 73c-23.333 0 -40.833 -5.5 -52.5 -16.5s-17.5 -29.5 -17.5 -55.5s5.83301 -44.667 17.5 -56s29.5 -17 53.5 -17z" />
    <glyph glyph-name="t.sups" unicode="&#x1d57;" horiz-adv-x="364" 
d="M324 712v-100l-76 1v-113c0 -26 14 -39 42 -39h34v-123h-89c-54 0 -92.167 10 -114.5 30s-33.5 57 -33.5 111v134l-72 -1v100l72 -2v116h161v-116z" />
    <glyph glyph-name="Wgrave" unicode="&#x1e80;" horiz-adv-x="1035" 
d="M504 989l117 -182h-183l-172 182h238zM733 441l66 271h221l-206 -712h-216l-80 420l-75 -420h-222l-206 712h220l67 -271l32 -184l29 183l55 272h198l60 -272l28 -179z" />
    <glyph glyph-name="wgrave" unicode="&#x1e81;" horiz-adv-x="893" 
d="M432 793l117 -182h-183l-172 182h238zM633 293l63 223h192l-170 -516h-196l-67 249l-8 37l-9 -38l-67 -248h-196l-170 516h204l64 -225l15 -69l14 68l54 226h177l58 -221l20 -89z" />
    <glyph glyph-name="Wacute" unicode="&#x1e82;" horiz-adv-x="1035" 
d="M532 989h238l-172 -182h-183zM733 441l66 271h221l-206 -712h-216l-80 420l-75 -420h-222l-206 712h220l67 -271l32 -184l29 183l55 272h198l60 -272l28 -179z" />
    <glyph glyph-name="wacute" unicode="&#x1e83;" horiz-adv-x="893" 
d="M460 793h238l-172 -182h-183zM633 293l63 223h192l-170 -516h-196l-67 249l-8 37l-9 -38l-67 -248h-196l-170 516h204l64 -225l15 -69l14 68l54 226h177l58 -221l20 -89z" />
    <glyph glyph-name="Wdieresis" unicode="&#x1e84;" horiz-adv-x="1035" 
d="M271 959h195v-143h-195v143zM570 959h195v-143h-195v143zM733 441l66 271h221l-206 -712h-216l-80 420l-75 -420h-222l-206 712h220l67 -271l32 -184l29 183l55 272h198l60 -272l28 -179z" />
    <glyph glyph-name="wdieresis" unicode="&#x1e85;" horiz-adv-x="893" 
d="M199 712h195v-132h-195v132zM498 712h195v-132h-195v132zM633 293l63 223h192l-170 -516h-196l-67 249l-8 37l-9 -38l-67 -248h-196l-170 516h204l64 -225l15 -69l14 68l54 226h177l58 -221l20 -89z" />
    <glyph glyph-name="uni1E9E" unicode="&#x1e9e;" horiz-adv-x="774" 
d="M712 544l-110.001 -128c48 -15.333 84.5 -39.5 109.5 -72.5s37.5 -72.5 37.5 -118.5c0 -73.333 -25.167 -129.833 -75.5 -169.5s-125.5 -59.5 -225.5 -59.5c-13.333 0 -34.666 1 -63.999 3v171c6 0.666992 21.667 1 47 1c29.333 0 50.833 4 64.5 12s20.5 21.667 20.5 41
c0 34.667 -29.667 52 -89 52h-56v125l113 142c-23.333 3.33301 -49.333 5 -78 5c-82 0 -123 -36 -123 -108v-440h-223v438c0 96 31 168.333 93 217c61.333 49.333 144.333 74 249 74c86.667 0 190 -7.33301 310 -22v-163z" />
    <glyph glyph-name="Ygrave" unicode="&#x1ef2;" horiz-adv-x="768" 
d="M376 989l117 -182h-183l-172 182h238zM414 523l95 189h248l-261 -452v-260h-224v260l-261 452h250l91 -189l31 -81z" />
    <glyph glyph-name="ygrave" unicode="&#x1ef3;" horiz-adv-x="604" 
d="M288 793l117 -182h-183l-172 182h238zM302 204l85.999 311.999h211l-205 -588c-16.667 -47.333 -40.167 -81.166 -70.5 -101.499s-72.166 -30.5 -125.499 -30.5h-118v159h71c28.667 0 47.667 11.667 57 35l5 13l-208 513h215l62 -206z" />
    <glyph glyph-name="thinspace" unicode="&#x2009;" horiz-adv-x="302" 
 />
    <glyph glyph-name="uni2011" unicode="&#x2011;" horiz-adv-x="347" 
d="M319 197h-291v153h291v-153z" />
    <glyph glyph-name="endash" unicode="&#x2013;" horiz-adv-x="526" 
d="M498 197h-470v153h470v-153z" />
    <glyph glyph-name="emdash" unicode="&#x2014;" horiz-adv-x="752" 
d="M724 197h-696v153h696v-153z" />
    <glyph glyph-name="quoteleft" unicode="&#x2018;" horiz-adv-x="300" 
d="M260 321h-220v220c0 117.333 62 176 186 176h34v-98h-25c-58 0 -87 -25.667 -87 -77v-29h112v-192z" />
    <glyph glyph-name="quoteright" unicode="&#x2019;" horiz-adv-x="300" 
d="M74 316h-34v98h25c58 0 87 25.667 87 77v29h-112v192h220v-220c0 -117.333 -62 -176 -186 -176z" />
    <glyph glyph-name="quotesinglbase" unicode="&#x201a;" horiz-adv-x="330" 
d="M89 -204h-34v98h25c58 0 87 25.667 87 77v29h-112v192h220v-220c0 -117.333 -62 -176 -186 -176z" />
    <glyph glyph-name="quotedblleft" unicode="&#x201c;" horiz-adv-x="600" 
d="M260 321h-220v220c0 117.333 62 176 186 176h34v-98h-25c-58 0 -87 -25.667 -87 -77v-29h112v-192zM560 321h-220v220c0 117.333 62 176 186 176h34v-98h-25c-58 0 -87 -25.667 -87 -77v-29h112v-192z" />
    <glyph glyph-name="quotedblright" unicode="&#x201d;" horiz-adv-x="600" 
d="M74 316h-34v98h25c58 0 87 25.667 87 77v29h-112v192h220v-220c0 -117.333 -62 -176 -186 -176zM374 316h-34v98h25c58 0 87 25.667 87 77v29h-112v192h220v-220c0 -117.333 -62 -176 -186 -176z" />
    <glyph glyph-name="quotedblbase" unicode="&#x201e;" horiz-adv-x="635" 
d="M89 -204h-34v98h25c58 0 87 25.667 87 77v29h-112v192h220v-220c0 -117.333 -62 -176 -186 -176zM394 -204h-34v98h25c58 0 87 25.667 87 77v29h-112v192h220v-220c0 -117.333 -62 -176 -186 -176z" />
    <glyph glyph-name="dagger" unicode="&#x2020;" horiz-adv-x="709" 
d="M456 616l193 14v-178l-193 14v-571h-202v571l-194 -14v178l194 -14v234h202v-234z" />
    <glyph glyph-name="daggerdbl" unicode="&#x2021;" horiz-adv-x="709" 
d="M649 630v-178l-193 14v-187l193 14v-178l-193 14v-234h-202v234l-194 -14v178l194 -14v187l-194 -14v178l194 -14v234h202v-234z" />
    <glyph glyph-name="bullet" unicode="&#x2022;" horiz-adv-x="502" 
d="M442 112h-382v333h382v-333z" />
    <glyph glyph-name="ellipsis" unicode="&#x2026;" horiz-adv-x="980" 
d="M270 0h-220v192h220v-192zM600 0h-220v192h220v-192zM930 0h-220v192h220v-192z" />
    <glyph glyph-name="perthousand" unicode="&#x2030;" horiz-adv-x="1739" 
d="M273 277c-68 0 -120.5 19.833 -157.5 59.5s-55.5 95.167 -55.5 166.5c0 72 18.5 127.667 55.5 167s89.5 59 157.5 59c67.333 0 119.333 -19.667 156 -59s55 -95 55 -167s-18.333 -127.667 -55 -167s-88.667 -59 -156 -59zM441 -15h-140l492 742h138zM273 385
c55.333 0 83 39.333 83 118c0 78 -27.667 117 -83 117c-56 0 -84 -39 -84 -117c0 -78.667 28 -118 84 -118zM969 -16c-68 0 -120.5 19.833 -157.5 59.5s-55.5 95.167 -55.5 166.5c0 72 18.5 127.667 55.5 167s89.5 59 157.5 59c67.333 0 119.333 -19.667 156 -59
s55 -95 55 -167s-18.333 -127.667 -55 -167s-88.667 -59 -156 -59zM1468 -16c-68 0 -120.5 19.833 -157.5 59.5s-55.5 95.167 -55.5 166.5c0 72 18.5 127.667 55.5 167s89.5 59 157.5 59c67.333 0 119.333 -19.667 156 -59s55 -95 55 -167s-18.333 -127.667 -55 -167
s-88.667 -59 -156 -59zM969 92c55.333 0 83 39.333 83 118c0 78 -27.667 117 -83 117c-56 0 -84 -39 -84 -117c0 -78.667 28 -118 84 -118zM1468 92c55.333 0 83 39.333 83 118c0 78 -27.667 117 -83 117c-56 0 -84 -39 -84 -117c0 -78.667 28 -118 84 -118z" />
    <glyph glyph-name="guilsinglleft" unicode="&#x2039;" horiz-adv-x="358" 
d="M308 165v-180l-258 173v197l258 173v-179l-144 -92z" />
    <glyph glyph-name="guilsinglright" unicode="&#x203a;" horiz-adv-x="358" 
d="M308 158l-258 -173v180l144 92l-144 92v179l258 -173v-197z" />
    <glyph glyph-name="uni203D" unicode="&#x203d;" horiz-adv-x="729" 
d="M353 729c108.667 0 190.999 -18.335 246.999 -55.002s84 -89.667 84 -159c0 -79.333 -40.333 -135 -121 -167l-32 -13c-40 -16 -68.333 -30.667 -85 -44s-27.667 -30.333 -33 -51h-116l-23 161v114h162v-83c19.333 8.66699 32.833 18.334 40.5 29.001
s11.5 24.334 11.5 41.001c0 26.667 -10.167 45.5 -30.5 56.5s-54.5 16.5 -102.5 16.5s-81.5 -5.83301 -100.5 -17.5s-29.5 -32.5 -31.5 -62.5h-187c3.33301 80 30.833 139 82.5 177s129.834 57 234.501 57zM455.999 -0.00195312h-202v183h202v-183z" />
    <glyph glyph-name="fraction" unicode="&#x2044;" horiz-adv-x="380" 
d="M15 -15h-140l492 742h138z" />
    <glyph glyph-name="zero.sups" unicode="&#x2070;" horiz-adv-x="514" 
d="M258 330c-68 0 -120.5 19.833 -157.5 59.5s-55.5 95.167 -55.5 166.5c0 72 18.5 127.667 55.5 167s89.5 59 157.5 59c67.333 0 119.333 -19.667 156 -59s55 -95 55 -167s-18.333 -127.667 -55 -167s-88.667 -59 -156 -59zM258 438c55.333 0 83 39.333 83 118
c0 78 -27.667 117 -83 117c-56 0 -84 -39 -84 -117c0 -78.667 28 -118 84 -118z" />
    <glyph glyph-name="four.sups" unicode="&#x2074;" horiz-adv-x="468" 
d="M375 337h-123v96l-232 -10v101l209 240h146v-251l73 11v-101l-73 10v-96zM250 644l-111 -124l113 -7v131h-2z" />
    <glyph glyph-name="five.sups" unicode="&#x2075;" horiz-adv-x="497" 
d="M244 321c-91.333 0 -156.334 28.333 -195.001 85l114 53c14.667 -22.667 41.334 -34 80.001 -34c24.667 0 44.334 4.66699 59.001 14s22 22 22 38c0 32.667 -26.333 49 -79 49c-30 0 -54.667 -6.33301 -74 -19l-114 30l48 227h319v-95h-233l-15 -67l2 -1
c27.333 10.667 59.666 16 96.999 16c55.333 0 97.833 -12.167 127.5 -36.5s44.5 -58.5 44.5 -102.5c0 -48 -17.833 -86.167 -53.5 -114.5s-85.5 -42.5 -149.5 -42.5z" />
    <glyph glyph-name="six.sups" unicode="&#x2076;" horiz-adv-x="512" 
d="M265 329c-68.667 0 -121.667 19.001 -159 57.001s-56 92.333 -56 163c0 68.667 17.667 124.667 53 168c34.667 42.667 90.334 64 167.001 64c80.667 0 141.334 -27.333 182.001 -82l-107 -41c-19.333 20 -44 30 -74 30c-30.667 0 -53.334 -7.83301 -68.001 -23.5
s-23.334 -41.167 -26.001 -76.5c28.667 20 67 30 115 30c54 0 95.833 -12 125.5 -36s44.5 -57.333 44.5 -100c0 -46.667 -17.5 -83.834 -52.5 -111.501s-83.167 -41.5 -144.5 -41.5zM264 421.001c23.333 0 41.834 5.5 55.501 16.5s20.5 25.833 20.5 44.5
c0 18 -7 32.167 -21 42.5s-32 15.5 -54 15.5c-40 0 -68.667 -14.667 -86 -44c7.33301 -50 35.666 -75 84.999 -75z" />
    <glyph glyph-name="seven.sups" unicode="&#x2077;" horiz-adv-x="423" 
d="M241 338l-126 0.000976562c2 61.333 15.833 120.833 41.5 178.5s59.167 106.167 100.5 145.5h-237v103h383v-104c-55.333 -42.667 -95.833 -88.834 -121.5 -138.501s-39.167 -111.167 -40.5 -184.5z" />
    <glyph glyph-name="eight.sups" unicode="&#x2078;" horiz-adv-x="519" 
d="M259 329c-64.667 0 -115.667 11.5 -153 34.5s-56 55.833 -56 98.5c0 26 7.33301 48.167 22 66.5s35.334 30.833 62.001 37.5v2c-46 16 -69 47 -69 93c0 38 17 67.5 51 88.5s81.667 31.5 143 31.5s109.166 -10.5 143.499 -31.5s51.5 -50.5 51.5 -88.5
c0 -44.667 -23 -75.667 -69 -93v-2c26 -6.66699 46.5 -19.167 61.5 -37.5s22.5 -40.5 22.5 -66.5c0 -42.667 -19 -75.5 -57 -98.5s-89 -34.5 -153 -34.5zM259 606c50.667 0 76 14.333 76 43c0 28 -25.333 42 -76 42c-50 0 -75 -14 -75 -42c0 -28.667 25 -43 75 -43zM195 432
c15.333 -9.33301 36.668 -14 64.001 -14s48.666 4.66699 63.999 14s23 22.333 23 39c0 32.667 -29 49 -87 49s-87 -16.333 -87 -49c0 -16.667 7.66699 -29.667 23 -39z" />
    <glyph glyph-name="nine.sups" unicode="&#x2079;" horiz-adv-x="512" 
d="M242 330c-80.667 0 -141.335 27.333 -182.002 82l107 41c19.333 -20 44 -30 74 -30c30.667 0 53.334 7.83301 68.001 23.5s23.334 41.167 26.001 76.5c-28.667 -20 -67 -30 -115 -30c-54 0 -95.833 12 -125.5 36s-44.5 57.333 -44.5 100
c0 46.667 17.5 83.834 52.5 111.501s83.167 41.5 144.5 41.5c68.667 0 121.667 -19 159 -57s56 -92.333 56 -163c0 -68.667 -17.333 -124.334 -52 -167.001c-35.333 -43.333 -91.333 -65 -168 -65zM246.999 571c40 0 68.666 14.667 85.999 44
c-7.33301 50 -35.666 75 -84.999 75c-23.333 0 -41.833 -5.5 -55.5 -16.5s-20.5 -25.833 -20.5 -44.5c0 -18 7 -32.167 21 -42.5s32 -15.5 54 -15.5z" />
    <glyph glyph-name="plus.sups" unicode="&#x207a;" horiz-adv-x="531" 
d="M332 599h169v-119h-169v-142h-133v142h-168v119h168v141h133v-141z" />
    <glyph glyph-name="minus.sups" unicode="&#x207b;" horiz-adv-x="530" 
d="M500 478h-469v119h469v-119z" />
    <glyph glyph-name="parenleft.sups" unicode="&#x207d;" horiz-adv-x="355" 
d="M320 190h-165c-78 106.667 -117 222 -117 346c0 124.667 39 239.334 117 344.001h165c-72.667 -110.667 -109 -226.334 -109 -347.001c0 -118 36.333 -232.333 109 -343z" />
    <glyph glyph-name="parenright.sups" unicode="&#x207e;" horiz-adv-x="355" 
d="M199 190l-164 -0.000976562c72 108.667 108 223 108 343c0 120.667 -36 236.334 -108 347.001h164c78.667 -104.667 118 -219.334 118 -344.001c0 -123.333 -39.333 -238.666 -118 -345.999z" />
    <glyph glyph-name="n.sups" unicode="&#x207f;" horiz-adv-x="548" 
d="M339 723c48.667 0 86.5 -12.5 113.5 -37.5s40.5 -61.167 40.5 -108.5v-239h-161v194c0 35.333 -17.333 53 -52 53c-18.667 0 -34 -5.66699 -46 -17s-18 -23.333 -18 -36v-194h-161v374h152l5 -47c28.667 38.667 71 58 127 58z" />
    <glyph glyph-name="zero.subs" unicode="&#x2080;" horiz-adv-x="514" 
d="M258 -208c-68 0 -120.5 19.833 -157.5 59.5s-55.5 95.167 -55.5 166.5c0 72 18.5 127.667 55.5 167s89.5 59 157.5 59c67.333 0 119.333 -19.667 156 -59s55 -95 55 -167s-18.333 -127.667 -55 -167s-88.667 -59 -156 -59zM258 -100c55.333 0 83 39.333 83 118
c0 78 -27.667 117 -83 117c-56 0 -84 -39 -84 -117c0 -78.667 28 -118 84 -118z" />
    <glyph glyph-name="one.subs" unicode="&#x2081;" horiz-adv-x="313" 
d="M263 -192h-126v254h-112v94h20c32 0 55.333 5.5 70 16.5s22 28.5 22 52.5v10h126v-427z" />
    <glyph glyph-name="two.subs" unicode="&#x2082;" horiz-adv-x="510" 
d="M460 -192l-410 0.000976562c0 105.333 45.667 172.666 137 201.999l89 29c38 12 57 30.333 57 55c0 30.667 -23.333 46 -70 46c-47.333 0 -75.333 -18 -84 -54l-117 17c17.333 94 84 141 200 141c60 0 107 -12.5 141 -37.5s51 -60.5 51 -106.5
c0 -71.333 -43.333 -118 -130 -140l-73 -19c-28 -6.66699 -43.667 -16.667 -47 -30h256v-103z" />
    <glyph glyph-name="three.subs" unicode="&#x2083;" horiz-adv-x="504" 
d="M247 -208c-115.333 0 -180.999 45.667 -196.999 137l118 15c10.667 -36.667 37.667 -55 81 -55c49.333 0 74 15.667 74 47c0 28 -23.333 42 -70 42h-55v94h51c44 0 66 13 66 39c0 28.667 -23 43 -69 43c-21.333 0 -37.833 -3.66699 -49.5 -11
s-20.834 -19.666 -27.501 -36.999l-116 16c11.333 39.333 34.166 69.5 68.499 90.5s77.833 31.5 130.5 31.5c54.667 0 99 -11 133 -33s51 -51.667 51 -89c0 -40.667 -22.333 -70.334 -67 -89.001v-2c56.667 -18 85 -52.333 85 -103c0 -42.667 -18.167 -76 -54.5 -100
s-87.166 -36 -152.499 -36z" />
    <glyph glyph-name="four.subs" unicode="&#x2084;" horiz-adv-x="468" 
d="M375 -192h-123v96l-232 -10v101l209 240h146v-251l73 11v-101l-73 10v-96zM250 115l-111 -124l113 -7v131h-2z" />
    <glyph glyph-name="five.subs" unicode="&#x2085;" horiz-adv-x="497" 
d="M244 -208c-91.333 0 -156.334 28.333 -195.001 85l114 53c14.667 -22.667 41.334 -34 80.001 -34c24.667 0 44.334 4.66699 59.001 14s22 22 22 38c0 32.667 -26.333 49 -79 49c-30 0 -54.667 -6.33301 -74 -19l-114 30l48 227h319v-95h-233l-15 -67l2 -1
c27.333 10.667 59.666 16 96.999 16c55.333 0 97.833 -12.167 127.5 -36.5s44.5 -58.5 44.5 -102.5c0 -48 -17.833 -86.167 -53.5 -114.5s-85.5 -42.5 -149.5 -42.5z" />
    <glyph glyph-name="six.subs" unicode="&#x2086;" horiz-adv-x="512" 
d="M265 -208c-68.667 0 -121.667 19.001 -159 57.001s-56 92.333 -56 163c0 68.667 17.667 124.667 53 168c34.667 42.667 90.334 64 167.001 64c80.667 0 141.334 -27.333 182.001 -82l-107 -41c-19.333 20 -44 30 -74 30c-30.667 0 -53.334 -7.83301 -68.001 -23.5
s-23.334 -41.167 -26.001 -76.5c28.667 20 67 30 115 30c54 0 95.833 -12 125.5 -36s44.5 -57.333 44.5 -100c0 -46.667 -17.5 -83.834 -52.5 -111.501s-83.167 -41.5 -144.5 -41.5zM264 -115.999c23.333 0 41.834 5.5 55.501 16.5s20.5 25.833 20.5 44.5
c0 18 -7 32.167 -21 42.5s-32 15.5 -54 15.5c-40 0 -68.667 -14.667 -86 -44c7.33301 -50 35.666 -75 84.999 -75z" />
    <glyph glyph-name="seven.subs" unicode="&#x2087;" horiz-adv-x="423" 
d="M241 -192l-126 0.000976562c2 61.333 15.833 120.833 41.5 178.5s59.167 106.167 100.5 145.5h-237v103h383v-104c-55.333 -42.667 -95.833 -88.834 -121.5 -138.501s-39.167 -111.167 -40.5 -184.5z" />
    <glyph glyph-name="eight.subs" unicode="&#x2088;" horiz-adv-x="519" 
d="M259 -208c-64.667 0 -115.667 11.5 -153 34.5s-56 55.833 -56 98.5c0 26 7.33301 48.167 22 66.5s35.334 30.833 62.001 37.5v2c-46 16 -69 47 -69 93c0 38 17 67.5 51 88.5s81.667 31.5 143 31.5s109.166 -10.5 143.499 -31.5s51.5 -50.5 51.5 -88.5
c0 -45.333 -23 -76.333 -69 -93v-2c26 -6.66699 46.5 -19.167 61.5 -37.5s22.5 -40.5 22.5 -66.5c0 -42.667 -19 -75.5 -57 -98.5s-89 -34.5 -153 -34.5zM259 69c50.667 0 76 14.333 76 43c0 28 -25.333 42 -76 42c-50 0 -75 -14 -75 -42c0 -28.667 25 -43 75 -43zM195 -105
c15.333 -9.33301 36.668 -14 64.001 -14s48.666 4.66699 63.999 14s23 22.333 23 39c0 32.667 -29 49 -87 49s-87 -16.333 -87 -49c0 -16.667 7.66699 -29.667 23 -39z" />
    <glyph glyph-name="nine.subs" unicode="&#x2089;" horiz-adv-x="512" 
d="M242 -208c-80.667 0 -141.335 27.332 -182.002 81.999l107 41c19.333 -20 44 -30 74 -30c30.667 0 53.334 7.83301 68.001 23.5s23.334 41.167 26.001 76.5c-28.667 -20 -67 -30 -115 -30c-54 0 -95.833 12 -125.5 36s-44.5 57.333 -44.5 100
c0 46.667 17.5 83.834 52.5 111.501s83.167 41.5 144.5 41.5c68.667 0 121.667 -19 159 -57s56 -92.333 56 -163c0 -69.333 -17.333 -125.333 -52 -168s-90.667 -64 -168 -64zM246.999 32.999c40 0 68.666 14.667 85.999 44c-7.33301 50 -35.666 75 -84.999 75
c-23.333 0 -41.833 -5.5 -55.5 -16.5s-20.5 -25.833 -20.5 -44.5c0 -18 7 -32.167 21 -42.5s32 -15.5 54 -15.5z" />
    <glyph glyph-name="plus.subs" unicode="&#x208a;" horiz-adv-x="531" 
d="M332 100h169v-119h-169v-142h-133v142h-168v119h168v141h133v-141z" />
    <glyph glyph-name="minus.subs" unicode="&#x208b;" horiz-adv-x="530" 
d="M500 -21h-469v119h469v-119z" />
    <glyph glyph-name="equal.subs" unicode="&#x208c;" horiz-adv-x="530" 
d="M500 82h-469v118h469v-118zM500 -122h-469v119h469v-119z" />
    <glyph glyph-name="uni208D" unicode="&#x208d;" horiz-adv-x="355" 
d="M320 -340l-165 0.00195312c-78 107.333 -117 222.666 -117 345.999c0 124 39 238.667 117 344h165c-72.667 -110.667 -109 -226.334 -109 -347.001c0 -118 36.333 -232.333 109 -343z" />
    <glyph glyph-name="uni208E" unicode="&#x208e;" horiz-adv-x="355" 
d="M199 -340h-164c72 109.333 108 223.666 108 342.999c0 120.667 -36 236.334 -108 347.001h164c78.667 -104.667 118 -219.334 118 -344.001c0 -123.333 -39.333 -238.666 -118 -345.999z" />
    <glyph glyph-name="n.subs" unicode="&#x2099;" horiz-adv-x="548" 
d="M339 193c48.667 0 86.5 -12.5 113.5 -37.5s40.5 -61.167 40.5 -108.5v-239h-161v194c0 35.333 -17.333 53 -52 53c-18.667 0 -34 -5.66699 -46 -17s-18 -23.333 -18 -36v-194h-161v374h152l5 -47c28.667 38.667 71 58 127 58z" />
    <glyph glyph-name="Euro" unicode="&#x20ac;" 
d="M551 576c-79.333 0 -132.666 -28 -159.999 -84h291v-96h-314c-0.666992 -7.33301 -1 -21 -1 -41s0.333008 -33.667 1 -41h314v-96h-293c26 -58.667 80 -88 162 -88c37.333 0 81 5 131 15v-151c-46.667 -9.33301 -96.334 -14 -149.001 -14
c-86.667 0 -160.5 20.833 -221.5 62.5s-103.167 100.167 -126.5 175.5h-112v96h94c-2.66699 27.333 -2.66699 54.666 0 81.999h-94v96h112c23.333 74.667 65.666 132.834 126.999 174.501s135 62.5 221 62.5c52.667 0 102.334 -4.66699 149.001 -14v-151
c-48 8 -91.667 12 -131 12z" />
    <glyph glyph-name="uni20B8" unicode="&#x20b8;" horiz-adv-x="675" 
d="M20 540v172h635v-172h-635zM226 270h-206v172h635v-172h-205v-270h-224v270z" />
    <glyph glyph-name="uni20B9" unicode="&#x20b9;" 
d="M681 712l0.000976562 -94.999h-182c19.333 -20.667 32 -48 38 -82h144v-96h-146c-16 -60.667 -67.667 -102.667 -155 -126c56 -4 94 -14 114 -30c20 -18 37.333 -51.333 52 -100l55 -183h-234l-31 140c-10 44 -22.667 72.333 -38 85c-15.333 12 -46 18 -92 18h-131v115
h112c40 0 69.667 6.16699 89 18.5s31.666 33.166 36.999 62.499h-238v96h238c-4.66699 30 -16.667 51.167 -36 63.5s-49.333 18.5 -90 18.5h-112v95h606z" />
    <glyph glyph-name="uni20BA" unicode="&#x20ba;" 
d="M520 321l200.001 -17.001c-11.333 -99.333 -46.333 -174.833 -105 -226.5s-138.334 -77.5 -239.001 -77.5h-247v205l-94 -44v110l94 44v81l-94 -44v110l94 44v206h223v-100l193 91v-110l-193 -91v-81l193 91v-110l-193 -91v-131h14c45.333 0 80.333 11.333 105 34
s41 58.334 49 107.001z" />
    <glyph glyph-name="uni20BC" unicode="&#x20bc;" 
d="M465 521h23c76 0 133.333 -20.667 172 -62s58 -102 58 -182v-277h-175v286c0 32 -6 55.5 -18 70.5s-32 23.833 -60 26.5v-324h-175v324c-28 -2.66699 -48 -11.5 -60 -26.5s-18 -38.5 -18 -70.5v-286h-175v277c0 162.667 79.333 244 238 244h15v191h175v-191z" />
    <glyph glyph-name="uni20BF" unicode="&#x20bf;" 
d="M689 213c0 -49.333 -14.501 -91.667 -43.501 -127s-68.833 -60 -119.5 -74v-152h-140v140h-80v-140h-140v140h-81v712h81v140h140v-140h80v140h140v-155c40.667 -13.333 72.667 -34.833 96 -64.5s35 -64.5 35 -104.5c0 -68 -28.333 -114 -85 -138
c34.667 -12.667 62.834 -35 84.501 -67s32.5 -68.667 32.5 -110zM457.999 489.999c0 14.667 -4.83301 26.5 -14.5 35.5s-22.834 13.5 -39.501 13.5h-115v-99h115c16.667 0 29.834 4.66699 39.501 14s14.5 21.333 14.5 36zM419.999 296.999l-131.001 -0.000976562v-119h127
c22.667 0 40.334 5.16699 53.001 15.5s19 24.833 19 43.5s-6 33.334 -18 44.001s-28.667 16 -50 16z" />
    <glyph glyph-name="uni2105" unicode="&#x2105;" horiz-adv-x="1253" 
d="M290 330c-70.667 0 -126.335 19 -167.002 57c-42 38 -63 86.667 -63 146s20.667 107.666 62 144.999c40.667 36.667 96.334 55 167.001 55c58.667 0 108.334 -13.5 149.001 -40.5s65.667 -62.833 75 -107.5l-158 -12c-8.66699 30.667 -30.667 46 -66 46
c-48 0 -72 -29.333 -72 -88c0 -58 24 -87 72 -87c35.333 0 57 16 65 48l159 -6c-8 -47.333 -32.333 -85.166 -73 -113.499s-90.667 -42.5 -150 -42.5zM457.999 -15h-140l492 742h138zM1133 36c-39.333 -34.667 -94.667 -52 -166 -52s-126.333 17.333 -165 52
c-39.333 35.333 -59 83.333 -59 144c0 62 19.667 110.5 59 145.5s94.333 52.5 165 52.5s126 -17.5 166 -52.5s60 -83.5 60 -145.5c0 -61.333 -20 -109.333 -60 -144zM966.998 89c46 0 69 30.333 69 91c0 62.667 -23 94 -69 94c-44.667 0 -67 -31.333 -67 -94
c0 -60.667 22.333 -91 67 -91z" />
    <glyph glyph-name="uni2113" unicode="&#x2113;" horiz-adv-x="627" 
d="M398 128c36.667 0 79.667 13.334 129 40.001l48 -123c-78.667 -40 -155 -60 -229 -60c-60.667 0 -108.834 14.833 -144.501 44.5s-53.5 72.167 -53.5 127.5v11l-98 -32l-35 138l133 25v232c0 128 72.667 192 218 192c76.667 0 133.334 -18 170.001 -54
s55 -92.667 55 -170c0 -83.333 -19.833 -146.833 -59.5 -190.5s-103.5 -74.834 -191.5 -93.501v-35c0 -34.667 19.333 -52 58 -52zM376 585.001c-24 0 -35.999 -16 -35.999 -48v-188c33.333 14.667 55.666 33.334 66.999 56.001c10.667 21.333 16 53.666 16 96.999
c0 30 -3.5 51.333 -10.5 64s-19.167 19 -36.5 19z" />
    <glyph glyph-name="uni2116" unicode="&#x2116;" horiz-adv-x="1281" 
d="M865 672c38.667 34.667 93.668 52.001 165.001 52.001s126.666 -17.333 165.999 -52c40 -34.667 60 -83.334 60 -146.001c0 -61.333 -20 -109.333 -60 -144s-95.333 -52 -166 -52s-125.667 17.333 -165 52s-59 82.667 -59 144c0 62 19.667 110.667 59 146z
M282.001 712.001l219 -370v370h220v-712h-227l-214 366v-366h-220v712h222zM1030 435.001c46 0 69 30.333 69 91c0 62.667 -23 94 -69 94c-44.667 0 -67 -31.333 -67 -94c0 -60.667 22.333 -91 67 -91z" />
    <glyph glyph-name="uni2117" unicode="&#x2117;" horiz-adv-x="861" 
d="M430 742c111.333 0 203.667 -35.667 277 -107c72.667 -72 109 -163.333 109 -274c0 -111.333 -36.333 -203 -109 -275s-165 -108 -277 -108c-111.333 0 -203.333 36.333 -276 109c-72.667 72 -109 163.333 -109 274s36.333 202 109 274
c73.333 71.333 165.333 107 276 107zM430.001 67c84 0 153.001 27.668 207.001 83.001c53.333 55.333 80 125.666 80 210.999c0 84.667 -27 154.667 -81 210c-54 54.667 -122.667 82 -206 82c-84 0 -152.333 -27.333 -205 -82c-54 -55.333 -81 -125.333 -81 -210
c0 -86 27 -156.333 81 -211c53.333 -55.333 121.666 -83 204.999 -83zM296.002 557.001h171c48 0 85.167 -12 111.5 -36s39.5 -56.667 39.5 -98c0 -42 -13.667 -74.833 -41 -98.5s-65 -35.5 -113 -35.5h-65v-115h-103v383zM399.002 374.001h64c16 0 28.667 4.33301 38 13
s14 20.667 14 36c0 31.333 -17.333 47 -52 47h-64v-96z" />
    <glyph glyph-name="trademark" unicode="&#x2122;" horiz-adv-x="1051" 
d="M266 325h-126v290h-115v97h354v-97h-113v-290zM559 325h-100v387h197l64 -281h20l64 281h197v-387h-101v291h-21l-69 -291h-161l-69 291h-21v-291z" />
    <glyph glyph-name="uni2126" unicode="&#x2126;" horiz-adv-x="849" 
d="M389 0l-343.999 -0.000976562v182h136v3c-86.667 62.667 -130 144 -130 244c0 90.667 32.333 163.334 97 218.001s157 82 277 82c119.333 0 211.333 -27.333 276 -82s97 -127.334 97 -218.001c0 -99.333 -43 -180.666 -129 -243.999v-3h135v-182h-342v163
c38.667 20 67.167 46.333 85.5 79s27.5 76 27.5 130c0 130 -50 195 -150 195s-150 -65 -150 -195c0 -54 9.16699 -97.333 27.5 -130s47.166 -59 86.499 -79v-163z" />
    <glyph glyph-name="estimated" unicode="&#x212e;" horiz-adv-x="912" 
d="M160 624c73.333 70 171.998 105.003 295.998 105.003s222.667 -37 296 -111c73.333 -74.667 110 -165.334 110 -272.001h-648c-9.33301 0 -14 -4.33301 -14 -13v-176c0 -20.667 5.33301 -36.334 16 -47.001c66 -64 146 -96 240 -96c50 0 97.5 10.5 142.5 31.5
s81.833 49.167 110.5 84.5h73c-29.333 -42 -72.166 -76.333 -128.499 -103s-122.166 -40 -197.499 -40c-120.667 0 -218.667 34.667 -294 104c-74.667 68.667 -112 157 -112 265c0 107.333 36.667 196.666 110 267.999zM455.998 701.003c-94 0 -174 -33 -240 -99
c-10.667 -10 -16 -24.333 -16 -43v-176c0 -8.66699 4.66699 -13 14 -13h482c9.33301 0 14 4.33301 14 13v176c0 18.667 -5.33301 33 -16 43c-66 66 -145.333 99 -238 99z" />
    <glyph glyph-name="uni2153" unicode="&#x2153;" horiz-adv-x="1213" 
d="M377 -15h-140l492 742h138zM298 285h-126v254h-112v94h20c32 0 55.333 5.5 70 16.5s22 28.5 22 52.5v10h126v-427zM946 -16c-115.333 0 -181 45.667 -197 137l118 15c6 -20 15.333 -34.167 28 -42.5s30.334 -12.5 53.001 -12.5c49.333 0 74 15.667 74 47
c0 28 -23.333 42 -70 42h-55v94h51c44 0 66 13 66 39c0 28.667 -23 43 -69 43c-21.333 0 -37.833 -3.66699 -49.5 -11s-20.834 -19.666 -27.501 -36.999l-116 16c11.333 39.333 34.166 69.5 68.499 90.5s77.833 31.5 130.5 31.5c54.667 0 99 -11 133 -33s51 -51.667 51 -89
c0 -40.667 -22.333 -70.334 -67 -89.001v-2c56.667 -18 85 -52.333 85 -103c0 -42.667 -18.167 -76 -54.5 -100s-87.166 -36 -152.499 -36z" />
    <glyph glyph-name="uni2154" unicode="&#x2154;" horiz-adv-x="1375" 
d="M539 -15h-140l492 742h138zM470 285l-410 0.000976562c0 105.333 45.667 172.666 137 201.999l89 29c38 12 57 30.333 57 55c0 30.667 -23.333 46 -70 46c-47.333 0 -75.333 -18 -84 -54l-117 17c17.333 94 84 141 200 141c60 0 107 -12.5 141 -37.5s51 -60.5 51 -106.5
c0 -71.333 -43.333 -118 -130 -140l-73 -19c-28 -6.66699 -43.667 -16.667 -47 -30h256v-103zM1108 -15.999c-115.333 0 -181 45.667 -197 137l118 15c6 -20 15.333 -34.167 28 -42.5s30.334 -12.5 53.001 -12.5c49.333 0 74 15.667 74 47c0 28 -23.333 42 -70 42h-55v94h51
c44 0 66 13 66 39c0 28.667 -23 43 -69 43c-21.333 0 -37.833 -3.66699 -49.5 -11s-20.834 -19.666 -27.501 -36.999l-116 16c11.333 39.333 34.166 69.5 68.499 90.5s77.833 31.5 130.5 31.5c54.667 0 99 -11 133 -33s51 -51.667 51 -89
c0 -40.667 -22.333 -70.334 -67 -89.001v-2c56.667 -18 85 -52.333 85 -103c0 -42.667 -18.167 -76 -54.5 -100s-87.166 -36 -152.499 -36z" />
    <glyph glyph-name="uni2155" unicode="&#x2155;" horiz-adv-x="1214" 
d="M377 -15h-140l492 742h138zM298 285h-126v254h-112v94h20c32 0 55.333 5.5 70 16.5s22 28.5 22 52.5v10h126v-427zM951 -16c-91.333 0 -156.334 28.333 -195.001 85l114 53c14.667 -22.667 41.334 -34 80.001 -34c24.667 0 44.334 4.66699 59.001 14s22 22 22 38
c0 32.667 -26.333 49 -79 49c-30 0 -54.667 -6.33301 -74 -19l-114 30l48 227h319v-95h-233l-15 -67l2 -1c27.333 10.667 59.666 16 96.999 16c55.333 0 97.833 -12.167 127.5 -36.5s44.5 -58.5 44.5 -102.5c0 -48 -17.833 -86.167 -53.5 -114.5s-85.5 -42.5 -149.5 -42.5z
" />
    <glyph glyph-name="uni2156" unicode="&#x2156;" horiz-adv-x="1362" 
d="M525 -15h-140l492 742h138zM470 285l-410 0.000976562c0 105.333 45.667 172.666 137 201.999l89 29c38 12 57 30.333 57 55c0 30.667 -23.333 46 -70 46c-47.333 0 -75.333 -18 -84 -54l-117 17c17.333 94 84 141 200 141c60 0 107 -12.5 141 -37.5s51 -60.5 51 -106.5
c0 -71.333 -43.333 -118 -130 -140l-73 -19c-28 -6.66699 -43.667 -16.667 -47 -30h256v-103zM1099 -15.999c-91.333 0 -156.334 28.333 -195.001 85l114 53c14.667 -22.667 41.334 -34 80.001 -34c24.667 0 44.334 4.66699 59.001 14s22 22 22 38
c0 32.667 -26.333 49 -79 49c-30 0 -54.667 -6.33301 -74 -19l-114 30l48 227h319v-95h-233l-15 -67l2 -1c27.333 10.667 59.666 16 96.999 16c55.333 0 97.833 -12.167 127.5 -36.5s44.5 -58.5 44.5 -102.5c0 -48 -17.833 -86.167 -53.5 -114.5s-85.5 -42.5 -149.5 -42.5z
" />
    <glyph glyph-name="uni2157" unicode="&#x2157;" horiz-adv-x="1327" 
d="M257 277c-115.333 0 -180.999 45.667 -196.999 137l118 15c10.667 -36.667 37.667 -55 81 -55c49.333 0 74 15.667 74 47c0 28 -23.333 42 -70 42h-55v94h51c44 0 66 13 66 39c0 28.667 -23 43 -69 43c-21.333 0 -37.833 -3.66699 -49.5 -11
s-20.834 -19.666 -27.501 -36.999l-116 16c11.333 39.333 34.166 69.5 68.499 90.5s77.833 31.5 130.5 31.5c54.667 0 99 -11 133 -33s51 -51.667 51 -89c0 -40.667 -22.333 -70.334 -67 -89.001v-2c56.667 -18 85 -52.333 85 -103c0 -42.667 -18.167 -76 -54.5 -100
s-87.166 -36 -152.499 -36zM490.001 -15h-140l492 742h138zM1064 -16c-91.333 0 -156.334 28.333 -195.001 85l114 53c14.667 -22.667 41.334 -34 80.001 -34c24.667 0 44.334 4.66699 59.001 14s22 22 22 38c0 32.667 -26.333 49 -79 49c-30 0 -54.667 -6.33301 -74 -19
l-114 30l48 227h319v-95h-233l-15 -67l2 -1c27.333 10.667 59.666 16 96.999 16c55.333 0 97.833 -12.167 127.5 -36.5s44.5 -58.5 44.5 -102.5c0 -48 -17.833 -86.167 -53.5 -114.5s-85.5 -42.5 -149.5 -42.5z" />
    <glyph glyph-name="uni2158" unicode="&#x2158;" horiz-adv-x="1362" 
d="M525 -15h-140l492 742h138zM415 284h-123v96l-232 -10v101l209 241h146v-252l73 11v-101l-73 10v-96zM290 592l-111 -125l113 -7v132h-2zM1099 -16c-91.333 0 -156.334 28.333 -195.001 85l114 53c14.667 -22.667 41.334 -34 80.001 -34
c24.667 0 44.334 4.66699 59.001 14s22 22 22 38c0 32.667 -26.333 49 -79 49c-30 0 -54.667 -6.33301 -74 -19l-114 30l48 227h319v-95h-233l-15 -67l2 -1c27.333 10.667 59.666 16 96.999 16c55.333 0 97.833 -12.167 127.5 -36.5s44.5 -58.5 44.5 -102.5
c0 -48 -17.833 -86.167 -53.5 -114.5s-85.5 -42.5 -149.5 -42.5z" />
    <glyph glyph-name="uni2159" unicode="&#x2159;" horiz-adv-x="1208" 
d="M377 -15h-140l492 742h138zM298 285h-126v254h-112v94h20c32 0 55.333 5.5 70 16.5s22 28.5 22 52.5v10h126v-427zM951 -16c-68.667 0 -121.666 19.001 -158.999 57.001s-56 92.333 -56 163c0 68.667 17.667 124.667 53 168c34.667 42.667 90.334 64 167.001 64
c80.667 0 141.334 -27.333 182.001 -82l-107 -41c-18.667 20 -43.334 30 -74.001 30s-53.334 -7.83301 -68.001 -23.5s-23.334 -41.167 -26.001 -76.5c28.667 20 67 30 115 30c54 0 95.833 -12 125.5 -36s44.5 -57.333 44.5 -100c0 -46.667 -17.5 -83.834 -52.5 -111.501
s-83.167 -41.5 -144.5 -41.5zM950.001 76.001c23.333 0 41.834 5.5 55.501 16.5s20.5 25.833 20.5 44.5c0 18 -7 32.167 -21 42.5s-32 15.5 -54 15.5c-40 0 -68.667 -14.667 -86 -44c7.33301 -50 35.666 -75 84.999 -75z" />
    <glyph glyph-name="uni215A" unicode="&#x215a;" horiz-adv-x="1316" 
d="M485 -15h-140l492 742h138zM255 268c-91.333 0 -156.334 28.333 -195.001 85l114 53c14.667 -22.667 41.334 -34 80.001 -34c24.667 0 44.334 4.66699 59.001 14s22 22 22 38c0 32.667 -26.333 49 -79 49c-30 0 -54.667 -6.33301 -74 -19l-114 30l48 228h319v-95h-233
l-15 -68l2 -1c27.333 10.667 59.666 16 96.999 16c55.333 0 97.833 -12.167 127.5 -36.5s44.5 -58.5 44.5 -102.5c0 -48 -17.833 -86.167 -53.5 -114.5s-85.5 -42.5 -149.5 -42.5zM1059 -16c-68.667 0 -121.667 19.001 -159 57.001s-56 92.333 -56 163
c0 68.667 17.667 124.667 53 168c34.667 42.667 90.334 64 167.001 64c80.667 0 141.334 -27.333 182.001 -82l-107 -41c-19.333 20 -44 30 -74 30c-30.667 0 -53.334 -7.83301 -68.001 -23.5s-23.334 -41.167 -26.001 -76.5c28.667 20 67 30 115 30
c54 0 95.833 -12 125.5 -36s44.5 -57.333 44.5 -100c0 -46.667 -17.5 -83.834 -52.5 -111.501s-83.167 -41.5 -144.5 -41.5zM1058 76.001c23.333 0 41.834 5.5 55.501 16.5s20.5 25.833 20.5 44.5c0 18 -7 32.167 -21 42.5s-32 15.5 -54 15.5c-40 0 -68.667 -14.667 -86 -44
c7.33301 -50 35.666 -75 84.999 -75z" />
    <glyph glyph-name="oneeighth" unicode="&#x215b;" horiz-adv-x="1233" 
d="M377 -15h-140l492 742h138zM298 285h-126v254h-112v94h20c32 0 55.333 5.5 70 16.5s22 28.5 22 52.5v10h126v-427zM963 -16c-64.667 0 -115.667 11.5 -153 34.5s-56 55.833 -56 98.5c0 26 7.33301 48.167 22 66.5s35.334 30.833 62.001 37.5v2c-46 16 -69 47 -69 93
c0 38 17 67.5 51 88.5s81.667 31.5 143 31.5s109.166 -10.5 143.499 -31.5s51.5 -50.5 51.5 -88.5c0 -45.333 -23 -76.333 -69 -93v-2c26 -6.66699 46.5 -19.167 61.5 -37.5s22.5 -40.5 22.5 -66.5c0 -42.667 -19 -75.5 -57 -98.5s-89 -34.5 -153 -34.5zM963 261
c50.667 0 76 14.333 76 43c0 28 -25.333 42 -76 42c-50 0 -75 -14 -75 -42c0 -28.667 25 -43 75 -43zM899 87c15.333 -9.33301 36.668 -14 64.001 -14s48.666 4.66699 63.999 14s23 22.333 23 39c0 32.667 -29 49 -87 49s-87 -16.333 -87 -49
c0 -16.667 7.66699 -29.667 23 -39z" />
    <glyph glyph-name="threeeighths" unicode="&#x215c;" horiz-adv-x="1346" 
d="M257 277c-115.333 0 -180.999 45.667 -196.999 137l118 15c10.667 -36.667 37.667 -55 81 -55c49.333 0 74 15.667 74 47c0 28 -23.333 42 -70 42h-55v94h51c44 0 66 13 66 39c0 28.667 -23 43 -69 43c-21.333 0 -37.833 -3.66699 -49.5 -11
s-20.834 -19.666 -27.501 -36.999l-116 16c11.333 39.333 34.166 69.5 68.499 90.5s77.833 31.5 130.5 31.5c54.667 0 99 -11 133 -33s51 -51.667 51 -89c0 -40.667 -22.333 -70.334 -67 -89.001v-2c56.667 -18 85 -52.333 85 -103c0 -42.667 -18.167 -76 -54.5 -100
s-87.166 -36 -152.499 -36zM490.001 -15h-140l492 742h138zM1076 -16c-64.667 0 -115.667 11.5 -153 34.5s-56 55.833 -56 98.5c0 26 7.33301 48.167 22 66.5s35.334 30.833 62.001 37.5v2c-46 16 -69 47 -69 93c0 38 17 67.5 51 88.5s81.667 31.5 143 31.5
s109.166 -10.5 143.499 -31.5s51.5 -50.5 51.5 -88.5c0 -45.333 -23 -76.333 -69 -93v-2c26 -6.66699 46.5 -19.167 61.5 -37.5s22.5 -40.5 22.5 -66.5c0 -42.667 -19 -75.5 -57 -98.5s-89 -34.5 -153 -34.5zM1076 261c50.667 0 76 14.333 76 43c0 28 -25.333 42 -76 42
c-50 0 -75 -14 -75 -42c0 -28.667 25 -43 75 -43zM1012 87c15.333 -9.33301 36.668 -14 64.001 -14s48.666 4.66699 63.999 14s23 22.333 23 39c0 32.667 -29 49 -87 49s-87 -16.333 -87 -49c0 -16.667 7.66699 -29.667 23 -39z" />
    <glyph glyph-name="fiveeighths" unicode="&#x215d;" horiz-adv-x="1341" 
d="M485 -15h-140l492 742h138zM255 268c-91.333 0 -156.334 28.333 -195.001 85l114 53c14.667 -22.667 41.334 -34 80.001 -34c24.667 0 44.334 4.66699 59.001 14s22 22 22 38c0 32.667 -26.333 49 -79 49c-30 0 -54.667 -6.33301 -74 -19l-114 30l48 228h319v-95h-233
l-15 -68l2 -1c27.333 10.667 59.666 16 96.999 16c55.333 0 97.833 -12.167 127.5 -36.5s44.5 -58.5 44.5 -102.5c0 -48 -17.833 -86.167 -53.5 -114.5s-85.5 -42.5 -149.5 -42.5zM1071 -16c-64.667 0 -115.667 11.5 -153 34.5s-56 55.833 -56 98.5
c0 26 7.33301 48.167 22 66.5s35.334 30.833 62.001 37.5v2c-46 16 -69 47 -69 93c0 38 17 67.5 51 88.5s81.667 31.5 143 31.5s109.166 -10.5 143.499 -31.5s51.5 -50.5 51.5 -88.5c0 -45.333 -23 -76.333 -69 -93v-2c26 -6.66699 46.5 -19.167 61.5 -37.5
s22.5 -40.5 22.5 -66.5c0 -42.667 -19 -75.5 -57 -98.5s-89 -34.5 -153 -34.5zM1071 261c50.667 0 76 14.333 76 43c0 28 -25.333 42 -76 42c-50 0 -75 -14 -75 -42c0 -28.667 25 -43 75 -43zM1007 87c15.333 -9.33301 36.668 -14 64.001 -14s48.666 4.66699 63.999 14
s23 22.333 23 39c0 32.667 -29 49 -87 49s-87 -16.333 -87 -49c0 -16.667 7.66699 -29.667 23 -39z" />
    <glyph glyph-name="seveneighths" unicode="&#x215e;" horiz-adv-x="1244" 
d="M388 -15h-140l492 742h138zM281 285l-126 0.000976562c2 61.333 15.833 120.833 41.5 178.5s59.167 106.167 100.5 145.5h-237v103h383v-104c-55.333 -42.667 -95.833 -88.834 -121.5 -138.501s-39.167 -111.167 -40.5 -184.5zM974 -15.999
c-64.667 0 -115.667 11.5 -153 34.5s-56 55.833 -56 98.5c0 26 7.33301 48.167 22 66.5s35.334 30.833 62.001 37.5v2c-46 16 -69 47 -69 93c0 38 17 67.5 51 88.5s81.667 31.5 143 31.5s109.166 -10.5 143.499 -31.5s51.5 -50.5 51.5 -88.5c0 -45.333 -23 -76.333 -69 -93
v-2c26 -6.66699 46.5 -19.167 61.5 -37.5s22.5 -40.5 22.5 -66.5c0 -42.667 -19 -75.5 -57 -98.5s-89 -34.5 -153 -34.5zM974 261.001c50.667 0 76 14.333 76 43c0 28 -25.333 42 -76 42c-50 0 -75 -14 -75 -42c0 -28.667 25 -43 75 -43zM910 87.001
c15.333 -9.33301 36.668 -14 64.001 -14s48.666 4.66699 63.999 14s23 22.333 23 39c0 32.667 -29 49 -87 49s-87 -16.333 -87 -49c0 -16.667 7.66699 -29.667 23 -39z" />
    <glyph glyph-name="arrowleft" unicode="&#x2190;" horiz-adv-x="819" 
d="M324 451h450v-192h-448l78 -94l124 -165h-214l-269 356l269 356h214l-124 -165z" />
    <glyph glyph-name="arrowup" unicode="&#x2191;" horiz-adv-x="792" 
d="M40 460l356 269l356 -269v-214l-165 124l-91 76v-446h-202v444l-89 -74l-165 -124v214z" />
    <glyph glyph-name="arrowright" unicode="&#x2192;" horiz-adv-x="819" 
d="M291 712h214l269 -356l-269 -356h-214l124 165l78 94h-448v192h450l-80 96z" />
    <glyph glyph-name="arrowdown" unicode="&#x2193;" horiz-adv-x="792" 
d="M496 266l91 76l165 124v-214l-356 -269l-356 269v214l165 -124l89 -74v444h202v-446z" />
    <glyph glyph-name="arrowboth" unicode="&#x2194;" horiz-adv-x="1177" 
d="M649 712h214l269 -356l-269 -356h-214l124 165l78 94h-525l78 -94l124 -165h-214l-269 356l269 356h214l-124 -165l-80 -96h529l-80 96z" />
    <glyph glyph-name="arrowupdn" unicode="&#x2195;" horiz-adv-x="792" 
d="M752 417l-165 124l-96 80v-530l96 80l165 124v-214l-356 -269l-356 269v214l165 -124l94 -78v526l-94 -78l-165 -124v214l356 269l356 -269v-214z" />
    <glyph glyph-name="uni2196" unicode="&#x2196;" horiz-adv-x="729" 
d="M336 500l373 -366l-134 -134l-367 366l7 -169v-132h-175v603h603v-175h-132z" />
    <glyph glyph-name="uni2197" unicode="&#x2197;" horiz-adv-x="729" 
d="M86 493v175h603v-603h-175v132l7 169l-367 -366l-134 134l373 366l-175 -7h-132z" />
    <glyph glyph-name="uni2198" unicode="&#x2198;" horiz-adv-x="729" 
d="M514 471v132h175v-603h-603v175h132l175 -7l-373 366l134 134l367 -366z" />
    <glyph glyph-name="uni2199" unicode="&#x2199;" horiz-adv-x="729" 
d="M709 534l-373 -366l175 7h132v-175h-603v603h175v-132l-7 -169l367 366z" />
    <glyph glyph-name="partialdiff" unicode="&#x2202;" horiz-adv-x="685" 
d="M326 728c209.333 0 313.998 -132.668 313.998 -398.001c0 -105.333 -27.667 -189.666 -83 -252.999c-55.333 -64 -132.666 -96 -231.999 -96c-87.333 0 -155.666 24.333 -204.999 73c-50 48 -75 110.333 -75 187c0 74 23.333 133.333 70 178c46 44 103.667 66 173 66
c44.667 0 90 -9.33301 136 -28c-7.33301 38.667 -20.5 66.5 -39.5 83.5s-45.5 25.5 -79.5 25.5c-40.667 0 -91.667 -10.333 -153 -31l-50 155c79.333 25.333 154 38 224 38zM330.998 149.999c32 0 56.168 11 72.501 33s26.166 57.667 29.499 107
c-27.333 29.333 -61 44 -101 44c-28 0 -49.833 -8.33301 -65.5 -25s-23.5 -39 -23.5 -67s7.66699 -50.333 23 -67s37 -25 65 -25z" />
    <glyph glyph-name="uni2206" unicode="&#x2206;" horiz-adv-x="786" 
d="M283 712h222l266 -712h-756zM361 375l-69 -204h202l-69 204l-32 110z" />
    <glyph glyph-name="product" unicode="&#x220f;" horiz-adv-x="769" 
d="M60 712h649v-916h-224v724h-201v-724h-224v916z" />
    <glyph glyph-name="summation" unicode="&#x2211;" horiz-adv-x="770" 
d="M585 260l-242 -272h382v-192h-680v166l273 298l-262 285v167h657v-192h-358z" />
    <glyph glyph-name="minus" unicode="&#x2212;" 
d="M656 250h-556v142h556v-142z" />
    <glyph glyph-name="uni2215" unicode="&#x2215;" horiz-adv-x="380" 
d="M15 -15h-140l492 742h138z" />
    <glyph glyph-name="uni2219" unicode="&#x2219;" horiz-adv-x="482" 
d="M432 112h-382v333h382v-333z" />
    <glyph glyph-name="radical" unicode="&#x221a;" 
d="M562 -204h-260l-89 250l-124 -47l-57 159l286 105l105 -299l160 783h180z" />
    <glyph glyph-name="infinity" unicode="&#x221e;" horiz-adv-x="814" 
d="M211 120c-56.667 0 -101.834 18.168 -135.501 54.501s-50.5 86.5 -50.5 150.5c0 63.333 16.833 113.166 50.5 149.499s78.834 54.5 135.501 54.5c38.667 0 72.334 -9 101.001 -27s60.334 -48.333 95.001 -91c34.667 42.667 66.334 73 95.001 91s62.334 27 101.001 27
c58 0 103.5 -18 136.5 -54s49.5 -86 49.5 -150s-16.5 -114.167 -49.5 -150.5s-78.5 -54.5 -136.5 -54.5c-38.667 0 -72.334 9 -101.001 27s-60.334 48.333 -95.001 91c-34.667 -42.667 -66.334 -73 -95.001 -91s-62.334 -27 -101.001 -27zM593 251.001
c22 0 39.333 6.5 52 19.5s19 31.167 19 54.5c0 24 -6.33301 42.833 -19 56.5s-30 20.5 -52 20.5c-33.333 0 -69.666 -25.667 -108.999 -77c37.333 -49.333 73.666 -74 108.999 -74zM221 247.001c34 0 70.333 26.001 109 78.001c-36.667 48.667 -73 73 -109 73
c-22 0 -39.167 -6.33301 -51.5 -19s-18.5 -30.667 -18.5 -54c0 -24.667 6.16699 -43.834 18.5 -57.501s29.5 -20.5 51.5 -20.5z" />
    <glyph glyph-name="integral" unicode="&#x222b;" 
d="M264 -192h-91v165h39c24 0 40.667 4.66699 50 14s14 26 14 50v509c0 73.333 17.167 127 51.5 161s88.5 51 162.5 51h91v-166h-39c-24 0 -40.667 -4.66699 -50 -14s-14 -26 -14 -50v-509c0 -73.333 -17 -126.833 -51 -160.5s-88.333 -50.5 -163 -50.5z" />
    <glyph glyph-name="approxequal" unicode="&#x2248;" 
d="M242 363l-159 0.000976562c0 70 14.333 124 43 162s71.667 57 129 57c27.333 0 55.666 -5.33301 84.999 -16s55.333 -21.334 78 -32.001s39.334 -16 50.001 -16c30.667 0 46 21.333 46 64h158c0 -146 -57.333 -219 -172 -219c-36 0 -78 10.667 -126 32s-77 32 -87 32
c-30 0 -45 -21.333 -45 -64zM242 81.001l-159 0.000976562c0 70 14.333 124 43 162s71.667 57 129 57c27.333 0 55.666 -5.33301 84.999 -16s55.333 -21.334 78 -32.001s39.334 -16 50.001 -16c30.667 0 46 21.333 46 64h158c0 -146 -57.333 -219 -172 -219
c-36 0 -78 10.667 -126 32s-77 32 -87 32c-30 0 -45 -21.333 -45 -64z" />
    <glyph glyph-name="notequal" unicode="&#x2260;" 
d="M656 527v-141h-215l-51 -131h266v-142h-322l-60 -155l-68 25l50 130h-156v142h212l50 131h-262v141h317l64 165l69 -25l-54 -140h160z" />
    <glyph glyph-name="lessequal" unicode="&#x2264;" 
d="M99 510l556 148v-143l-434 -100l434 -100v-143l-556 148v190zM655 -15h-556v142h556v-142z" />
    <glyph glyph-name="greaterequal" unicode="&#x2265;" 
d="M99 515v143l556 -148v-190l-556 -148v143l434 100zM655 -15h-556v142h556v-142z" />
    <glyph glyph-name="uni2460" unicode="&#x2460;" horiz-adv-x="1098" 
d="M910 31c-94 -93.333 -214.333 -140 -361 -140s-267 46.667 -361 140c-95.333 93.333 -143 210.333 -143 351c0 141.333 47.667 258.666 143 351.999c94.667 92.667 215 139 361 139s266.333 -46.333 361 -139c95.333 -93.333 143 -210.666 143 -351.999
c0 -140.667 -47.667 -257.667 -143 -351zM303 140c65.333 -63.333 147.333 -95.002 246 -95.002c99.333 0 181.666 31.667 246.999 95c64.667 62.667 97 143.334 97 242.001s-32.333 179.334 -97 242.001c-65.333 63.333 -147.666 95 -246.999 95
c-98.667 0 -180.667 -31.667 -246 -95s-98 -144 -98 -242s32.667 -178.667 98 -242zM637 168.998h-126v254h-112v94h20c32 0 55.333 5.5 70 16.5s22 28.5 22 52.5v10h126v-427z" />
    <glyph glyph-name="uni2461" unicode="&#x2461;" horiz-adv-x="1098" 
d="M910 31c-94 -93.333 -214.333 -140 -361 -140s-267 46.667 -361 140c-95.333 93.333 -143 210.333 -143 351c0 141.333 47.667 258.666 143 351.999c94.667 92.667 215 139 361 139s266.333 -46.333 361 -139c95.333 -93.333 143 -210.666 143 -351.999
c0 -140.667 -47.667 -257.667 -143 -351zM303 140c65.333 -63.333 147.333 -95.002 246 -95.002c99.333 0 181.666 31.667 246.999 95c64.667 62.667 97 143.334 97 242.001s-32.333 179.334 -97 242.001c-65.333 63.333 -147.666 95 -246.999 95
c-98.667 0 -180.667 -31.667 -246 -95s-98 -144 -98 -242s32.667 -178.667 98 -242zM750 182.998l-410.001 0.000976562c0 105.333 45.667 172.666 137 201.999l89 29c38 12 57 30.333 57 55c0 30.667 -23.333 46 -70 46c-47.333 0 -75.333 -18 -84 -54l-117 17
c16.667 94 83.334 141 200.001 141c60 0 107 -12.5 141 -37.5s51 -60.5 51 -106.5c0 -71.333 -43.333 -118 -130 -140l-73 -19c-28 -6.66699 -43.667 -16.667 -47 -30h256v-103z" />
    <glyph glyph-name="uni2462" unicode="&#x2462;" horiz-adv-x="1098" 
d="M910 31c-94 -93.333 -214.333 -140 -361 -140s-267 46.667 -361 140c-95.333 93.333 -143 210.333 -143 351c0 141.333 47.667 258.666 143 351.999c94.667 92.667 215 139 361 139s266.333 -46.333 361 -139c95.333 -93.333 143 -210.666 143 -351.999
c0 -140.667 -47.667 -257.667 -143 -351zM303 140c65.333 -63.333 147.333 -95.002 246 -95.002c99.333 0 181.666 31.667 246.999 95c64.667 62.667 97 143.334 97 242.001s-32.333 179.334 -97 242.001c-65.333 63.333 -147.666 95 -246.999 95
c-98.667 0 -180.667 -31.667 -246 -95s-98 -144 -98 -242s32.667 -178.667 98 -242zM542 153.998c-115.333 0 -181 45.667 -197 137l118 15c6 -20 15.333 -34.167 28 -42.5s30.334 -12.5 53.001 -12.5c49.333 0 74 15.667 74 47c0 28 -23.333 42 -70 42h-55v94h51
c44 0 66 13 66 39c0 28.667 -23 43 -69 43c-21.333 0 -37.833 -3.66699 -49.5 -11s-20.834 -19.666 -27.501 -36.999l-116 16c11.333 39.333 34.166 69.5 68.499 90.5s77.833 31.5 130.5 31.5c54.667 0 99 -11 133 -33s51 -51.667 51 -89
c0 -40.667 -22.333 -70.334 -67 -89.001v-2c56.667 -18 85 -52.333 85 -103c0 -42.667 -18.167 -76 -54.5 -100s-87.166 -36 -152.499 -36z" />
    <glyph glyph-name="uni2463" unicode="&#x2463;" horiz-adv-x="1098" 
d="M910 31c-94 -93.333 -214.333 -140 -361 -140s-267 46.667 -361 140c-95.333 93.333 -143 210.333 -143 351c0 141.333 47.667 258.666 143 351.999c94.667 92.667 215 139 361 139s266.333 -46.333 361 -139c95.333 -93.333 143 -210.666 143 -351.999
c0 -140.667 -47.667 -257.667 -143 -351zM303 140c65.333 -63.333 147.333 -95.002 246 -95.002c99.333 0 181.666 31.667 246.999 95c64.667 62.667 97 143.334 97 242.001s-32.333 179.334 -97 242.001c-65.333 63.333 -147.666 95 -246.999 95
c-98.667 0 -180.667 -31.667 -246 -95s-98 -144 -98 -242s32.667 -178.667 98 -242zM672 173.998h-123v96l-232 -10v101l209 240h146v-251l73 11v-101l-73 10v-96zM436 356.998l113 -7v131h-2z" />
    <glyph glyph-name="uni2464" unicode="&#x2464;" horiz-adv-x="1098" 
d="M910 31c-94 -93.333 -214.333 -140 -361 -140s-267 46.667 -361 140c-95.333 93.333 -143 210.333 -143 351c0 141.333 47.667 258.666 143 351.999c94.667 92.667 215 139 361 139s266.333 -46.333 361 -139c95.333 -93.333 143 -210.666 143 -351.999
c0 -140.667 -47.667 -257.667 -143 -351zM303 140c65.333 -63.333 147.333 -95.002 246 -95.002c99.333 0 181.666 31.667 246.999 95c64.667 62.667 97 143.334 97 242.001s-32.333 179.334 -97 242.001c-65.333 63.333 -147.666 95 -246.999 95
c-98.667 0 -180.667 -31.667 -246 -95s-98 -144 -98 -242s32.667 -178.667 98 -242zM549 152.998c-91.333 0 -156.334 28.333 -195.001 85l114 53c14.667 -22.667 41.334 -34 80.001 -34c24.667 0 44.334 4.66699 59.001 14s22 22 22 38c0 32.667 -26.333 49 -79 49
c-30 0 -54.667 -6.33301 -74 -19l-114 30l48 227h319v-95h-233l-15 -67l2 -1c27.333 10.667 59.666 16 96.999 16c55.333 0 97.833 -12.167 127.5 -36.5s44.5 -58.5 44.5 -102.5c0 -48 -17.833 -86.167 -53.5 -114.5s-85.5 -42.5 -149.5 -42.5z" />
    <glyph glyph-name="uni2465" unicode="&#x2465;" horiz-adv-x="1098" 
d="M910 31c-94 -93.333 -214.333 -140 -361 -140s-267 46.667 -361 140c-95.333 93.333 -143 210.333 -143 351c0 141.333 47.667 258.666 143 351.999c94.667 92.667 215 139 361 139s266.333 -46.333 361 -139c95.333 -93.333 143 -210.666 143 -351.999
c0 -140.667 -47.667 -257.667 -143 -351zM303 140c65.333 -63.333 147.333 -95.002 246 -95.002c99.333 0 181.666 31.667 246.999 95c64.667 62.667 97 143.334 97 242.001s-32.333 179.334 -97 242.001c-65.333 63.333 -147.666 95 -246.999 95
c-98.667 0 -180.667 -31.667 -246 -95s-98 -144 -98 -242s32.667 -178.667 98 -242zM555 155.998c-68.667 0 -121.667 19.001 -159 57.001s-56 92.333 -56 163c0 68.667 17.667 124.667 53 168c34.667 42.667 90.334 64 167.001 64c80.667 0 141.334 -27.333 182.001 -82
l-107 -41c-19.333 20 -44 30 -74 30c-30.667 0 -53.334 -7.83301 -68.001 -23.5s-23.334 -41.167 -26.001 -76.5c28.667 20 67 30 115 30c54 0 95.833 -12 125.5 -36s44.5 -57.333 44.5 -100c0 -46.667 -17.5 -83.834 -52.5 -111.501s-83.167 -41.5 -144.5 -41.5z
M554 247.999c23.333 0 41.834 5.5 55.501 16.5s20.5 25.833 20.5 44.5c0 18 -7 32.167 -21 42.5s-32 15.5 -54 15.5c-40 0 -68.667 -14.667 -86 -44c7.33301 -50 35.666 -75 84.999 -75z" />
    <glyph glyph-name="uni2466" unicode="&#x2466;" horiz-adv-x="1098" 
d="M910 31c-94 -93.333 -214.333 -140 -361 -140s-267 46.667 -361 140c-95.333 93.333 -143 210.333 -143 351c0 141.333 47.667 258.666 143 351.999c94.667 92.667 215 139 361 139s266.333 -46.333 361 -139c95.333 -93.333 143 -210.666 143 -351.999
c0 -140.667 -47.667 -257.667 -143 -351zM303 140c65.333 -63.333 147.333 -95.002 246 -95.002c99.333 0 181.666 31.667 246.999 95c64.667 62.667 97 143.334 97 242.001s-32.333 179.334 -97 242.001c-65.333 63.333 -147.666 95 -246.999 95
c-98.667 0 -180.667 -31.667 -246 -95s-98 -144 -98 -242s32.667 -178.667 98 -242zM584 146.998l-126 0.000976562c2 61.333 15.833 120.833 41.5 178.5s59.167 106.167 100.5 145.5h-237v103h383v-104c-55.333 -42.667 -95.833 -88.834 -121.5 -138.501
s-39.167 -111.167 -40.5 -184.5z" />
    <glyph glyph-name="uni2467" unicode="&#x2467;" horiz-adv-x="1098" 
d="M910 31c-94 -93.333 -214.333 -140 -361 -140s-267 46.667 -361 140c-95.333 93.333 -143 210.333 -143 351c0 141.333 47.667 258.666 143 351.999c94.667 92.667 215 139 361 139s266.333 -46.333 361 -139c95.333 -93.333 143 -210.666 143 -351.999
c0 -140.667 -47.667 -257.667 -143 -351zM303 140c65.333 -63.333 147.333 -95.002 246 -95.002c99.333 0 181.666 31.667 246.999 95c64.667 62.667 97 143.334 97 242.001s-32.333 179.334 -97 242.001c-65.333 63.333 -147.666 95 -246.999 95
c-98.667 0 -180.667 -31.667 -246 -95s-98 -144 -98 -242s32.667 -178.667 98 -242zM549 156.998c-64.667 0 -115.667 11.5 -153 34.5s-56 55.833 -56 98.5c0 26 7.33301 48.167 22 66.5s35.334 30.833 62.001 37.5v2c-46 16 -69 47 -69 93c0 38 17 67.5 51 88.5
s81.667 31.5 143 31.5s109.166 -10.5 143.499 -31.5s51.5 -50.5 51.5 -88.5c0 -44.667 -23 -75.667 -69 -93v-2c26 -6.66699 46.5 -19.167 61.5 -37.5s22.5 -40.5 22.5 -66.5c0 -42.667 -19 -75.5 -57 -98.5s-89 -34.5 -153 -34.5zM549 433.998c50.667 0 76 14.333 76 43
c0 28 -25.333 42 -76 42c-50 0 -75 -14 -75 -42c0 -28.667 25 -43 75 -43zM485 259.998c15.333 -9.33301 36.668 -14 64.001 -14s48.666 4.66699 63.999 14s23 22.333 23 39c0 32.667 -29 49 -87 49s-87 -16.333 -87 -49c0 -16.667 7.66699 -29.667 23 -39z" />
    <glyph glyph-name="uni2468" unicode="&#x2468;" horiz-adv-x="1098" 
d="M910 31c-94 -93.333 -214.333 -140 -361 -140s-267 46.667 -361 140c-95.333 93.333 -143 210.333 -143 351c0 141.333 47.667 258.666 143 351.999c94.667 92.667 215 139 361 139s266.333 -46.333 361 -139c95.333 -93.333 143 -210.666 143 -351.999
c0 -140.667 -47.667 -257.667 -143 -351zM303 140c65.333 -63.333 147.333 -95.002 246 -95.002c99.333 0 181.666 31.667 246.999 95c64.667 62.667 97 143.334 97 242.001s-32.333 179.334 -97 242.001c-65.333 63.333 -147.666 95 -246.999 95
c-98.667 0 -180.667 -31.667 -246 -95s-98 -144 -98 -242s32.667 -178.667 98 -242zM544 152.998c-80.667 0 -141.335 27.333 -182.002 82l107 41c19.333 -20 44 -30 74 -30c30.667 0 53.334 7.83301 68.001 23.5s23.334 41.167 26.001 76.5c-28.667 -20 -67 -30 -115 -30
c-54 0 -95.833 12 -125.5 36s-44.5 57.333 -44.5 100c0 46.667 17.5 83.834 52.5 111.501s83.167 41.5 144.5 41.5c68.667 0 121.667 -19 159 -57s56 -92.333 56 -163c0 -68.667 -17.333 -124.334 -52 -167.001c-35.333 -43.333 -91.333 -65 -168 -65zM548.999 393.998
c40 0 68.666 14.667 85.999 44c-7.33301 50 -35.666 75 -84.999 75c-23.333 0 -41.833 -5.5 -55.5 -16.5s-20.5 -25.833 -20.5 -44.5c0 -18 7 -32.167 21 -42.5s32 -15.5 54 -15.5z" />
    <glyph glyph-name="uni24EA" unicode="&#x24ea;" horiz-adv-x="1098" 
d="M910 31c-94 -93.333 -214.333 -140 -361 -140s-267 46.667 -361 140c-95.333 93.333 -143 210.333 -143 351c0 141.333 47.667 258.666 143 351.999c94.667 92.667 215 139 361 139s266.333 -46.333 361 -139c95.333 -93.333 143 -210.666 143 -351.999
c0 -140.667 -47.667 -257.667 -143 -351zM303 140c65.333 -63.333 147.333 -95.002 246 -95.002c99.333 0 181.666 31.667 246.999 95c64.667 62.667 97 143.334 97 242.001s-32.333 179.334 -97 242.001c-65.333 63.333 -147.666 95 -246.999 95
c-98.667 0 -180.667 -31.667 -246 -95s-98 -144 -98 -242s32.667 -178.667 98 -242zM550 151.998c-68 0 -120.5 19.833 -157.5 59.5s-55.5 95.167 -55.5 166.5c0 72 18.5 127.667 55.5 167s89.5 59 157.5 59c67.333 0 119.333 -19.667 156 -59s55 -95 55 -167
s-18.333 -127.667 -55 -167s-88.667 -59 -156 -59zM550 259.998c55.333 0 83 39.333 83 118c0 78 -27.667 117 -83 117c-56 0 -84 -39 -84 -117c0 -78.667 28 -118 84 -118z" />
    <glyph glyph-name="uni24FF" unicode="&#x24ff;" horiz-adv-x="1098" 
d="M910 31c-94 -93.333 -214.333 -140 -361 -140s-267 46.667 -361 140c-95.333 93.333 -143 210.333 -143 351c0 141.333 47.667 258.666 143 351.999c94.667 92.667 215 139 361 139s266.333 -46.333 361 -139c95.333 -93.333 143 -210.666 143 -351.999
c0 -140.667 -47.667 -257.667 -143 -351zM550 152c67.333 0 119.333 19.667 156 59s55 95 55 167s-18.333 127.667 -55 167s-88.667 59 -156 59c-68 0 -120.5 -19.667 -157.5 -59s-55.5 -95 -55.5 -167c0 -71.333 18.5 -126.833 55.5 -166.5s89.5 -59.5 157.5 -59.5z
M550 260c-56 0 -84 39.333 -84 118c0 78 28 117 84 117c55.333 0 83 -39 83 -117c0 -78.667 -27.667 -118 -83 -118z" />
    <glyph glyph-name="filledbox" unicode="&#x25a0;" horiz-adv-x="1028" 
d="M968 -88h-908v888h908v-888z" />
    <glyph glyph-name="uni25A1" unicode="&#x25a1;" horiz-adv-x="1028" 
d="M968 -88h-908v888h908v-888zM220 646v-580h588v580h-588z" />
    <glyph glyph-name="lozenge" unicode="&#x25ca;" horiz-adv-x="663" 
d="M223 712h216l194 -356l-194 -356h-216l-193 356zM189 356l142 -274l143 274l-143 273z" />
    <glyph glyph-name="circle" unicode="&#x25cb;" horiz-adv-x="1098" 
d="M910 31c-94 -93.333 -214.333 -140 -361 -140s-267 46.667 -361 140c-95.333 93.333 -143 210.333 -143 351c0 141.333 47.667 258.666 143 351.999c94.667 92.667 215 139 361 139s266.333 -46.333 361 -139c95.333 -93.333 143 -210.666 143 -351.999
c0 -140.667 -47.667 -257.667 -143 -351zM303 140c65.333 -63.333 147.333 -95.002 246 -95.002c99.333 0 181.666 31.667 246.999 95c64.667 62.667 97 143.334 97 242.001s-32.333 179.334 -97 242.001c-65.333 63.333 -147.666 95 -246.999 95
c-98.667 0 -180.667 -31.667 -246 -95s-98 -144 -98 -242s32.667 -178.667 98 -242z" />
    <glyph glyph-name="uni25CF" unicode="&#x25cf;" horiz-adv-x="1098" 
d="M910 31c-94 -93.333 -214.333 -140 -361 -140s-267 46.667 -361 140c-95.333 93.333 -143 210.333 -143 351c0 141.333 47.667 258.666 143 351.999c94.667 92.667 215 139 361 139s266.333 -46.333 361 -139c95.333 -93.333 143 -210.666 143 -351.999
c0 -140.667 -47.667 -257.667 -143 -351z" />
    <glyph glyph-name="uni2776" unicode="&#x2776;" horiz-adv-x="1098" 
d="M910 31c-94 -93.333 -214.333 -140 -361 -140s-267 46.667 -361 140c-95.333 93.333 -143 210.333 -143 351c0 141.333 47.667 258.666 143 351.999c94.667 92.667 215 139 361 139s266.333 -46.333 361 -139c95.333 -93.333 143 -210.666 143 -351.999
c0 -140.667 -47.667 -257.667 -143 -351zM506 423v-254h126v427h-126v-10c0 -24 -7.33301 -41.5 -22 -52.5s-38 -16.5 -70 -16.5h-20v-94h112z" />
    <glyph glyph-name="uni2777" unicode="&#x2777;" horiz-adv-x="1098" 
d="M188 734c94.667 92.667 215 139 361 139s266.333 -46.333 361 -139c95.333 -93.333 143 -210.666 143 -351.999c0 -140.667 -47.667 -257.667 -143 -351c-94 -93.333 -214.333 -140 -361 -140s-267 46.667 -361 140c-95.333 93.333 -143 210.333 -143 351
c0 141.333 47.667 258.666 143 351.999zM339 180l410 -0.000976562v103h-256c3.33301 13.333 19 23.333 47 30l73 19c86.667 22 130 68.667 130 140c0 46 -17 81.5 -51 106.5s-81 37.5 -141 37.5c-116 0 -182.667 -47 -200 -141l117 -17c9.33301 36 37.333 54 84 54
s70 -15.333 70 -46c0 -24.667 -19 -43 -57 -55l-89 -29c-91.333 -29.333 -137 -96.666 -137 -201.999z" />
    <glyph glyph-name="uni2778" unicode="&#x2778;" horiz-adv-x="1098" 
d="M910 31c-94 -93.333 -214.333 -140 -361 -140s-267 46.667 -361 140c-95.333 93.333 -143 210.333 -143 351c0 141.333 47.667 258.666 143 351.999c94.667 92.667 215 139 361 139s266.333 -46.333 361 -139c95.333 -93.333 143 -210.666 143 -351.999
c0 -140.667 -47.667 -257.667 -143 -351zM546 155c65.333 0 116.166 12 152.499 36s54.5 57.333 54.5 100c0 50.667 -28.333 85 -85 103v2c44.667 18.667 67 48.334 67 89.001c0 37.333 -17 67 -51 89s-78.333 33 -133 33c-52.667 0 -96.167 -10.5 -130.5 -31.5
s-57.166 -51.167 -68.499 -90.5l116 -16c6.66699 17.333 15.834 29.666 27.501 36.999s28.167 11 49.5 11c46 0 69 -14.333 69 -43c0 -26 -22 -39 -66 -39h-51v-94h55c46.667 0 70 -14 70 -42c0 -31.333 -24.667 -47 -74 -47c-22.667 0 -40.334 4.16699 -53.001 12.5
s-22 22.5 -28 42.5l-118 -15c16 -91.333 81.667 -137 197 -137z" />
    <glyph glyph-name="uni2779" unicode="&#x2779;" horiz-adv-x="1098" 
d="M910 31c-94 -93.333 -214.333 -140 -361 -140s-267 46.667 -361 140c-95.333 93.333 -143 210.333 -143 351c0 141.333 47.667 258.666 143 351.999c94.667 92.667 215 139 361 139s266.333 -46.333 361 -139c95.333 -93.333 143 -210.666 143 -351.999
c0 -140.667 -47.667 -257.667 -143 -351zM544 269v-96h123v96l73 -10v101l-73 -11v251h-146l-209 -240v-101zM544 480v-131l-113 7l111 124h2z" />
    <glyph glyph-name="uni277A" unicode="&#x277a;" horiz-adv-x="1098" 
d="M188 734c94.667 92.667 215 139 361 139s266.333 -46.333 361 -139c95.333 -93.333 143 -210.666 143 -351.999c0 -140.667 -47.667 -257.667 -143 -351c-94 -93.333 -214.333 -140 -361 -140s-267 46.667 -361 140c-95.333 93.333 -143 210.333 -143 351
c0 141.333 47.667 258.666 143 351.999zM545 150c64 0 113.834 14.167 149.501 42.5s53.5 66.5 53.5 114.5c0 44 -14.833 78.167 -44.5 102.5s-72.167 36.5 -127.5 36.5c-37.333 0 -69.666 -5.33301 -96.999 -16l-2 1l15 67h233v95h-319l-48 -227l114 -30
c19.333 12.667 44 19 74 19c52.667 0 79 -16.333 79 -49c0 -16 -7.33301 -28.667 -22 -38s-34.334 -14 -59.001 -14c-38.667 0 -65.334 11.333 -80.001 34l-114 -53c38.667 -56.667 103.667 -85 195 -85z" />
    <glyph glyph-name="uni277B" unicode="&#x277b;" horiz-adv-x="1098" 
d="M910 31c-94 -93.333 -214.333 -140 -361 -140s-267 46.667 -361 140c-95.333 93.333 -143 210.333 -143 351c0 141.333 47.667 258.666 143 351.999c94.667 92.667 215 139 361 139s266.333 -46.333 361 -139c95.333 -93.333 143 -210.666 143 -351.999
c0 -140.667 -47.667 -257.667 -143 -351zM552 157c61.333 0 109.499 13.832 144.499 41.499s52.5 64.834 52.5 111.501c0 42.667 -14.833 76 -44.5 100s-71.5 36 -125.5 36c-48 0 -86.333 -10 -115 -30c2.66699 35.333 11.334 60.833 26.001 76.5s37.334 23.5 68.001 23.5
s55.334 -10 74.001 -30l107 41c-40.667 54.667 -101.334 82 -182.001 82c-76.667 0 -132.334 -21.333 -167.001 -64c-35.333 -43.333 -53 -99.333 -53 -168c0 -70.667 18.667 -125 56 -163s90.333 -57 159 -57zM550.999 248.999c-50 0 -78.333 25 -85 75
c17.333 29.333 46 44 86 44c22 0 40 -5.16699 54 -15.5s21 -24.5 21 -42.5c0 -18.667 -6.83301 -33.5 -20.5 -44.5s-32.167 -16.5 -55.5 -16.5z" />
    <glyph glyph-name="uni277C" unicode="&#x277c;" horiz-adv-x="1098" 
d="M910 31c-94 -93.333 -214.333 -140 -361 -140s-267 46.667 -361 140c-95.333 93.333 -143 210.333 -143 351c0 141.333 47.667 258.666 143 351.999c94.667 92.667 215 139 361 139s266.333 -46.333 361 -139c95.333 -93.333 143 -210.666 143 -351.999
c0 -140.667 -47.667 -257.667 -143 -351zM447 147l126 -0.000976562c1.33301 73.333 14.833 134.833 40.5 184.5s66.167 95.834 121.5 138.501v104h-383v-103h237c-41.333 -39.333 -74.833 -87.833 -100.5 -145.5s-39.5 -117.167 -41.5 -178.5z" />
    <glyph glyph-name="uni277D" unicode="&#x277d;" horiz-adv-x="1098" 
d="M910 31c-94 -93.333 -214.333 -140 -361 -140s-267 46.667 -361 140c-95.333 93.333 -143 210.333 -143 351c0 141.333 47.667 258.666 143 351.999c94.667 92.667 215 139 361 139s266.333 -46.333 361 -139c95.333 -93.333 143 -210.666 143 -351.999
c0 -140.667 -47.667 -257.667 -143 -351zM549 161c64 0 115 11.5 153 34.5s57 55.833 57 98.5c0 26 -7.5 48.167 -22.5 66.5s-35.5 30.833 -61.5 37.5v2c46 17.333 69 48.333 69 93c0 38 -17.167 67.5 -51.5 88.5s-82.166 31.5 -143.499 31.5s-109 -10.5 -143 -31.5
s-51 -50.5 -51 -88.5c0 -46 23 -77 69 -93v-2c-26.667 -6.66699 -47.334 -19.167 -62.001 -37.5s-22 -40.5 -22 -66.5c0 -42.667 18.667 -75.5 56 -98.5s88.333 -34.5 153 -34.5zM549 438c-50 0 -75 14.333 -75 43c0 28 25 42 75 42c50.667 0 76 -14 76 -42
c0 -28.667 -25.333 -43 -76 -43zM613 264c-15.333 -9.33301 -36.668 -14 -64.001 -14s-48.666 4.66699 -63.999 14s-23 22.333 -23 39c0 32.667 29 49 87 49s87 -16.333 87 -49c0 -16.667 -7.66699 -29.667 -23 -39z" />
    <glyph glyph-name="uni277E" unicode="&#x277e;" horiz-adv-x="1098" 
d="M910 31c-94 -93.333 -214.333 -140 -361 -140s-267 46.667 -361 140c-95.333 93.333 -143 210.333 -143 351c0 141.333 47.667 258.666 143 351.999c94.667 92.667 215 139 361 139s266.333 -46.333 361 -139c95.333 -93.333 143 -210.666 143 -351.999
c0 -140.667 -47.667 -257.667 -143 -351zM543 153c76.667 0 132.67 21.667 168.003 65c34.667 42.667 52 98.334 52 167.001c0 70.667 -18.667 125 -56 163s-90.333 57 -159 57c-61.333 0 -109.5 -13.833 -144.5 -41.5s-52.5 -64.834 -52.5 -111.501
c0 -42.667 14.833 -76 44.5 -100s71.5 -36 125.5 -36c47.333 0 85.666 10 114.999 30c-2.66699 -35.333 -11.334 -60.833 -26.001 -76.5s-37.334 -23.5 -68.001 -23.5s-55.334 10 -74.001 30l-107 -41c40.667 -54.667 101.334 -82 182.001 -82zM548.003 394
c-22 0 -40 5.16699 -54 15.5s-21 24.5 -21 42.5c0 18.667 6.83301 33.5 20.5 44.5s32.167 16.5 55.5 16.5c50 0 78.333 -25 85 -75c-17.333 -29.333 -46 -44 -86 -44z" />
    <glyph glyph-name="uni2E18" unicode="&#x2e18;" horiz-adv-x="729" 
d="M273 516h202v-183h-202v183zM506 21l187.002 0.00195312c-3.33301 -80 -30.833 -139 -82.5 -177s-129.834 -57 -234.501 -57c-108.667 0 -191 18.333 -247 55s-84 89.667 -84 159c0 79.333 40.333 135 121 167l32 13c41.333 16.667 70.166 31.667 86.499 45
s26.833 30 31.5 50h116l23 -161v-114h-162v83c-19.333 -8.66699 -32.833 -18.334 -40.5 -29.001s-11.5 -24.334 -11.5 -41.001c0 -26.667 10.167 -45.5 30.5 -56.5s54.5 -16.5 102.5 -16.5s81.5 5.83301 100.5 17.5s29.5 32.5 31.5 62.5z" />
    </font>
</defs>
</svg>
