<?xml version="1.0" standalone="no"?>
<!DOCTYPE svg PUBLIC "-//W3C//DTD SVG 1.1//EN" "http://www.w3.org/Graphics/SVG/1.1/DTD/svg11.dtd" >
<svg xmlns="http://www.w3.org/2000/svg" xmlns:xlink="http://www.w3.org/1999/xlink" version="1.1">
<metadata>
Created by FontForge 20170812 at Sun Apr 14 21:27:57 2019
 By www-data
Copyright (c) 2019 Monotype Imaging Inc. All rights reserved.
</metadata>
<defs>
<font id="HelveticaNowText-Bold" horiz-adv-x="660" >
  <font-face 
    font-family="HelveticaNowText Bold"
    font-weight="700"
    font-stretch="normal"
    units-per-em="1000"
    panose-1="2 11 8 4 3 2 2 2 2 4"
    ascent="875"
    descent="-125"
    x-height="516"
    cap-height="712"
    bbox="-424 -350 1580 1109"
    underline-thickness="50"
    underline-position="-250"
    unicode-range="U+000D-FEFF"
  />
<missing-glyph horiz-adv-x="704" 
d="M639 0h-574v712h574v-712zM213 580v-448h278v448h-278z" />
    <glyph glyph-name="fi" unicode="fi" horiz-adv-x="597" 
d="M87 513l0.000976562 34.001c0 53.333 14.167 94.166 42.5 122.499s69.166 42.5 122.499 42.5h74v-113h-39c-39.333 0 -59 -19.667 -59 -59v-27l98 3v-104l-98 3v-415h-141v415l-72 -3v104zM396.001 584.001v128h141v-128h-141zM537.001 0.000976562h-141v516h141v-516z
" />
    <glyph glyph-name="fl" unicode="fl" horiz-adv-x="597" 
d="M87 513l0.000976562 34.001c0 53.333 14.167 94.166 42.5 122.499s69.166 42.5 122.499 42.5h74v-113h-39c-39.333 0 -59 -19.667 -59 -59v-27l98 3v-104l-98 3v-415h-141v415l-72 -3v104zM396.001 0.000976562v712h141v-712h-141z" />
    <glyph glyph-name=".notdef" horiz-adv-x="704" 
d="M639 0h-574v712h574v-712zM213 580v-448h278v448h-278z" />
    <glyph glyph-name="NULL" horiz-adv-x="0" 
 />
    <glyph glyph-name="NULL" horiz-adv-x="0" 
 />
    <glyph glyph-name="CR" unicode="&#xd;" horiz-adv-x="250" 
 />
    <glyph glyph-name="space" unicode=" " horiz-adv-x="250" 
 />
    <glyph glyph-name="exclam" unicode="!" horiz-adv-x="282" 
d="M177 234h-71l-39 297v181h148v-181zM217 0h-152v150h152v-150z" />
    <glyph glyph-name="quotedbl" unicode="&#x22;" horiz-adv-x="480" 
d="M190 423h-130v291h130v-291zM420 423h-130v291h130v-291z" />
    <glyph glyph-name="numbersign" unicode="#" horiz-adv-x="723" 
d="M690 557v-116l-127 3l-23 -165l112 2v-115l-127 3l-24 -169h-116l24 170h-149l-24 -170h-114l24 168l-113 -2v115l128 -3l23 166l-113 -3v116l129 -3l22 158h114l-22 -159h149l22 159h116l-22 -157zM299 445l-24 -168h149l24 168h-149z" />
    <glyph glyph-name="dollar" unicode="$" 
d="M644 213c0 -58.667 -20.165 -106.498 -60.498 -143.498s-97.5 -59.167 -171.5 -66.5v-147h-110v147c-76.667 7.33301 -136.167 30.833 -178.5 70.5s-64.5 92.5 -66.5 158.5h137c1.33301 -40 14.666 -68.667 39.999 -86s66.666 -26 123.999 -26c50 0 86.667 6.5 110 19.5
s35 33.5 35 61.5c0 19.333 -5.66699 34.666 -17 45.999s-30.333 20 -57 26l-193 42c-52.667 11.333 -93.5 33.333 -122.5 66s-43.5 73 -43.5 121c0 56 20 103.167 60 141.5s97.333 60.5 172 66.5v137h110v-139c68 -10 121.5 -34.167 160.5 -72.5s60.167 -86.833 63.5 -145.5
h-136c-4 36 -18 62 -42 78s-61.667 24 -113 24c-89.333 0 -134 -25.333 -134 -76c0 -38 23.333 -62 70 -72l182 -40c120.667 -26.667 181 -90.334 181 -191.001z" />
    <glyph glyph-name="percent" unicode="%" horiz-adv-x="1170" 
d="M390 336c-32 -40 -78.333 -60 -139 -60s-106.667 20 -138 60c-32 40 -48 96.333 -48 169c0 72 16 127.333 48 166s78 58 138 58s106 -19.333 138 -58s48 -94 48 -166s-15.667 -128.333 -47 -169zM415 -15h-108l448 742h106zM174 503c0 -90.667 25.667 -136 77 -136
s77 45.333 77 136c0 47.333 -6.16699 81.666 -18.5 102.999s-31.833 32 -58.5 32s-46.167 -10.667 -58.5 -32s-18.5 -55.666 -18.5 -102.999zM1058 44c-32 -40 -78.333 -60 -139 -60s-106.667 20 -138 60c-32 40 -48 96.333 -48 169c0 72 16 127.333 48 166s78 58 138 58
s106 -19.333 138 -58s48 -94 48 -166s-15.667 -128.333 -47 -169zM842 211c0 -90.667 25.667 -136 77 -136s77 45.333 77 136c0 47.333 -6.16699 81.666 -18.5 102.999s-31.833 32 -58.5 32s-46.167 -10.667 -58.5 -32s-18.5 -55.666 -18.5 -102.999z" />
    <glyph glyph-name="ampersand" unicode="&#x26;" horiz-adv-x="733" 
d="M582 165l134.999 -166h-169l-54 70c-58.667 -56 -127 -84 -205 -84c-68.667 0 -123.667 18.333 -165 55c-42.667 36.667 -64 84.667 -64 144c0 96.667 56.667 170.667 170 222l-5 6c-48 60.667 -72 112.334 -72 155.001c0 47.333 18 86.333 54 117
c36 30 81.333 45 136 45c56.667 0 103.334 -16 140.001 -48c36 -32 54 -71.667 54 -119c0 -73.333 -42 -135.666 -126 -186.999l90 -110c16 35.333 26.333 74.666 31 117.999h135c-10.667 -78.667 -39 -151.334 -85 -218.001zM346.999 613
c-17.333 0 -31.501 -5.16699 -42.501 -15.5s-16.5 -24.166 -16.5 -41.499c0 -20 9.33301 -41.333 28 -64l21 -26c46.667 29.333 70 58.666 70 87.999c0 18 -5.66699 32.333 -17 43s-25.666 16 -42.999 16zM304.998 107c44 0 83 18 117 54l-118 150
c-65.333 -32 -98 -71 -98 -117c0 -26 9 -47 27 -63s42 -24 72 -24z" />
    <glyph glyph-name="quotesingle" unicode="'" horiz-adv-x="250" 
d="M190 423h-130v291h130v-291z" />
    <glyph glyph-name="parenleft" unicode="(" horiz-adv-x="352" 
d="M319 -204h-137c-98 142.667 -147 299.667 -147 471c0 178 49 338 147 480h137c-94.667 -142.667 -142 -302.667 -142 -480c0 -169.333 47.333 -326.333 142 -471z" />
    <glyph glyph-name="parenright" unicode=")" horiz-adv-x="352" 
d="M170 -204h-137c94.667 144.667 142 301.667 142 471c0 177.333 -47.333 337.333 -142 480h137c98 -142 147 -302 147 -480c0 -171.333 -49 -328.333 -147 -471z" />
    <glyph glyph-name="asterisk" unicode="*" horiz-adv-x="537" 
d="M269 441l-83 -123l-86 61l96 109l-136 35l35 100l130 -53l-8 142h103l-8 -142l130 53l35 -100l-135 -35l98 -109l-86 -61z" />
    <glyph glyph-name="plus" unicode="+" 
d="M415 371h210v-120h-210v-215h-130v215h-210v120h210v214h130v-214z" />
    <glyph glyph-name="comma" unicode="," horiz-adv-x="283" 
d="M80 -159h-19v64h19c44 0 66 22 66 66v29h-86v150h163v-179c0 -86.667 -47.667 -130 -143 -130z" />
    <glyph glyph-name="hyphen" unicode="-" horiz-adv-x="380" 
d="M330 222h-280v122h280v-122z" />
    <glyph glyph-name="period" unicode="." horiz-adv-x="285" 
d="M225 0h-165v150h165v-150z" />
    <glyph glyph-name="slash" unicode="/" horiz-adv-x="499" 
d="M173 0h-143l296 712h143z" />
    <glyph glyph-name="zero" unicode="0" 
d="M545 83c-50.667 -66 -122.333 -99 -215 -99c-92 0 -163.667 33 -215 99c-50.667 65.333 -76 157.666 -76 276.999c0 116 25.5 206.333 76.5 271s122.5 97 214.5 97s163.5 -32.333 214.5 -97s76.5 -155 76.5 -271c0 -119.333 -25.333 -211.666 -76 -276.999zM189.001 357
c0 -165.333 47 -248 141 -248s141 82.667 141 248c0 164 -47 246 -141 246s-141 -82 -141 -246z" />
    <glyph glyph-name="one" unicode="1" horiz-adv-x="458" 
d="M360 0h-147.999v485h-179v99h52c45.333 0 80.666 11.667 105.999 35c20.667 18.667 33 46.667 37 84l1 9h131v-712z" />
    <glyph glyph-name="two" unicode="2" 
d="M593 0l-526 -0.00195312c0 56.667 11.667 105.834 35 147.501s61.666 82.167 114.999 121.5l136 100c27.333 20.667 47.166 40.667 59.499 60s18.5 42 18.5 68c0 34 -9.5 60.5 -28.5 79.5s-44.833 28.5 -77.5 28.5c-34 0 -60.333 -10.5 -79 -31.5s-28 -51.5 -28 -91.5
v-20h-143v13c0 79.333 22.333 141.333 67 186s106.667 67 186 67c78 0 140.333 -20.333 187 -61c47.333 -41.333 71 -95.666 71 -162.999c0 -92.667 -48.333 -171 -145 -235l-121 -80c-23.333 -15.333 -39.166 -27.5 -47.499 -36.5s-13.166 -18.5 -14.499 -28.5h335v-124z
" />
    <glyph glyph-name="three" unicode="3" 
d="M336 -17c-92 0 -162.5 23.166 -211.5 69.499s-74.167 109.5 -75.5 189.5h146c1.33301 -42.667 14.166 -76.167 38.499 -100.5s57.5 -36.5 99.5 -36.5c38 0 67.833 9.66699 89.5 29s32.5 45 32.5 77c0 32.667 -11.667 58.334 -35 77.001s-56 28 -98 28h-52v110h46
c32.667 0 58.667 8.16699 78 24.5s29 38.5 29 66.5s-9.5 50.167 -28.5 66.5s-45.5 24.5 -79.5 24.5c-69.333 0 -105.666 -38.667 -108.999 -116h-141c6 157.333 91.333 236 256 236c77.333 0 138.5 -17 183.5 -51s67.5 -79.333 67.5 -136c0 -35.333 -9.5 -66.333 -28.5 -93
s-45.5 -46 -79.5 -58v-2c48 -10.667 84.667 -31.5 110 -62.5s38 -70.167 38 -117.5c0 -66 -24 -120 -72 -162c-49.333 -42 -117.333 -63 -204 -63z" />
    <glyph glyph-name="four" unicode="4" 
d="M514 712v-443h107v-119h-107v-150h-145v150h-329v153l318 409h156zM165 269h204v259h-3z" />
    <glyph glyph-name="five" unicode="5" 
d="M326 -16c-74.667 0 -136.668 18.334 -186.001 55.001s-79 86.667 -89 150l146 12c16.667 -60.667 59.667 -91 129 -91c40 0 72.333 11.5 97 34.5s37 52.833 37 89.5s-12.167 66.167 -36.5 88.5s-58.166 33.5 -101.499 33.5c-42.667 0 -80.667 -14.333 -114 -43l-137 20
l66 379h423v-130h-313l-24 -139l2 -1c40 26 87.333 39 142 39c69.333 0 127 -22 173 -66c45.333 -44 68 -102.333 68 -175c0 -76.667 -26 -138.334 -78 -185.001c-52.667 -47.333 -120.667 -71 -204 -71z" />
    <glyph glyph-name="six" unicode="6" 
d="M370 486c74.667 0 134.996 -22.999 180.996 -68.999c45.333 -46.667 68 -106.334 68 -179.001c0 -75.333 -25.667 -136.666 -77 -183.999s-117.333 -71 -198 -71c-94 0 -167.667 30.667 -221 92c-54.667 63.333 -82 153.666 -82 270.999c0 124 25.333 218.667 76 284
s123.334 98 218.001 98c72 0 131 -17.667 177 -53s73 -83.333 81 -144h-142c-5.33301 23.333 -18.666 42.333 -39.999 57s-46.666 22 -75.999 22c-95.333 0 -145.666 -71 -150.999 -213c45.333 59.333 107.333 89 186 89zM342.996 107.001c38.667 0 69.666 12.5 92.999 37.5
s35 56.167 35 93.5c0 38.667 -12.333 70.167 -37 94.5s-56 36.5 -94 36.5c-38.667 0 -70.167 -12 -94.5 -36s-36.5 -55 -36.5 -93c0 -38.667 12 -70 36 -94c24.667 -26 57.334 -39 98.001 -39z" />
    <glyph glyph-name="seven" unicode="7" 
d="M340 0h-165.999c0 192.667 83.667 385.667 251 579h-359v133h528v-123c-88 -100 -151 -194 -189 -282c-38.667 -88.667 -60.334 -191 -65.001 -307z" />
    <glyph glyph-name="eight" unicode="8" 
d="M542 45c-51.333 -40.667 -121.998 -61 -211.998 -61s-160.667 20.333 -212 61c-52 40 -78 94.667 -78 164c0 44 12 81.833 36 113.5s57.333 54.167 100 67.5v4c-30 12.667 -54.333 32.667 -73 60s-28 57 -28 89c0 56.667 22.667 101.667 68 135s107.666 50 186.999 50
s141.666 -16.667 186.999 -50s68 -78.333 68 -135c0 -34 -9.33301 -64.833 -28 -92.5s-43 -46.5 -73 -56.5v-4c42.667 -13.333 76 -35.833 100 -67.5s36 -69.5 36 -113.5c0 -69.333 -26 -124 -78 -164zM245.002 457c20.667 -16.667 49 -25 85 -25
c36.667 0 65.334 8.33301 86.001 25c20.667 16 31 38.333 31 67s-10 51 -30 67c-21.333 15.333 -50.333 23 -87 23s-65.334 -7.66699 -86.001 -23c-20.667 -16 -31 -38.333 -31 -67s10.667 -51 32 -67zM227.002 130c24.667 -20.667 59 -31 103 -31s78.667 10.333 104 31
c25.333 20 38 47.333 38 82c0 35.333 -12.5 63 -37.5 83s-59.833 30 -104.5 30s-79.5 -10 -104.5 -30s-37.5 -47.667 -37.5 -83c0 -34.667 13 -62 39 -82z" />
    <glyph glyph-name="nine" unicode="9" 
d="M537 629c54.667 -63.333 82.0039 -153.666 82.0039 -270.999c0 -124 -25.333 -218.667 -76 -284s-123.334 -98 -218.001 -98c-72 0 -131 17.667 -177 53s-73 83.333 -81 144h142c5.33301 -23.333 18.666 -42.333 39.999 -57s46.666 -22 75.999 -22
c95.333 0 145.666 71 150.999 213c-45.333 -59.333 -107.333 -89 -186 -89c-74.667 0 -134.667 23 -180 69c-46 46 -69 105.667 -69 179c0 75.333 25.667 136.666 77 183.999s117.333 71 198 71c94 0 167.667 -30.667 221 -92zM320.004 335c38.667 0 70.168 12 94.501 36
s36.5 55 36.5 93c0 38.667 -12 70 -36 94c-24.667 26 -57.334 39 -98.001 39c-38.667 0 -69.667 -12.5 -93 -37.5s-35 -56.167 -35 -93.5c0 -38.667 12.333 -70.167 37 -94.5s56 -36.5 94 -36.5z" />
    <glyph glyph-name="colon" unicode=":" horiz-adv-x="285" 
d="M225 351h-165v150h165v-150zM225 0h-165v150h165v-150z" />
    <glyph glyph-name="semicolon" unicode=";" horiz-adv-x="285" 
d="M225 351h-165v150h165v-150zM80 -159h-19v64h19c44 0 66 22 66 66v29h-86v150h163v-179c0 -86.667 -47.667 -130 -143 -130z" />
    <glyph glyph-name="less" unicode="&#x3c;" 
d="M72 368l557 192v-140l-385 -117l385 -116v-140l-557 191v130z" />
    <glyph glyph-name="equal" unicode="=" 
d="M620 369h-540v120h540v-120zM620 130h-540v120h540v-120z" />
    <glyph glyph-name="greater" unicode="&#x3e;" 
d="M72 420v140l557 -192v-130l-557 -191v140l385 116z" />
    <glyph glyph-name="question" unicode="?" horiz-adv-x="589" 
d="M365 234l-134.001 0.000976562v27c0 33.333 6.83301 61.166 20.5 83.499s38.834 45.833 75.501 70.5c26 17.333 44.333 33.5 55 48.5s16 32.167 16 51.5c0 28.667 -10.5 50.5 -31.5 65.5s-48.167 22.5 -81.5 22.5c-72.667 0 -110.667 -37.667 -114 -113h-143
c2 76.667 25.5 135.5 70.5 176.5s108.167 61.5 189.5 61.5c82 0 147 -19 195 -57c47.333 -38 71 -88.333 71 -151c0 -65.333 -29.667 -117.666 -89 -156.999l-47 -31c-21.333 -14 -35.5 -26.833 -42.5 -38.5s-10.5 -26.834 -10.5 -45.501v-14zM373.999 0.000976562h-152v150
h152v-150z" />
    <glyph glyph-name="at" unicode="@" horiz-adv-x="1076" 
d="M545 729c146.667 0 261.332 -37.668 343.999 -113.001c81.333 -75.333 122 -171 122 -287c0 -82 -20 -149.333 -60 -202s-95.333 -79 -166 -79c-66 0 -112 23.667 -138 71c-35.333 -47.333 -85 -71 -149 -71c-58.667 0 -105.334 21.333 -140.001 64
c-35.333 42.667 -53 98.334 -53 167.001c0 67.333 17.667 122.333 53 165c35.333 41.333 82 62 140 62c59.333 0 106 -21 140 -63l11 46h107v-290c0 -39.333 16.667 -59 50 -59c30.667 0 55.834 16.333 75.501 49s29.5 75.667 29.5 129c0 92 -33 167.667 -99 227
c-66 58 -156 87 -270 87s-202.667 -31.333 -266 -94c-64.667 -62.667 -97 -149.667 -97 -261c0 -108.667 32 -194.667 96 -258c64.667 -63.333 153 -95 265 -95c70 0 142 13.667 216 41v-102c-66 -22.667 -136.333 -34 -211 -34c-149.333 0 -266.666 39.667 -351.999 119
s-128 189 -128 329c0 137.333 43 247 129 329s203 123 351 123zM527.998 147.999c25.333 0 46.6689 8.83301 64.002 26.5s28.666 41.167 33.999 70.5v67c-5.33301 28.667 -16.833 51.5 -34.5 68.5s-38.834 25.5 -63.501 25.5c-28.667 0 -51.334 -11.5 -68.001 -34.5
s-25 -54.167 -25 -93.5c0 -40.667 8.33301 -72.5 25 -95.5s39.334 -34.5 68.001 -34.5z" />
    <glyph glyph-name="A" unicode="A" horiz-adv-x="719" 
d="M694 0h-158l-48 148h-258l-48 -148h-157l252 712h171zM299 358l-29 -88h179l-29 88l-60 205z" />
    <glyph glyph-name="B" unicode="B" horiz-adv-x="677" 
d="M493 387c92 -23.333 138.001 -82.666 138.001 -177.999c0 -60.667 -20.333 -110.334 -61 -149.001c-40.667 -40 -98 -60 -172 -60h-333v712h331c65.333 0 117.166 -15.5 155.499 -46.5s57.5 -73.5 57.5 -127.5c0 -38 -10 -70 -30 -96s-48.667 -44.333 -86 -55z
M370.001 592h-157v-155h151c33.333 0 58.333 7 75 21s25 33.333 25 58c0 50.667 -31.333 76 -94 76zM213.001 125h159.001c37.333 0 65.666 8.66699 84.999 26s29 41.333 29 72c0 30 -9.33301 53.167 -28 69.5s-45 24.5 -79 24.5h-166v-192z" />
    <glyph glyph-name="C" unicode="C" horiz-adv-x="693" 
d="M366 -23c-96.667 0 -176 34.668 -238 104.001s-93 161 -93 275c0 113.333 31.333 203.666 94 270.999c63.333 67.333 143 101 239 101c86.667 0 156.667 -22.5 210 -67.5s83.333 -106.5 90 -184.5h-141c-6 39.333 -22.167 69.833 -48.5 91.5s-60.833 32.5 -103.5 32.5
c-60 0 -107 -22 -141 -66s-51 -103.333 -51 -178c0 -77.333 17 -138.5 51 -183.5s81 -67.5 141 -67.5c43.333 0 78 11.667 104 35s42 54.333 48 93h140c-6 -80 -35.667 -142.667 -89 -188s-124 -68 -212 -68z" />
    <glyph glyph-name="D" unicode="D" horiz-adv-x="697" 
d="M65 712h262.001c225.333 0 338 -118.667 338 -356c0 -113.333 -26.833 -201 -80.5 -263s-132.834 -93 -237.501 -93h-282v712zM213.001 125l114.999 -0.000976562c68.667 0 117.334 17.833 146.001 53.5s43 94.834 43 177.501c0 84 -15 144.667 -45 182
c-31.333 36 -86 54 -164 54h-95v-467z" />
    <glyph glyph-name="E" unicode="E" horiz-adv-x="633" 
d="M213 306v-181h380v-125h-528v712h518v-125h-370v-154h333v-127h-333z" />
    <glyph glyph-name="F" unicode="F" horiz-adv-x="573" 
d="M568 712v-132h-355v-153h310v-132h-310v-295h-148v712h503z" />
    <glyph glyph-name="G" unicode="G" horiz-adv-x="742" 
d="M380 385l297 0.000976562v-385h-96l-23 77c-41.333 -62 -107.666 -93 -198.999 -93c-92.667 0 -169.667 34 -231 102c-62 66.667 -93 156.667 -93 270s31.333 203.333 94 270c62 67.333 141.333 101 238 101c86 0 155.333 -20.833 208 -62.5s85 -100.834 97 -177.501
l-145 -9c-7.33301 38.667 -24 68.667 -50 90s-60 32 -102 32c-60 0 -107 -22 -141 -66s-51 -103.333 -51 -178c0 -76.667 17 -137.667 51 -183s81 -68 141 -68c46 0 84.667 13.5 116 40.5s50.666 65.5 57.999 115.5h-169v124z" />
    <glyph glyph-name="H" unicode="H" horiz-adv-x="704" 
d="M491 437v275h148v-712h-148v305h-278v-305h-148v712h148v-275h278z" />
    <glyph glyph-name="I" unicode="I" horiz-adv-x="278" 
d="M213 0h-148v712h148v-712z" />
    <glyph glyph-name="J" unicode="J" horiz-adv-x="575" 
d="M450 42c-40.667 -38.667 -97.334 -58 -170.001 -58c-73.333 0 -129.666 19.333 -168.999 58c-40.667 38.667 -61 92.667 -61 162v63h140v-65c0 -60 29 -90 87 -90c56.667 0 85 30 85 90v510h148v-508c0 -69.333 -20 -123.333 -60 -162z" />
    <glyph glyph-name="K" unicode="K" horiz-adv-x="692" 
d="M687 0h-183l-225 327l-66 -66v-261h-148v712h148v-275l252 275h189l-270 -286z" />
    <glyph glyph-name="L" unicode="L" horiz-adv-x="575" 
d="M213 712v-580h347v-132h-495v712h148z" />
    <glyph glyph-name="M" unicode="M" horiz-adv-x="830" 
d="M445 294l109 418h211v-712h-138v267l17 348l-49 -215l-104 -400h-151l-106 407l-49 209l17 -349v-267h-137v712h208l111 -418l29 -142z" />
    <glyph glyph-name="N" unicode="N" horiz-adv-x="705" 
d="M492 255v457h148v-712h-145l-282 457v-457h-148v712h145z" />
    <glyph glyph-name="O" unicode="O" horiz-adv-x="746" 
d="M614 82c-65.333 -70 -146.332 -105.001 -242.999 -105.001s-176.667 35 -240 105c-64 69.333 -96 161 -96 275c0 112 31.667 202.333 95 271c63.333 67.333 143.666 101 240.999 101c96.667 0 177.667 -33.667 243 -101c64.667 -67.333 97 -157.666 97 -270.999
c0 -114 -32.333 -205.667 -97 -275zM234.001 173.999c33.333 -46 79.002 -69 137.002 -69s104.667 23 140 69c34.667 45.333 52 106.333 52 183c0 73.333 -17.333 132.333 -52 177s-81.334 67 -140.001 67s-104.334 -22.333 -137.001 -67c-34 -45.333 -51 -104.333 -51 -177
c0 -76 17 -137 51 -183z" />
    <glyph glyph-name="P" unicode="P" horiz-adv-x="611" 
d="M65 712h282.999c77.333 0 138 -20.333 182 -61s66 -96.667 66 -168c0 -74 -22.667 -131.667 -68 -173s-109.666 -62 -192.999 -62h-122v-248h-148v712zM212.999 373l109 -0.000976562c42.667 0 75.167 9.33301 97.5 28s33.5 45.334 33.5 80.001
c0 33.333 -10.333 59.333 -31 78s-49 28 -85 28h-124v-214z" />
    <glyph glyph-name="Q" unicode="Q" horiz-adv-x="742" 
d="M711 356c0 -102.667 -27.666 -188.333 -82.999 -257l83 -70l-81 -88l-80 87c-53.333 -34 -113 -51 -179 -51c-96.667 0 -176.667 35 -240 105c-64 69.333 -96 160.666 -96 273.999c0 112 31.667 202.333 95 271c63.333 67.333 143.666 101 240.999 101
c96.667 0 177.667 -33.667 243 -101c64.667 -67.333 97 -157.666 97 -270.999zM183.001 356.001c0 -76.667 16.835 -137.666 50.502 -182.999s79.5 -68 137.5 -68c28.667 0 54.667 6 78 18l-73 61l81 88l68 -76c25.333 43.333 38 96.666 38 159.999
c0 73.333 -17.333 132.333 -52 177s-81.334 67 -140.001 67s-104.334 -22.333 -137.001 -67c-34 -44.667 -51 -103.667 -51 -177z" />
    <glyph glyph-name="R" unicode="R" horiz-adv-x="677" 
d="M486 342c35.333 -7.33301 60.666 -20.501 75.999 -39.501s25.333 -44.5 30 -76.5l29 -226h-152l-17 183c-3.33301 32.667 -13.166 56.334 -29.499 71.001s-42.5 22 -78.5 22h-131v-276h-148v712h332c78.667 0 136 -18.333 172 -55c35.333 -37.333 53 -84.333 53 -141
c0 -92 -45.333 -150 -136 -174zM213 587.999v-192h142c40.667 0 71.167 8.83301 91.5 26.5s30.5 42.167 30.5 73.5c0 28.667 -8.5 51.167 -25.5 67.5s-42.5 24.5 -76.5 24.5h-162z" />
    <glyph glyph-name="S" unicode="S" horiz-adv-x="663" 
d="M341 -23c-92 0 -164.832 21.666 -218.499 64.999s-81.5 103 -83.5 179h145c2 -39.333 16.667 -69.666 44 -90.999s64.666 -32 111.999 -32c40.667 0 72.667 7.83301 96 23.5s35 37.5 35 65.5c0 23.333 -8.33301 41.166 -25 53.499s-44.667 23.5 -84 33.5l-131 33
c-56 14 -99.167 38 -129.5 72s-45.5 76 -45.5 126c0 62 23 114.667 69 158c45.333 43.333 111 65 197 65s154.667 -21.333 206 -64c51.333 -43.333 79.333 -100 84 -170h-144c-4.66699 35.333 -20 63 -46 83s-59 30 -99 30c-36 0 -64.667 -8 -86 -24s-32 -36.667 -32 -62
c0 -39.333 27.667 -66 83 -80l142 -35c129.333 -31.333 194 -99.666 194 -204.999c0 -69.333 -25.167 -124 -75.5 -164s-119.5 -60 -207.5 -60z" />
    <glyph glyph-name="T" unicode="T" horiz-adv-x="615" 
d="M20 712h575v-132h-213v-580h-148v580h-214v132z" />
    <glyph glyph-name="U" unicode="U" horiz-adv-x="683" 
d="M545 40c-48.667 -42 -116.667 -63 -204 -63s-155 21 -203 63c-48.667 42 -73 101.667 -73 179v493h148v-495c0 -74.667 43 -112 129 -112c85.333 0 128 37.333 128 112v495h148v-493c0 -77.333 -24.333 -137 -73 -179z" />
    <glyph glyph-name="V" unicode="V" horiz-adv-x="673" 
d="M399 402l92 310h157l-242 -712h-140l-241 712h157l95 -310l61 -235z" />
    <glyph glyph-name="W" unicode="W" horiz-adv-x="971" 
d="M702 356l92 356h152l-208 -712h-142l-109 486l-110 -486h-144l-208 712h157l92 -356l34 -143l29 143l78 356h146l78 -356l29 -143z" />
    <glyph glyph-name="X" unicode="X" horiz-adv-x="682" 
d="M641 712l-216 -337l232 -375h-168l-116 209l-29 68l-31 -69l-117 -208h-171l240 376l-211 336h165l93 -164l35 -80l35 78l98 166h161z" />
    <glyph glyph-name="Y" unicode="Y" horiz-adv-x="656" 
d="M369 491l110 221h159l-236 -436v-276h-148v276l-236 436h163l108 -221l39 -99z" />
    <glyph glyph-name="Z" unicode="Z" horiz-adv-x="681" 
d="M71 712h564v-115l-393 -471h393v-126h-589v115l393 471h-368v126z" />
    <glyph glyph-name="bracketleft" unicode="[" horiz-adv-x="362" 
d="M329 -204h-264v951h264v-110h-128v-731h128v-110z" />
    <glyph glyph-name="backslash" unicode="\" horiz-adv-x="499" 
d="M469 0h-143l-296 712h143z" />
    <glyph glyph-name="bracketright" unicode="]" horiz-adv-x="362" 
d="M297 -204h-264v110h128v731h-128v110h264v-951z" />
    <glyph glyph-name="asciicircum" unicode="^" 
d="M278 712h144l170 -516h-142l-47 155c-16.667 56 -33.667 124 -51 204c-10.667 -46.667 -28 -114.667 -52 -204l-43 -155h-149z" />
    <glyph glyph-name="underscore" unicode="_" horiz-adv-x="500" 
d="M500 -154h-500v79h500v-79z" />
    <glyph glyph-name="grave" unicode="`" horiz-adv-x="500" 
d="M360 571h-94l-125 141h172z" />
    <glyph glyph-name="a" unicode="a" horiz-adv-x="557" 
d="M517 0l-142.999 0.000976562c-7.33301 33.333 -11 50.666 -11 51.999c-36.667 -44.667 -89.667 -67 -159 -67c-54 0 -97.333 14.333 -130 43s-49 66.667 -49 114c0 83.333 52.333 135.333 157 156l180 36v38c0 37.333 -29 56 -87 56
c-28.667 0 -50.334 -5.33301 -65.001 -16s-23.667 -28 -27 -52l-129 2c8.66699 110.667 82 166 220 166c148.667 0 223 -64 223 -192v-228c0 -48.667 6.66699 -84.667 20 -108zM244.001 89.001c35.333 0 63.834 10.501 85.501 31.501s32.5 49.5 32.5 85.5v38l-132 -28
c-44.667 -8.66699 -67 -30.334 -67 -65.001c0 -18.667 7.16699 -33.667 21.5 -45s34.166 -17 59.499 -17z" />
    <glyph glyph-name="b" unicode="b" horiz-adv-x="593" 
d="M351 529c60.667 0 110.999 -24.334 150.999 -73.001c40 -49.333 60 -114.666 60 -195.999c0 -82 -20.667 -148.667 -62 -200s-94.666 -77 -159.999 -77s-115.333 27 -150 81l-5 -64h-125v712h141v-248c35.333 43.333 85.333 65 150 65zM309.999 106.999
c34.667 0 62.667 14 84 42s32 65 32 111s-10.667 82.833 -32 110.5s-49.333 41.5 -84 41.5s-62.667 -13.833 -84 -41.5s-32 -64.5 -32 -110.5s10.833 -83 32.5 -111s49.5 -42 83.5 -42z" />
    <glyph glyph-name="c" unicode="c" horiz-adv-x="548" 
d="M281 -17c-75.333 0 -135.666 24.666 -180.999 73.999c-44.667 48.667 -67 115 -67 199s22.333 150.333 67 199c45.333 49.333 105.666 74 180.999 74c66 0 119.667 -16.833 161 -50.5s67.333 -81.167 78 -142.5h-138c-15.333 55.333 -48.333 83 -99 83
c-36 0 -64 -14.167 -84 -42.5s-30 -68.5 -30 -120.5s10 -92.167 30 -120.5s48 -42.5 84 -42.5c50 0 83 28.333 99 85h138c-10.667 -61.333 -37 -109.166 -79 -143.499s-95.333 -51.5 -160 -51.5z" />
    <glyph glyph-name="d" unicode="d" horiz-adv-x="595" 
d="M394 464l-0.000976562 248.001h141v-712h-125l-5 64c-35.333 -54 -85.333 -81 -150 -81c-65.333 0 -118.666 25.667 -159.999 77s-62 118 -62 200c0 81.333 20 146.666 60 195.999c40 48.667 90.333 73 151 73c64.667 0 114.667 -21.667 150 -65zM284.999 107.001
c34 0 61.833 14 83.5 42s32.5 65 32.5 111s-10.667 82.833 -32 110.5s-49.333 41.5 -84 41.5s-62.667 -13.833 -84 -41.5s-32 -64.5 -32 -110.5s10.667 -83 32 -111s49.333 -42 84 -42z" />
    <glyph glyph-name="e" unicode="e" horiz-adv-x="583" 
d="M552 240l0.000976562 -24h-374c2.66699 -38.667 14.667 -69 36 -91s49.666 -33 84.999 -33c50 0 83.333 22.333 100 67l140 -10c-17.333 -54.667 -46.333 -96.167 -87 -124.5s-90.667 -42.5 -150 -42.5c-83.333 0 -149 26 -197 78s-72 118.667 -72 200
c0 78 23 142.333 69 193s107.667 76 185 76c78 0 141.667 -26 191 -78c49.333 -52.667 74 -123 74 -211zM370.001 396c-20 20 -46 30 -78 30s-58.333 -10 -79 -30c-20.667 -21.333 -32.667 -49.333 -36 -84h229c-4 36 -16 64 -36 84z" />
    <glyph glyph-name="f" unicode="f" horiz-adv-x="336" 
d="M326 599l-38.999 0.000976562c-39.333 0 -59 -19.667 -59 -59v-27l98 3v-104l-98 3v-415h-141v415l-72 -3v104l72 -3v34c0 53.333 14.167 94.166 42.5 122.499s69.166 42.5 122.499 42.5h74v-113z" />
    <glyph glyph-name="g" unicode="g" horiz-adv-x="595" 
d="M405 452l4.99902 64h125v-522c0 -67.333 -21.5 -119.166 -64.5 -155.499s-103.5 -54.5 -181.5 -54.5c-72 0 -128.167 15 -168.5 45s-63.166 73 -68.499 129h130c8 -46 42.667 -69 104 -69c38.667 0 66.334 8.5 83.001 25.5s25 42.833 25 77.5v71
c-34.667 -42 -81.334 -63 -140.001 -63c-65.333 0 -118.333 25 -159 75c-41.333 49.333 -62 113.666 -62 192.999c0 80 20.667 143.667 62 191c40.667 46.667 93.667 70 159 70c66.667 0 117 -25.667 151 -77zM284.999 120c34 0 61.833 13.667 83.5 41s32.5 63 32.5 107
s-10.833 79.667 -32.5 107s-49.5 41 -83.5 41c-34.667 0 -62.667 -13.333 -84 -40s-32 -62.667 -32 -108s10.667 -81.333 32 -108s49.333 -40 84 -40z" />
    <glyph glyph-name="h" unicode="h" horiz-adv-x="578" 
d="M349 529c53.333 0 94.833 -16.332 124.5 -48.999s44.5 -77.334 44.5 -134.001v-346h-141v314c0 28 -6.5 49.667 -19.5 65s-31.5 23 -55.5 23c-30 0 -54.333 -11.5 -73 -34.5s-28 -53.5 -28 -91.5v-276h-141v712h141v-265c34 54.667 83.333 82 148 82z" />
    <glyph glyph-name="i" unicode="i" horiz-adv-x="261" 
d="M201 584h-141v128h141v-128zM201 0h-141v516h141v-516z" />
    <glyph glyph-name="j" unicode="j" horiz-adv-x="261" 
d="M201 584h-141v128h141v-128zM65 -204h-91.999v124h36c19.333 0 32.666 3 39.999 9s11 16.667 11 32v555h141v-574c0 -52 -10.5 -89.333 -31.5 -112s-55.833 -34 -104.5 -34z" />
    <glyph glyph-name="k" unicode="k" horiz-adv-x="572" 
d="M557 0h-167l-137 224l-52 -53v-171h-141v712h141v-391l175 195h177l-201 -203z" />
    <glyph glyph-name="l" unicode="l" horiz-adv-x="261" 
d="M201 0h-141v712h141v-712z" />
    <glyph glyph-name="m" unicode="m" horiz-adv-x="865" 
d="M640 529c51.333 0 91.6699 -16.667 121.003 -50s44 -78 44 -134v-345h-141v317c0 25.333 -5.83301 45.833 -17.5 61.5s-28.834 23.5 -51.501 23.5c-27.333 0 -49.5 -11.5 -66.5 -34.5s-25.5 -53.5 -25.5 -91.5v-276h-141v317c0 25.333 -5.83301 45.833 -17.5 61.5
s-28.834 23.5 -51.501 23.5c-27.333 0 -49.5 -11.5 -66.5 -34.5s-25.5 -53.5 -25.5 -91.5v-276h-141v516h138l2 -66c32 52.667 78.667 79 140 79c73.333 0 122.666 -31 147.999 -93c33.333 62 84 93 152 93z" />
    <glyph glyph-name="n" unicode="n" horiz-adv-x="578" 
d="M349 529c53.333 0 94.833 -16.332 124.5 -48.999s44.5 -77.334 44.5 -134.001v-346h-141v314c0 28 -6.5 49.667 -19.5 65s-31.5 23 -55.5 23c-30 0 -54.333 -11.5 -73 -34.5s-28 -53.5 -28 -91.5v-276h-141v516h138l2 -70c33.333 55.333 83 83 149 83z" />
    <glyph glyph-name="o" unicode="o" horiz-adv-x="592" 
d="M487 61c-48.667 -52 -111.998 -78 -189.998 -78s-141.333 26 -190 78c-49.333 51.333 -74 116.333 -74 195c0 78 24.667 143.333 74 196c49.333 51.333 112.666 77 189.999 77s140.666 -25.667 189.999 -77c49.333 -52.667 74 -118 74 -196
c0 -78.667 -24.667 -143.667 -74 -195zM204.002 137c23.333 -29.333 54.333 -44.002 93 -44.002c39.333 0 70.666 14.667 93.999 44c22.667 28.667 34 68.334 34 119.001s-11.333 90.334 -34 119.001c-23.333 29.333 -54.666 44 -93.999 44
c-38.667 0 -69.667 -14.667 -93 -44s-35 -69 -35 -119s11.667 -89.667 35 -119z" />
    <glyph glyph-name="p" unicode="p" horiz-adv-x="593" 
d="M351 529c60.667 0 110.999 -24.334 150.999 -73.001c40 -49.333 60 -114.666 60 -195.999c0 -82 -20.667 -148.667 -62 -200s-94.666 -77 -159.999 -77c-58.667 0 -105 21.667 -139 65v-252h-141v720h125l5 -67c35.333 53.333 89 80 161 80zM309.999 106.999
c34.667 0 62.667 14 84 42s32 65 32 111s-10.667 82.833 -32 110.5s-49.333 41.5 -84 41.5s-62.667 -13.833 -84 -41.5s-32 -64.5 -32 -110.5s10.833 -83 32.5 -111s49.5 -42 83.5 -42z" />
    <glyph glyph-name="q" unicode="q" horiz-adv-x="595" 
d="M405 449l4.99902 67.001h125v-712h-141v244c-34 -43.333 -80.333 -65 -139 -65c-65.333 0 -118.666 25.667 -159.999 77s-62 118 -62 200c0 81.333 20 146.666 60 195.999c40 48.667 90.333 73 151 73c72 0 125.667 -26.667 161 -80zM284.999 107.001
c34 0 61.833 14 83.5 42s32.5 65 32.5 111s-10.667 82.833 -32 110.5s-49.333 41.5 -84 41.5s-62.667 -13.833 -84 -41.5s-32 -64.5 -32 -110.5s10.667 -83 32 -111s49.333 -42 84 -42z" />
    <glyph glyph-name="r" unicode="r" horiz-adv-x="378" 
d="M313 534c16.667 0 31.667 -2.33301 45 -7v-129c-17.333 1.33301 -27 2 -29 2c-85.333 0 -128 -49.667 -128 -149v-251h-141v516h138l-2 -69c22.667 58 61.667 87 117 87z" />
    <glyph glyph-name="s" unicode="s" horiz-adv-x="540" 
d="M443 27c-40.667 -30.667 -96.333 -45.999 -167 -45.999s-125.334 15 -164.001 45c-39.333 30 -62.666 72.667 -69.999 128l129 5c9.33301 -53.333 46 -80 110 -80c28.667 0 51.334 5 68.001 15s25 24 25 42c0 25.333 -22.667 42.666 -68 51.999l-102 20
c-100 20 -150 70.333 -150 151c0 52 19 93.333 57 124s89 46 153 46c62 0 113 -14.833 153 -44.5s63.333 -69.834 70 -120.501l-127 -5c-3.33301 22.667 -13.833 40.334 -31.5 53.001s-39.834 19 -66.501 19c-23.333 0 -42 -5 -56 -15s-21 -23.333 -21 -40
c0 -26 19.333 -43.333 58 -52l111 -23c51.333 -10.667 89.333 -28 114 -52s37 -56 37 -96c0 -54 -20.667 -96 -62 -126z" />
    <glyph glyph-name="t" unicode="t" horiz-adv-x="342" 
d="M322 412l-96 3v-253c0 -17.333 3.83301 -29.833 11.5 -37.5s20.167 -11.5 37.5 -11.5h47v-113h-92c-52 0 -89.167 11.167 -111.5 33.5s-33.5 59.5 -33.5 111.5v270l-70 -3v104l70 -2v161h141v-162l96 3v-104z" />
    <glyph glyph-name="u" unicode="u" horiz-adv-x="578" 
d="M377 240v275.999h141v-516h-138l-2 70c-33.333 -55.333 -83 -83 -149 -83c-53.333 0 -94.833 16.333 -124.5 49s-44.5 77.334 -44.5 134.001v346h141v-314c0 -28 6.5 -49.667 19.5 -65s31.5 -23 55.5 -23c30 0 54.333 11.5 73 34.5s28 53.5 28 91.5z" />
    <glyph glyph-name="v" unicode="v" horiz-adv-x="514" 
d="M310 361l47 155h142l-170 -516h-144l-170 516h149l43 -155l53 -225z" />
    <glyph glyph-name="w" unicode="w" horiz-adv-x="777" 
d="M557 287l57 229h148l-153 -516h-134l-74 287l-12 68l-13 -68l-74 -287h-134l-153 516h148l57 -229l24 -130l24 130l58 229h125l58 -227l24 -132z" />
    <glyph glyph-name="x" unicode="x" horiz-adv-x="548" 
d="M351 272l182 -272h-164l-93 169l-103 -169h-158l191 271l-166 245h161l80 -145l87 145h149z" />
    <glyph glyph-name="y" unicode="y" horiz-adv-x="556" 
d="M281 151l109.999 365h150l-206 -608c-14 -42.667 -32.167 -72 -54.5 -88s-53.166 -24 -92.499 -24h-118v120h68c38 0 62.333 14.667 73 44l5 14l-201 542h155l95 -290z" />
    <glyph glyph-name="z" unicode="z" horiz-adv-x="485" 
d="M455 401l-257 -285h267v-116h-445v113l265 287h-233v116h403v-115z" />
    <glyph glyph-name="braceleft" unicode="{" horiz-adv-x="408" 
d="M375 -204l-123 0.00195312c-39.333 0 -70.333 11.833 -93 35.5s-34 56.5 -34 98.5v211c0 53.333 -30.667 81 -92 83v100c61.333 2 92 31.333 92 88v201c0 39.333 12 71.5 36 96.5s54.333 37.5 91 37.5h123v-110h-60c-36 0 -54 -20.333 -54 -61v-181
c0 -72.667 -34.333 -112.334 -103 -119.001v-3c68.667 -8.66699 103 -48.334 103 -119.001v-187c0 -40.667 18.333 -61 55 -61h59v-110z" />
    <glyph glyph-name="bar" unicode="|" horiz-adv-x="271" 
d="M206 -204h-141v951h141v-951z" />
    <glyph glyph-name="braceright" unicode="}" horiz-adv-x="408" 
d="M156 -204l-123 -0.00195312v110h59c36.667 0 55 20.333 55 61v187c0 70.667 34.333 110.334 103 119.001v3c-68.667 6.66699 -103 46.334 -103 119.001v181c0 40.667 -18 61 -54 61h-60v110h123c36.667 0 67 -12.5 91 -37.5s36 -57.167 36 -96.5v-201
c0 -56.667 30.667 -86 92 -88v-100c-61.333 -2 -92 -29.667 -92 -83v-211c0 -42 -11.333 -74.833 -34 -98.5s-53.667 -35.5 -93 -35.5z" />
    <glyph glyph-name="asciitilde" unicode="~" 
d="M207 236h-120.001c0 130.667 50 196 150 196c36.667 0 76.334 -10 119.001 -30c42 -20.667 72.333 -31 91 -31c16.667 0 28.5 4.83301 35.5 14.5s10.5 25.167 10.5 46.5h120c0 -130.667 -50 -196 -150 -196c-36.667 0 -75.667 10.333 -117 31
c-42.667 20 -73.667 30 -93 30c-16.667 0 -28.5 -4.5 -35.5 -13.5s-10.5 -24.833 -10.5 -47.5z" />
    <glyph glyph-name="uni00A0" unicode="&#xa0;" horiz-adv-x="250" 
 />
    <glyph glyph-name="exclamdown" unicode="&#xa1;" horiz-adv-x="282" 
d="M217 366h-152v150h152v-150zM215 -204h-148v184l39 302h71l38 -302v-184z" />
    <glyph glyph-name="cent" unicode="&#xa2;" 
d="M357 93c50 0 83.002 28.3291 99.002 84.9961h138c-8.66699 -51.333 -28.834 -93.5 -60.501 -126.5s-72.5 -54.167 -122.5 -63.5v-132h-110v132c-60.667 10.667 -108.167 39.834 -142.5 87.501s-51.5 107.834 -51.5 180.501s17.167 132.834 51.5 180.501
s81.833 76.834 142.5 87.501v142h110v-142c50 -8.66699 90.667 -29.167 122 -61.5s51.666 -74.5 60.999 -126.5h-138c-15.333 55.333 -48.333 83 -99 83c-36 0 -64 -14.167 -84 -42.5s-30 -68.5 -30 -120.5s10 -92.167 30 -120.5s48 -42.5 84 -42.5z" />
    <glyph glyph-name="sterling" unicode="&#xa3;" 
d="M407 125l232.999 -0.00195312v-125h-580v125h59c64.667 0 114.334 10 149.001 30s52 45 52 75c0 14.667 -4.66699 28.667 -14 42l-246 -7v125l141 -6c-66 42.667 -99 94.667 -99 156c0 52 21 96.667 63 134c40.667 36 101.667 54 183 54c84 0 150.333 -21 199 -63
c47.333 -42 72.666 -95.667 75.999 -161h-144c-2 32 -13.667 57.167 -35 75.5s-49.666 27.5 -84.999 27.5c-32 0 -58 -7.16699 -78 -21.5s-30 -34.166 -30 -59.499c0 -48.667 44 -96 132 -142l206 6v-125l-124 6c5.33301 -14.667 8 -28 8 -40
c0 -43.333 -22 -78.666 -66 -105.999z" />
    <glyph glyph-name="currency" unicode="&#xa4;" 
d="M673 589l-99 -95c23.333 -41.333 35 -86.333 35 -135s-11.667 -93.667 -35 -135l99 -95l-93 -93l-96 100c-39.333 -22 -84 -33 -134 -33s-94.667 11 -134 33l-96 -100l-93 93l99 95c-23.333 41.333 -35 86.333 -35 135s11.667 93.667 35 135l-99 95l93 93l96 -100
c39.333 22 84 33 134 33s94.667 -11 134 -33l96 100zM250 255c25.333 -26 58.665 -38.998 99.998 -38.998c42.667 0 76.334 13 101.001 39c24.667 25.333 37 60 37 104s-12.333 78.667 -37 104c-25.333 26 -59 39 -101 39c-41.333 0 -74.666 -13 -99.999 -39
c-25.333 -26.667 -38 -61.334 -38 -104.001s12.667 -77.334 38 -104.001z" />
    <glyph glyph-name="yen" unicode="&#xa5;" 
d="M501 712h159l-180 -332h134v-110h-190v-77h190v-110h-190v-83h-148v83h-189v110h189v77h-189v110h133l-180 332h163l108 -221l39 -99l41 99z" />
    <glyph glyph-name="brokenbar" unicode="&#xa6;" horiz-adv-x="271" 
d="M206 411h-141v336h141v-336zM206 -204h-141v336h141v-336z" />
    <glyph glyph-name="section" unicode="&#xa7;" horiz-adv-x="607" 
d="M572 304c0 -66.667 -31.333 -117.001 -94 -151.001c32 -28.667 48 -66.667 48 -114c0 -52 -19.5 -93.5 -58.5 -124.5s-92.167 -46.5 -159.5 -46.5c-65.333 0 -117.333 14.833 -156 44.5s-61.667 71.5 -69 125.5l130 7c4 -25.333 14.667 -44.833 32 -58.5
s40 -20.5 68 -20.5c25.333 0 45.666 5.33301 60.999 16s23 26 23 46c0 32 -23 53.333 -69 64l-127 29c-110.667 24.667 -166 86 -166 184c0 66.667 31.333 117 94 151c-32 29.333 -48 67.333 -48 114c0 52 19.5 93.5 58.5 124.5s92.167 46.5 159.5 46.5
c65.333 0 117.5 -14.833 156.5 -44.5s62.167 -71.5 69.5 -125.5l-130 -7c-8 52.667 -41.667 79 -101 79c-25.333 0 -45.666 -5.33301 -60.999 -16s-23 -26 -23 -46c0 -31.333 23 -52.666 69 -63.999l127 -29c110.667 -24.667 166 -86 166 -184zM246 232.999l123 -28
c51.333 17.333 77 46.333 77 87c0 43.333 -28.333 71.333 -85 84l-123 28c-51.333 -17.333 -77 -46.333 -77 -87c0 -43.333 28.333 -71.333 85 -84z" />
    <glyph glyph-name="dieresis" unicode="&#xa8;" horiz-adv-x="500" 
d="M215 584h-141v128h141v-128zM426 584h-141v128h141v-128z" />
    <glyph glyph-name="copyright" unicode="&#xa9;" horiz-adv-x="822" 
d="M681 90c-70.667 -70.667 -160.666 -106 -269.999 -106c-108.667 0 -198.334 35.333 -269.001 106c-71.333 70 -107 158.667 -107 266c0 108.667 35.333 198 106 268c71.333 70 161.333 105 270 105s198.667 -35 270 -105c70.667 -70 106 -159.333 106 -268
c0 -107.333 -35.333 -196 -106 -266zM411.001 75c82 0 149 26.668 201 80.001s78 120.666 78 201.999c0 82.667 -26 150.334 -78 203.001c-52.667 52.667 -119.667 79 -201 79s-148 -26.333 -200 -79c-52.667 -52.667 -79 -120.334 -79 -203.001
c0 -82 26.333 -149.333 79 -202c52 -53.333 118.667 -80 200 -80zM414.001 166.001c-54 0 -96.334 16.833 -127.001 50.5s-46 80.5 -46 140.5c0 61.333 15.167 108.5 45.5 141.5s72.833 49.5 127.5 49.5c40 0 73.833 -9.5 101.5 -28.5s46.834 -46.5 57.501 -82.5l-91 -20
c-10.667 30 -32.667 45 -66 45c-50 0 -75 -35 -75 -105c0 -69.333 25 -104 75 -104c34 0 56.333 15.333 67 46l90 -20c-23.333 -75.333 -76.333 -113 -159 -113z" />
    <glyph glyph-name="ordfeminine" unicode="&#xaa;" horiz-adv-x="501" 
d="M257 725c63.333 0 109.833 -11.5 139.5 -34.5s44.5 -58.5 44.5 -106.5v-212h-108l-8 35c-29.333 -28.667 -71 -43 -125 -43c-43.333 0 -77.5 9.83301 -102.5 29.5s-37.5 46.5 -37.5 80.5c0 60.667 41 94 123 100l141 11v14c0 34.667 -22.667 52 -68 52
c-38.667 0 -62.334 -12 -71.001 -36l-116 17c16.667 62 79.334 93 188.001 93zM234 439c26.667 0 48.333 6.83203 65 20.499s25 32.5 25 56.5v11l-99 -8c-31.333 -3.33301 -47 -16.666 -47 -39.999c0 -26.667 18.667 -40 56 -40z" />
    <glyph glyph-name="guillemotleft" unicode="&#xab;" horiz-adv-x="707" 
d="M331 155v-165l-271 208v118l271 208v-165l-141 -102zM647 155v-165l-271 208v118l271 208v-165l-141 -102z" />
    <glyph glyph-name="logicalnot" unicode="&#xac;" 
d="M620 117h-130v187h-410v120h540v-307z" />
    <glyph glyph-name="uni00AD" unicode="&#xad;" horiz-adv-x="380" 
d="M330 222h-280v122h280v-122z" />
    <glyph glyph-name="registered" unicode="&#xae;" horiz-adv-x="608" 
d="M113 652c52 50 115.667 75 191 75s139 -25 191 -75c52 -50.667 78 -112.667 78 -186c0 -72.667 -26 -134 -78 -184c-51.333 -50.667 -115 -76 -191 -76s-139.667 25.333 -191 76c-52 50 -78 111.333 -78 184c0 73.333 26 135.333 78 186zM160 324
c38.667 -38 86.666 -57 143.999 -57s105.666 19 144.999 57c38.667 38 58 85.333 58 142c0 57.333 -19.333 105 -58 143c-39.333 38 -87.666 57 -144.999 57s-105.666 -19 -144.999 -57c-38.667 -38 -58 -85.667 -58 -143c0 -56.667 19.667 -104 59 -142zM416.999 402
l2 -33.999c0.666992 -14.667 4 -24.334 10 -29.001h-81c-4 7.33301 -6.33301 17 -7 29l-2 28c-0.666992 11.333 -3.16699 19 -7.5 23s-11.833 6 -22.5 6h-33v-86h-78v258h127c30.667 0 54.5 -6.83301 71.5 -20.5s25.5 -32.834 25.5 -57.501
c0 -25.333 -11.667 -44.666 -35 -57.999c18.667 -10 28.667 -29.667 30 -59zM275.999 534.001v-50h38c18 0 27 8.33301 27 25s-9 25 -27 25h-38z" />
    <glyph glyph-name="overscore" unicode="&#xaf;" horiz-adv-x="500" 
d="M432 606h-363v105h363v-105z" />
    <glyph glyph-name="degree" unicode="&#xb0;" horiz-adv-x="435" 
d="M218 379c-52.667 0 -96.668 17.6689 -132.001 53.002s-53 79.666 -53 132.999s17.667 97.666 53 132.999c34.667 34.667 78.667 52 132 52c54.667 0 99.334 -17.333 134.001 -52s52 -79 52 -133s-17.333 -98.333 -52 -133c-35.333 -35.333 -80 -53 -134 -53z
M217.999 473.002c26.667 0 48.334 8.66699 65.001 26s25 39.333 25 66s-8.33301 48.5 -25 65.5s-38.334 25.5 -65.001 25.5c-26 0 -47.333 -8.5 -64 -25.5s-25 -38.833 -25 -65.5s8.33301 -48.667 25 -66s38 -26 64 -26z" />
    <glyph glyph-name="plusminus" unicode="&#xb1;" 
d="M415 625v-164h205v-120h-205v-165h-130v165h-205v120h205v164h130zM620 -23h-540v120h540v-120z" />
    <glyph glyph-name="two.sups" unicode="&#xb2;" horiz-adv-x="433" 
d="M382 372h-330.002c0 49.333 6.66699 88.333 20 117s36 52 68 70l97 54c30.667 16.667 46 36.334 46 59.001c0 16 -6 28.667 -18 38s-28.667 14 -50 14c-43.333 0 -66.333 -20 -69 -60h-96c0.666992 47.333 15.334 83.166 44.001 107.499s69.334 36.5 122.001 36.5
c51.333 0 92 -12.167 122 -36.5s45 -56.833 45 -97.5c0 -50.667 -27.667 -91 -83 -121l-100 -54c-19.333 -11.333 -30 -24.333 -32 -39h214v-88z" />
    <glyph glyph-name="three.sups" unicode="&#xb3;" horiz-adv-x="446" 
d="M352 393c-30.667 -24.667 -73.332 -37 -127.999 -37c-54 0 -96 13 -126 39c-30.667 24.667 -47 60.667 -49 108h96c3.33301 -42 29.666 -63 78.999 -63s74 18 74 54c0 34.667 -26 52 -78 52h-35v83h38c43.333 0 65 15.333 65 46c0 15.333 -6.16699 27.333 -18.5 36
s-29.166 13 -50.499 13c-43.333 0 -67 -17.333 -71 -52h-96c2.66699 44 18.5 77.667 47.5 101s69.167 35 120.5 35s91.666 -11 120.999 -33s44 -51.333 44 -88c0 -48 -23.667 -78.667 -71 -92v-1c25.333 -6 45.833 -18.5 61.5 -37.5s23.5 -41.5 23.5 -67.5
c0 -38.667 -15.667 -70.667 -47 -96z" />
    <glyph glyph-name="acute" unicode="&#xb4;" horiz-adv-x="500" 
d="M235 571h-94l47 141h172z" />
    <glyph glyph-name="uni00B5" unicode="&#xb5;" horiz-adv-x="578" 
d="M201 -204h-141.001v720h141v-307c0 -63.333 25 -95 75 -95c30 0 54.333 11.5 73 34.5s28 53.5 28 91.5v276h141v-516h-138l-2 70c-11.333 -26 -28.333 -46.167 -51 -60.5s-48 -21.5 -76 -21.5c-25.333 0 -49.666 6.33301 -72.999 19l-2 -2l25 -115v-94z" />
    <glyph glyph-name="paragraph" unicode="&#xb6;" horiz-adv-x="669" 
d="M374 -103l-120 -0.000976562v430c-76 0 -134.833 16.833 -176.5 50.5s-62.5 79.834 -62.5 138.501c0 130.667 85.333 196 256 196h333v-815h-120v695h-110v-695z" />
    <glyph glyph-name="middot" unicode="&#xb7;" horiz-adv-x="332" 
d="M242 284h-152v150h152v-150z" />
    <glyph glyph-name="cedilla" unicode="&#xb8;" horiz-adv-x="500" 
d="M202 -251h-49v64h35c30 0 45 10 45 30c0 17.333 -9.33301 26 -28 26h-22l-37 52l50 79h75l-38 -57h11c30.667 0 55 -7.83301 73 -23.5s27 -37.167 27 -64.5c0 -33.333 -12.667 -59.333 -38 -78s-60 -28 -104 -28z" />
    <glyph glyph-name="one.sups" unicode="&#xb9;" horiz-adv-x="296" 
d="M236 372h-100v275h-106v75h30c24.667 0 44.667 6 60 18s23 28.667 23 50v9h93v-427z" />
    <glyph glyph-name="ordmasculine" unicode="&#xba;" horiz-adv-x="465" 
d="M234 364c-63.333 0 -112.666 16 -147.999 48s-53 76.333 -53 133s17.667 100.834 53 132.501s84.666 47.5 147.999 47.5c62.667 0 111.667 -15.833 147 -47.5s53 -75.834 53 -132.501c0 -57.333 -17.667 -101.833 -53 -133.5s-84.333 -47.5 -147 -47.5zM173 475
c14.667 -16.667 35 -25 61 -25s46.333 8.33301 61 25c14 16.667 21 40 21 70c0 29.333 -7.16699 52.333 -21.5 69s-34.5 25 -60.5 25s-46.333 -8.33301 -61 -25s-22 -39.667 -22 -69c0 -30 7.33301 -53.333 22 -70z" />
    <glyph glyph-name="guillemotright" unicode="&#xbb;" horiz-adv-x="705" 
d="M330 198l-270 -208v165l140 102l-140 102v165l270 -208v-118zM645 198l-270 -208v165l140 102l-140 102v165l270 -208v-118z" />
    <glyph glyph-name="onequarter" unicode="&#xbc;" horiz-adv-x="1056" 
d="M320 -15h-108l448 742h106zM271 292h-100v275h-106v75h30c24.667 0 44.667 6 60 18s23 28.667 23 50v9h93v-427zM922 0h-95v78l-215 -3v81l197 271h113v-265l69 3v-90l-69 3v-78zM825 308l-103 -144l105 -2v146h-2z" />
    <glyph glyph-name="onehalf" unicode="&#xbd;" horiz-adv-x="1056" 
d="M320 -15h-108l448 742h106zM271 292h-100v275h-106v75h30c24.667 0 44.667 6 60 18s23 28.667 23 50v9h93v-427zM990 0h-330.002c0 49.333 6.66699 88.333 20 117s36 52 68 70l97 54c30.667 16.667 46 36.334 46 59.001c0 16 -6 28.667 -18 38s-28.667 14 -50 14
c-43.333 0 -66.333 -20 -69 -60h-96c0.666992 47.333 15.334 83.166 44.001 107.499s69.334 36.5 122.001 36.5c51.333 0 92 -12.167 122 -36.5s45 -56.833 45 -97.5c0 -50.667 -27.667 -91 -83 -121l-100 -54c-19.333 -11.333 -30 -24.333 -32 -39h214v-88z" />
    <glyph glyph-name="threequarters" unicode="&#xbe;" horiz-adv-x="1149" 
d="M363 313c-30.667 -24.667 -73.333 -37 -128 -37c-54 0 -96 13 -126 39c-30.667 24.667 -47 60.667 -49 108h96c2.66699 -42 29 -63 79 -63c49.333 0 74 18 74 54c0 34.667 -26 52 -78 52h-35v83h38c43.333 0 65 15.333 65 46c0 15.333 -6.16699 27.333 -18.5 36
s-29.166 13 -50.499 13c-43.333 0 -67 -17.333 -71 -52h-96c2.66699 44 18.5 77.667 47.5 101s69.167 35 120.5 35s91.666 -11 120.999 -33s44 -51.333 44 -88c0 -48 -23.667 -78.667 -71 -92v-1c25.333 -6 45.833 -18.5 61.5 -37.5s23.5 -41.5 23.5 -67.5
c0 -38.667 -15.667 -70.667 -47 -96zM418.001 -15h-108l448 742h106zM1020 0h-95v78l-215 -3v81l197 271h113v-265l69 3v-90l-69 3v-78zM923.001 308l-103 -144l105 -2v146h-2z" />
    <glyph glyph-name="questiondown" unicode="&#xbf;" horiz-adv-x="589" 
d="M367 366h-152v150h152v-150zM301 -212c-82 0 -146.666 18.999 -193.999 56.999c-48 38 -72 88.333 -72 151c0 65.333 29.667 117.666 89 156.999l47 31c21.333 14 35.5 26.833 42.5 38.5s10.5 26.834 10.5 45.501v14h134v-27c0 -33.333 -6.83301 -61.166 -20.5 -83.499
s-38.834 -45.833 -75.501 -70.5c-26 -17.333 -44.333 -33.5 -55 -48.5s-16 -32.167 -16 -51.5c0 -28.667 10.5 -50.5 31.5 -65.5s48.167 -22.5 81.5 -22.5c72.667 0 110.667 37.667 114 113h143c-2 -76.667 -25.5 -135.5 -70.5 -176.5s-108.167 -61.5 -189.5 -61.5z" />
    <glyph glyph-name="Agrave" unicode="&#xc0;" horiz-adv-x="719" 
d="M397 908l47 -141h-94l-125 141h172zM694 0h-158l-48 148h-258l-48 -148h-157l252 712h171zM299 358l-29 -88h179l-29 88l-60 205z" />
    <glyph glyph-name="Aacute" unicode="&#xc1;" horiz-adv-x="719" 
d="M341 908h172l-125 -141h-94zM694 0h-158l-48 148h-258l-48 -148h-157l252 712h171zM299 358l-29 -88h179l-29 88l-60 205z" />
    <glyph glyph-name="Acircumflex" unicode="&#xc2;" horiz-adv-x="719" 
d="M429 777l-60 82l-60 -82h-125l120 147h130l120 -147h-125zM694 0h-158l-48 148h-258l-48 -148h-157l252 712h171zM299 358l-29 -88h179l-29 88l-60 205z" />
    <glyph glyph-name="Atilde" unicode="&#xc3;" horiz-adv-x="719" 
d="M307 835c-28 0 -42 -17.667 -42 -53h-108c0 118.667 42.667 178 128 178c26 0 53.667 -8.66699 83 -26c29.333 -18 50.333 -27 63 -27c28 0 42 17.667 42 53h108c0 -118.667 -42.667 -178 -128 -178c-26 0 -53.667 9 -83 27c-29.333 17.333 -50.333 26 -63 26zM694 0
h-158l-48 148h-258l-48 -148h-157l252 712h171zM299 358l-29 -88h179l-29 88l-60 205z" />
    <glyph glyph-name="Adieresis" unicode="&#xc4;" horiz-adv-x="719" 
d="M193 908h141v-128h-141v128zM404 908h141v-128h-141v128zM694 0h-158l-48 148h-258l-48 -148h-157l252 712h171zM299 358l-29 -88h179l-29 88l-60 205z" />
    <glyph glyph-name="Aring" unicode="&#xc5;" horiz-adv-x="719" 
d="M694 0l-158 -0.000976562l-48 148h-258l-48 -148h-157l239 675c-28.667 28.667 -43 64.334 -43 107.001s14 78 42 106s63.333 42 106 42s78 -14 106 -42s42 -63.333 42 -106c0 -48 -17.667 -86.667 -53 -116zM420 833.999c-13.333 13.333 -30.3301 20 -50.9971 20
s-37.334 -6.66699 -50.001 -20s-19 -30.666 -19 -51.999s6.33301 -38.333 19 -51c13.333 -12.667 30.166 -19 50.499 -19s37.166 6.33301 50.499 19s20 29.667 20 51s-6.66699 38.666 -20 51.999zM299.003 357.999l-29 -88h179l-29 88l-60 205z" />
    <glyph glyph-name="AE" unicode="&#xc6;" horiz-adv-x="1139" 
d="M719 306v-181h380v-125h-528v179h-274l-108 -179h-164l429 712h635v-125h-370v-154h333v-127h-333zM540 584l-168 -280h199v280h-31z" />
    <glyph glyph-name="Ccedilla" unicode="&#xc7;" horiz-adv-x="693" 
d="M375 105c43.333 0 78 11.668 104 35.001s42 54.333 48 93h140c-5.33301 -75.333 -31.833 -135.333 -79.5 -180s-111.167 -69.667 -190.5 -75l-30 -45h11c30.667 0 55 -7.83301 73 -23.5s27 -37.167 27 -64.5c0 -33.333 -12.667 -59.333 -38 -78s-60 -28 -104 -28h-49v64
h35c30 0 45 10 45 30c0 17.333 -9.33301 26 -28 26h-22l-37 52l43 69c-86 10 -155.333 49 -208 117c-53.333 68.667 -80 155 -80 259c0 113.333 31.333 203.666 94 270.999c63.333 67.333 143 101 239 101c86.667 0 156.667 -22.5 210 -67.5s83.333 -106.5 90 -184.5h-141
c-6 39.333 -22.167 69.833 -48.5 91.5s-60.833 32.5 -103.5 32.5c-60 0 -107 -22 -141 -66s-51 -103.333 -51 -178c0 -77.333 17 -138.5 51 -183.5s81 -67.5 141 -67.5z" />
    <glyph glyph-name="Egrave" unicode="&#xc8;" horiz-adv-x="633" 
d="M349 908l47 -141h-94l-125 141h172zM213 306v-181h380v-125h-528v712h518v-125h-370v-154h333v-127h-333z" />
    <glyph glyph-name="Eacute" unicode="&#xc9;" horiz-adv-x="633" 
d="M293 908h172l-125 -141h-94zM213 306v-181h380v-125h-528v712h518v-125h-370v-154h333v-127h-333z" />
    <glyph glyph-name="Ecircumflex" unicode="&#xca;" horiz-adv-x="633" 
d="M381 777l-60 82l-60 -82h-125l120 147h130l120 -147h-125zM213 306v-181h380v-125h-528v712h518v-125h-370v-154h333v-127h-333z" />
    <glyph glyph-name="Edieresis" unicode="&#xcb;" horiz-adv-x="633" 
d="M145 908h141v-128h-141v128zM356 908h141v-128h-141v128zM213 306v-181h380v-125h-528v712h518v-125h-370v-154h333v-127h-333z" />
    <glyph glyph-name="Igrave" unicode="&#xcc;" horiz-adv-x="278" 
d="M214 767h-94l-125 141h172zM213 0h-148v712h148v-712z" />
    <glyph glyph-name="Iacute" unicode="&#xcd;" horiz-adv-x="278" 
d="M158 767h-94l47 141h172zM213 0h-148v712h148v-712z" />
    <glyph glyph-name="Icircumflex" unicode="&#xce;" horiz-adv-x="278" 
d="M79 777h-125l120 147h130l120 -147h-125l-60 82zM213 0h-148v712h148v-712z" />
    <glyph glyph-name="Idieresis" unicode="&#xcf;" horiz-adv-x="278" 
d="M104 780h-141v128h141v-128zM315 780h-141v128h141v-128zM213 0h-148v712h148v-712z" />
    <glyph glyph-name="Eth" unicode="&#xd0;" horiz-adv-x="753" 
d="M121 712h262.001c225.333 0 338 -118.667 338 -356c0 -113.333 -26.833 -201 -80.5 -263s-132.834 -93 -237.501 -93h-282v304l-106 -4v121l106 -4v295zM269.001 125l115 -0.000976562c68.667 0 117.334 17.833 146.001 53.5s43 94.834 43 177.501
c0 84 -15 144.667 -45 182c-30.667 36 -85.334 54 -164.001 54h-95v-176l166 5v-121l-166 5v-180z" />
    <glyph glyph-name="Ntilde" unicode="&#xd1;" horiz-adv-x="705" 
d="M291 835c-28 0 -42 -17.667 -42 -53h-108c0 118.667 42.667 178 128 178c26 0 53.667 -8.66699 83 -26c29.333 -18 50.333 -27 63 -27c28 0 42 17.667 42 53h108c0 -118.667 -42.667 -178 -128 -178c-26 0 -53.667 9 -83 27c-29.333 17.333 -50.333 26 -63 26zM492 255
v457h148v-712h-145l-282 457v-457h-148v712h145z" />
    <glyph glyph-name="Ograve" unicode="&#xd2;" horiz-adv-x="746" 
d="M448 767h-94l-125 141h172zM614 82c-65.333 -70 -146.332 -105.001 -242.999 -105.001s-176.667 35 -240 105c-64 69.333 -96 161 -96 275c0 112 31.667 202.333 95 271c63.333 67.333 143.666 101 240.999 101c96.667 0 177.667 -33.667 243 -101
c64.667 -67.333 97 -157.666 97 -270.999c0 -114 -32.333 -205.667 -97 -275zM234.001 173.999c33.333 -46 79.002 -69 137.002 -69s104.667 23 140 69c34.667 45.333 52 106.333 52 183c0 73.333 -17.333 132.333 -52 177s-81.334 67 -140.001 67
s-104.334 -22.333 -137.001 -67c-34 -45.333 -51 -104.333 -51 -177c0 -76 17 -137 51 -183z" />
    <glyph glyph-name="Oacute" unicode="&#xd3;" horiz-adv-x="746" 
d="M392 767h-94l47 141h172zM614 82c-65.333 -70 -146.332 -105.001 -242.999 -105.001s-176.667 35 -240 105c-64 69.333 -96 161 -96 275c0 112 31.667 202.333 95 271c63.333 67.333 143.666 101 240.999 101c96.667 0 177.667 -33.667 243 -101
c64.667 -67.333 97 -157.666 97 -270.999c0 -114 -32.333 -205.667 -97 -275zM234.001 173.999c33.333 -46 79.002 -69 137.002 -69s104.667 23 140 69c34.667 45.333 52 106.333 52 183c0 73.333 -17.333 132.333 -52 177s-81.334 67 -140.001 67
s-104.334 -22.333 -137.001 -67c-34 -45.333 -51 -104.333 -51 -177c0 -76 17 -137 51 -183z" />
    <glyph glyph-name="Ocircumflex" unicode="&#xd4;" horiz-adv-x="746" 
d="M313 777h-125l120 147h130l120 -147h-125l-60 82zM614 82c-65.333 -70 -146.332 -105.001 -242.999 -105.001s-176.667 35 -240 105c-64 69.333 -96 161 -96 275c0 112 31.667 202.333 95 271c63.333 67.333 143.666 101 240.999 101c96.667 0 177.667 -33.667 243 -101
c64.667 -67.333 97 -157.666 97 -270.999c0 -114 -32.333 -205.667 -97 -275zM234.001 173.999c33.333 -46 79.002 -69 137.002 -69s104.667 23 140 69c34.667 45.333 52 106.333 52 183c0 73.333 -17.333 132.333 -52 177s-81.334 67 -140.001 67
s-104.334 -22.333 -137.001 -67c-34 -45.333 -51 -104.333 -51 -177c0 -76 17 -137 51 -183z" />
    <glyph glyph-name="Otilde" unicode="&#xd5;" horiz-adv-x="746" 
d="M269 782h-108c0 118.667 42.667 178 128 178c26 0 53.667 -8.66699 83 -26c29.333 -18 50.333 -27 63 -27c28 0 42 17.667 42 53h108c0 -118.667 -42.667 -178 -128 -178c-26 0 -53.667 9 -83 27c-29.333 17.333 -50.333 26 -63 26c-28 0 -42 -17.667 -42 -53zM614 82
c-65.333 -70 -146.332 -105.001 -242.999 -105.001s-176.667 35 -240 105c-64 69.333 -96 161 -96 275c0 112 31.667 202.333 95 271c63.333 67.333 143.666 101 240.999 101c96.667 0 177.667 -33.667 243 -101c64.667 -67.333 97 -157.666 97 -270.999
c0 -114 -32.333 -205.667 -97 -275zM234.001 173.999c33.333 -46 79.002 -69 137.002 -69s104.667 23 140 69c34.667 45.333 52 106.333 52 183c0 73.333 -17.333 132.333 -52 177s-81.334 67 -140.001 67s-104.334 -22.333 -137.001 -67c-34 -45.333 -51 -104.333 -51 -177
c0 -76 17 -137 51 -183z" />
    <glyph glyph-name="Odieresis" unicode="&#xd6;" horiz-adv-x="746" 
d="M338 780h-141v128h141v-128zM549 780h-141v128h141v-128zM614 82c-65.333 -70 -146.332 -105.001 -242.999 -105.001s-176.667 35 -240 105c-64 69.333 -96 161 -96 275c0 112 31.667 202.333 95 271c63.333 67.333 143.666 101 240.999 101
c96.667 0 177.667 -33.667 243 -101c64.667 -67.333 97 -157.666 97 -270.999c0 -114 -32.333 -205.667 -97 -275zM234.001 173.999c33.333 -46 79.002 -69 137.002 -69s104.667 23 140 69c34.667 45.333 52 106.333 52 183c0 73.333 -17.333 132.333 -52 177
s-81.334 67 -140.001 67s-104.334 -22.333 -137.001 -67c-34 -45.333 -51 -104.333 -51 -177c0 -76 17 -137 51 -183z" />
    <glyph glyph-name="multiply" unicode="&#xd7;" 
d="M350 226l-191 -192l-86 85l192 192l-192 192l85 85l192 -192l193 192l84 -85l-192 -192l192 -192l-85 -85z" />
    <glyph glyph-name="Oslash" unicode="&#xd8;" horiz-adv-x="746" 
d="M686 690l-57.999 -78c55.333 -67.333 83 -152.333 83 -255c0 -114 -32.333 -205.667 -97 -275c-65.333 -70 -146.333 -105 -243 -105c-68 0 -127.667 17.333 -179 52l-58 -77l-74 53l63 85c-58.667 68.667 -88 157.667 -88 267c0 112 31.667 202.333 95 271
c63.333 67.333 143.666 101 240.999 101c70.667 0 133.667 -18.667 189 -56l52 70zM183.001 357c0 -58.667 10.001 -108 30.001 -148l266 356c-30 24 -66 36 -108 36c-58.667 0 -104.334 -22.333 -137.001 -67c-34 -45.333 -51 -104.333 -51 -177zM371.002 105
c58 0 104.667 23 140 69c34.667 45.333 52 106.333 52 183c0 49.333 -8.66699 94 -26 134l-265 -355c27.333 -20.667 60.333 -31 99 -31z" />
    <glyph glyph-name="Ugrave" unicode="&#xd9;" horiz-adv-x="683" 
d="M417 767h-94l-125 141h172zM545 40c-48.667 -42 -116.667 -63 -204 -63s-155 21 -203 63c-48.667 42 -73 101.667 -73 179v493h148v-495c0 -74.667 43 -112 129 -112c85.333 0 128 37.333 128 112v495h148v-493c0 -77.333 -24.333 -137 -73 -179z" />
    <glyph glyph-name="Uacute" unicode="&#xda;" horiz-adv-x="683" 
d="M361 767h-94l47 141h172zM545 40c-48.667 -42 -116.667 -63 -204 -63s-155 21 -203 63c-48.667 42 -73 101.667 -73 179v493h148v-495c0 -74.667 43 -112 129 -112c85.333 0 128 37.333 128 112v495h148v-493c0 -77.333 -24.333 -137 -73 -179z" />
    <glyph glyph-name="Ucircumflex" unicode="&#xdb;" horiz-adv-x="683" 
d="M282 777h-125l120 147h130l120 -147h-125l-60 82zM545 40c-48.667 -42 -116.667 -63 -204 -63s-155 21 -203 63c-48.667 42 -73 101.667 -73 179v493h148v-495c0 -74.667 43 -112 129 -112c85.333 0 128 37.333 128 112v495h148v-493c0 -77.333 -24.333 -137 -73 -179z
" />
    <glyph glyph-name="Udieresis" unicode="&#xdc;" horiz-adv-x="683" 
d="M307 780h-141v128h141v-128zM518 780h-141v128h141v-128zM545 40c-48.667 -42 -116.667 -63 -204 -63s-155 21 -203 63c-48.667 42 -73 101.667 -73 179v493h148v-495c0 -74.667 43 -112 129 -112c85.333 0 128 37.333 128 112v495h148v-493
c0 -77.333 -24.333 -137 -73 -179z" />
    <glyph glyph-name="Yacute" unicode="&#xdd;" horiz-adv-x="656" 
d="M300 908h172l-125 -141h-94zM369 491l110 221h159l-236 -436v-276h-148v276l-236 436h163l108 -221l39 -99z" />
    <glyph glyph-name="Thorn" unicode="&#xde;" horiz-adv-x="611" 
d="M213 601h134.999c77.333 0 138 -20.333 182 -61s66 -96.667 66 -168c0 -74 -22.667 -131.667 -68 -173s-109.666 -62 -192.999 -62h-122v-137h-148v712h148v-111zM212.999 262l109 -0.000976562c42.667 0 75.167 9.33301 97.5 28s33.5 45.334 33.5 80.001
c0 33.333 -10.333 59.333 -31 78s-49 28 -85 28h-124v-214z" />
    <glyph glyph-name="germandbls" unicode="&#xdf;" horiz-adv-x="589" 
d="M201 0h-140.999v511c0 74 18.667 128 56 162s94.666 51 171.999 51c78.667 0 138.667 -16.167 180 -48.5s62 -76.833 62 -133.5c0 -76 -34.333 -124 -103 -144v-2c87.333 -23.333 131 -84 131 -182c0 -67.333 -20.5 -119.833 -61.5 -157.5s-97.833 -56.5 -170.5 -56.5
h-43v110h27c69.333 0 104 35.667 104 107s-34.667 107 -104 107h-27v110h13c63.333 0 95 29.333 95 88c0 61.333 -32 92 -96 92c-30 0 -53.167 -8 -69.5 -24s-24.5 -38.333 -24.5 -67v-523z" />
    <glyph glyph-name="agrave" unicode="&#xe0;" horiz-adv-x="557" 
d="M303 712l47 -141h-94l-125 141h172zM517 0l-142.999 0.000976562c-7.33301 33.333 -11 50.666 -11 51.999c-36.667 -44.667 -89.667 -67 -159 -67c-54 0 -97.333 14.333 -130 43s-49 66.667 -49 114c0 83.333 52.333 135.333 157 156l180 36v38c0 37.333 -29 56 -87 56
c-28.667 0 -50.334 -5.33301 -65.001 -16s-23.667 -28 -27 -52l-129 2c8.66699 110.667 82 166 220 166c148.667 0 223 -64 223 -192v-228c0 -48.667 6.66699 -84.667 20 -108zM244.001 89.001c35.333 0 63.834 10.501 85.501 31.501s32.5 49.5 32.5 85.5v38l-132 -28
c-44.667 -8.66699 -67 -30.334 -67 -65.001c0 -18.667 7.16699 -33.667 21.5 -45s34.166 -17 59.499 -17z" />
    <glyph glyph-name="aacute" unicode="&#xe1;" horiz-adv-x="557" 
d="M247 712h172l-125 -141h-94zM517 0l-142.999 0.000976562c-7.33301 33.333 -11 50.666 -11 51.999c-36.667 -44.667 -89.667 -67 -159 -67c-54 0 -97.333 14.333 -130 43s-49 66.667 -49 114c0 83.333 52.333 135.333 157 156l180 36v38c0 37.333 -29 56 -87 56
c-28.667 0 -50.334 -5.33301 -65.001 -16s-23.667 -28 -27 -52l-129 2c8.66699 110.667 82 166 220 166c148.667 0 223 -64 223 -192v-228c0 -48.667 6.66699 -84.667 20 -108zM244.001 89.001c35.333 0 63.834 10.501 85.501 31.501s32.5 49.5 32.5 85.5v38l-132 -28
c-44.667 -8.66699 -67 -30.334 -67 -65.001c0 -18.667 7.16699 -33.667 21.5 -45s34.166 -17 59.499 -17z" />
    <glyph glyph-name="acircumflex" unicode="&#xe2;" horiz-adv-x="557" 
d="M335 581l-60 82l-60 -82h-125l120 147h130l120 -147h-125zM517 0l-142.999 0.000976562c-7.33301 33.333 -11 50.666 -11 51.999c-36.667 -44.667 -89.667 -67 -159 -67c-54 0 -97.333 14.333 -130 43s-49 66.667 -49 114c0 83.333 52.333 135.333 157 156l180 36v38
c0 37.333 -29 56 -87 56c-28.667 0 -50.334 -5.33301 -65.001 -16s-23.667 -28 -27 -52l-129 2c8.66699 110.667 82 166 220 166c148.667 0 223 -64 223 -192v-228c0 -48.667 6.66699 -84.667 20 -108zM244.001 89.001c35.333 0 63.834 10.501 85.501 31.501
s32.5 49.5 32.5 85.5v38l-132 -28c-44.667 -8.66699 -67 -30.334 -67 -65.001c0 -18.667 7.16699 -33.667 21.5 -45s34.166 -17 59.499 -17z" />
    <glyph glyph-name="atilde" unicode="&#xe3;" horiz-adv-x="557" 
d="M213 639c-28 0 -42 -17.667 -42 -53h-108c0 118.667 42.667 178 128 178c26.667 0 54.667 -8.66699 84 -26c29.333 -18 50 -27 62 -27c28 0 42 17.667 42 53h108c0 -118.667 -42.667 -178 -128 -178c-26 0 -53.667 9 -83 27c-29.333 17.333 -50.333 26 -63 26zM517 0
l-142.999 0.000976562c-7.33301 33.333 -11 50.666 -11 51.999c-36.667 -44.667 -89.667 -67 -159 -67c-54 0 -97.333 14.333 -130 43s-49 66.667 -49 114c0 83.333 52.333 135.333 157 156l180 36v38c0 37.333 -29 56 -87 56c-28.667 0 -50.334 -5.33301 -65.001 -16
s-23.667 -28 -27 -52l-129 2c8.66699 110.667 82 166 220 166c148.667 0 223 -64 223 -192v-228c0 -48.667 6.66699 -84.667 20 -108zM244.001 89.001c35.333 0 63.834 10.501 85.501 31.501s32.5 49.5 32.5 85.5v38l-132 -28c-44.667 -8.66699 -67 -30.334 -67 -65.001
c0 -18.667 7.16699 -33.667 21.5 -45s34.166 -17 59.499 -17z" />
    <glyph glyph-name="adieresis" unicode="&#xe4;" horiz-adv-x="557" 
d="M99 712h141v-128h-141v128zM310 712h141v-128h-141v128zM517 0l-142.999 0.000976562c-7.33301 33.333 -11 50.666 -11 51.999c-36.667 -44.667 -89.667 -67 -159 -67c-54 0 -97.333 14.333 -130 43s-49 66.667 -49 114c0 83.333 52.333 135.333 157 156l180 36v38
c0 37.333 -29 56 -87 56c-28.667 0 -50.334 -5.33301 -65.001 -16s-23.667 -28 -27 -52l-129 2c8.66699 110.667 82 166 220 166c148.667 0 223 -64 223 -192v-228c0 -48.667 6.66699 -84.667 20 -108zM244.001 89.001c35.333 0 63.834 10.501 85.501 31.501
s32.5 49.5 32.5 85.5v38l-132 -28c-44.667 -8.66699 -67 -30.334 -67 -65.001c0 -18.667 7.16699 -33.667 21.5 -45s34.166 -17 59.499 -17z" />
    <glyph glyph-name="aring" unicode="&#xe5;" horiz-adv-x="557" 
d="M381 613c-28 -28 -63.333 -42 -106 -42s-78 14 -106 42c-28 27.333 -42 62.333 -42 105s14 78 42 106s63.333 42 106 42s78 -14 106 -42s42 -63.333 42 -106s-14 -77.667 -42 -105zM326 770c-13.333 13.333 -30.333 20 -51 20s-37.334 -6.66699 -50.001 -20
s-19 -30.666 -19 -51.999s6.33301 -38.333 19 -51s29.334 -19 50.001 -19s37.667 6.33301 51 19s20 29.667 20 51s-6.66699 38.666 -20 51.999zM517 0l-142.999 0.000976562c-7.33301 33.333 -11 50.666 -11 51.999c-36.667 -44.667 -89.667 -67 -159 -67
c-54 0 -97.333 14.333 -130 43s-49 66.667 -49 114c0 83.333 52.333 135.333 157 156l180 36v38c0 37.333 -29 56 -87 56c-28.667 0 -50.334 -5.33301 -65.001 -16s-23.667 -28 -27 -52l-129 2c8.66699 110.667 82 166 220 166c148.667 0 223 -64 223 -192v-228
c0 -48.667 6.66699 -84.667 20 -108zM244.001 89.001c35.333 0 63.834 10.501 85.501 31.501s32.5 49.5 32.5 85.5v38l-132 -28c-44.667 -8.66699 -67 -30.334 -67 -65.001c0 -18.667 7.16699 -33.667 21.5 -45s34.166 -17 59.499 -17z" />
    <glyph glyph-name="ae" unicode="&#xe6;" horiz-adv-x="912" 
d="M881 240l-0.000976562 -24.999h-374c3.33301 -38.667 15.666 -68.834 36.999 -90.501s49.333 -32.5 84 -32.5c48 0 81 21.333 99 64l138 -16c-37.333 -105.333 -115.333 -158 -234 -158c-98 0 -167.667 36 -209 108c-41.333 -70 -108.666 -105 -201.999 -105
c-61.333 0 -109.166 14.5 -143.499 43.5s-51.5 68.167 -51.5 117.5c0 46.667 15.833 84.167 47.5 112.5s78.167 42.5 139.5 42.5h150v51c0 50.667 -30.333 76 -91 76c-27.333 0 -48 -5.33301 -62 -16s-22.667 -28 -26 -52l-129 2c10 110.667 80.667 166 212 166
c90 0 151 -25 183 -75c44.667 50.667 106.667 76 186 76c78 0 138.5 -25.5 181.5 -76.5s64.5 -121.833 64.5 -212.5zM699.999 394.001c-20 21.333 -46.332 32 -78.999 32c-32 0 -58.667 -10.667 -80 -32c-20 -21.333 -31.667 -52.333 -35 -93h229
c-2.66699 40.667 -14.334 71.667 -35.001 93zM244 89.001c35.333 0 63.834 10.499 85.501 31.499s32.5 49.5 32.5 85.5v10h-115c-28 0 -49 -5.83301 -63 -17.5s-21 -27.167 -21 -46.5s7.16699 -34.666 21.5 -45.999s34.166 -17 59.499 -17z" />
    <glyph glyph-name="ccedilla" unicode="&#xe7;" horiz-adv-x="548" 
d="M283 93c50 0 83.001 28.333 99.001 85h138c-9.33301 -56.667 -32.5 -101.834 -69.5 -135.501s-84.167 -53.167 -141.5 -58.5l-33 -49h11c30.667 0 55 -7.83301 73 -23.5s27 -37.167 27 -64.5c0 -33.333 -12.667 -59.333 -38 -78s-60 -28 -104 -28h-49v64h35
c30 0 45 10 45 30c0 17.333 -9.33301 26 -28 26h-22l-37 52l46 73c-63.333 10 -112.833 38.833 -148.5 86.5s-53.5 108.834 -53.5 183.501c0 84 22.333 150.333 67 199c45.333 49.333 105.666 74 180.999 74c66 0 119.667 -16.833 161 -50.5s67.333 -81.167 78 -142.5h-138
c-15.333 55.333 -48.333 83 -99 83c-36 0 -64 -14.167 -84 -42.5s-30 -68.5 -30 -120.5s10 -92.167 30 -120.5s48 -42.5 84 -42.5z" />
    <glyph glyph-name="egrave" unicode="&#xe8;" horiz-adv-x="583" 
d="M320 712l47 -141h-94l-125 141h172zM552 240l0.000976562 -24h-374c2.66699 -38.667 14.667 -69 36 -91s49.666 -33 84.999 -33c50 0 83.333 22.333 100 67l140 -10c-17.333 -54.667 -46.333 -96.167 -87 -124.5s-90.667 -42.5 -150 -42.5c-83.333 0 -149 26 -197 78
s-72 118.667 -72 200c0 78 23 142.333 69 193s107.667 76 185 76c78 0 141.667 -26 191 -78c49.333 -52.667 74 -123 74 -211zM370.001 396c-20 20 -46 30 -78 30s-58.333 -10 -79 -30c-20.667 -21.333 -32.667 -49.333 -36 -84h229c-4 36 -16 64 -36 84z" />
    <glyph glyph-name="eacute" unicode="&#xe9;" horiz-adv-x="583" 
d="M264 712h172l-125 -141h-94zM552 240l0.000976562 -24h-374c2.66699 -38.667 14.667 -69 36 -91s49.666 -33 84.999 -33c50 0 83.333 22.333 100 67l140 -10c-17.333 -54.667 -46.333 -96.167 -87 -124.5s-90.667 -42.5 -150 -42.5c-83.333 0 -149 26 -197 78
s-72 118.667 -72 200c0 78 23 142.333 69 193s107.667 76 185 76c78 0 141.667 -26 191 -78c49.333 -52.667 74 -123 74 -211zM370.001 396c-20 20 -46 30 -78 30s-58.333 -10 -79 -30c-20.667 -21.333 -32.667 -49.333 -36 -84h229c-4 36 -16 64 -36 84z" />
    <glyph glyph-name="ecircumflex" unicode="&#xea;" horiz-adv-x="583" 
d="M352 581l-60 82l-60 -82h-125l120 147h130l120 -147h-125zM552 240l0.000976562 -24h-374c2.66699 -38.667 14.667 -69 36 -91s49.666 -33 84.999 -33c50 0 83.333 22.333 100 67l140 -10c-17.333 -54.667 -46.333 -96.167 -87 -124.5s-90.667 -42.5 -150 -42.5
c-83.333 0 -149 26 -197 78s-72 118.667 -72 200c0 78 23 142.333 69 193s107.667 76 185 76c78 0 141.667 -26 191 -78c49.333 -52.667 74 -123 74 -211zM370.001 396c-20 20 -46 30 -78 30s-58.333 -10 -79 -30c-20.667 -21.333 -32.667 -49.333 -36 -84h229
c-4 36 -16 64 -36 84z" />
    <glyph glyph-name="edieresis" unicode="&#xeb;" horiz-adv-x="583" 
d="M116 712h141v-128h-141v128zM327 712h141v-128h-141v128zM552 240l0.000976562 -24h-374c2.66699 -38.667 14.667 -69 36 -91s49.666 -33 84.999 -33c50 0 83.333 22.333 100 67l140 -10c-17.333 -54.667 -46.333 -96.167 -87 -124.5s-90.667 -42.5 -150 -42.5
c-83.333 0 -149 26 -197 78s-72 118.667 -72 200c0 78 23 142.333 69 193s107.667 76 185 76c78 0 141.667 -26 191 -78c49.333 -52.667 74 -123 74 -211zM370.001 396c-20 20 -46 30 -78 30s-58.333 -10 -79 -30c-20.667 -21.333 -32.667 -49.333 -36 -84h229
c-4 36 -16 64 -36 84z" />
    <glyph glyph-name="igrave" unicode="&#xec;" horiz-adv-x="261" 
d="M206 571h-94l-125 141h172zM201 0h-141v516h141v-516z" />
    <glyph glyph-name="iacute" unicode="&#xed;" horiz-adv-x="261" 
d="M150 571h-94l47 141h172zM201 0h-141v516h141v-516z" />
    <glyph glyph-name="icircumflex" unicode="&#xee;" horiz-adv-x="261" 
d="M71 581h-125l120 147h130l120 -147h-125l-60 82zM201 0h-141v516h141v-516z" />
    <glyph glyph-name="idieresis" unicode="&#xef;" horiz-adv-x="261" 
d="M90 584h-117v128h117v-128zM289 584h-127v128h127v-128zM201 0h-141v516h141v-516z" />
    <glyph glyph-name="eth" unicode="&#xf0;" horiz-adv-x="568" 
d="M472 663l-89.001 -47.999c102.667 -98.667 154 -216 154 -352c0 -88.667 -23.167 -157.334 -69.5 -206.001s-109.5 -73 -189.5 -73c-76.667 0 -136.334 22 -179.001 66c-44 44 -66 102.667 -66 176c0 68 20 123.667 60 167s91 65 153 65
c56.667 0 102.334 -15.667 137.001 -47c-19.333 51.333 -55 99 -107 143l-101 -65l-51 76l78 41c-29.333 16 -55.333 28.667 -78 38l53 103c48.667 -22 93.334 -46.667 134.001 -74l107 74zM400.999 246.001l0.000976562 11c-2.66699 22.667 -16.334 43.667 -41.001 63
c-23.333 18.667 -50.666 28 -81.999 28c-32.667 0 -59 -11.333 -79 -34s-30 -53 -30 -91c0 -40 10.167 -71.5 30.5 -94.5s48.166 -34.5 83.499 -34.5c37.333 0 66.333 13 87 39s31 63.667 31 113z" />
    <glyph glyph-name="ntilde" unicode="&#xf1;" horiz-adv-x="578" 
d="M231 639c-28 0 -42 -17.667 -42 -53h-108c0 118.667 42.667 178 128 178c26 0 53.667 -8.66699 83 -26c29.333 -18 50.333 -27 63 -27c28 0 42 17.667 42 53h108c0 -118.667 -42.667 -178 -128 -178c-26 0 -53.667 9 -83 27c-29.333 17.333 -50.333 26 -63 26zM349 529
c53.333 0 94.833 -16.332 124.5 -48.999s44.5 -77.334 44.5 -134.001v-346h-141v314c0 28 -6.5 49.667 -19.5 65s-31.5 23 -55.5 23c-30 0 -54.333 -11.5 -73 -34.5s-28 -53.5 -28 -91.5v-276h-141v516h138l2 -70c33.333 55.333 83 83 149 83z" />
    <glyph glyph-name="ograve" unicode="&#xf2;" horiz-adv-x="592" 
d="M372 571h-94l-125 141h172zM487 61c-48.667 -52 -111.998 -78 -189.998 -78s-141.333 26 -190 78c-49.333 51.333 -74 116.333 -74 195c0 78 24.667 143.333 74 196c49.333 51.333 112.666 77 189.999 77s140.666 -25.667 189.999 -77c49.333 -52.667 74 -118 74 -196
c0 -78.667 -24.667 -143.667 -74 -195zM204.002 137c23.333 -29.333 54.333 -44.002 93 -44.002c39.333 0 70.666 14.667 93.999 44c22.667 28.667 34 68.334 34 119.001s-11.333 90.334 -34 119.001c-23.333 29.333 -54.666 44 -93.999 44
c-38.667 0 -69.667 -14.667 -93 -44s-35 -69 -35 -119s11.667 -89.667 35 -119z" />
    <glyph glyph-name="oacute" unicode="&#xf3;" horiz-adv-x="592" 
d="M316 571h-94l47 141h172zM487 61c-48.667 -52 -111.998 -78 -189.998 -78s-141.333 26 -190 78c-49.333 51.333 -74 116.333 -74 195c0 78 24.667 143.333 74 196c49.333 51.333 112.666 77 189.999 77s140.666 -25.667 189.999 -77c49.333 -52.667 74 -118 74 -196
c0 -78.667 -24.667 -143.667 -74 -195zM204.002 137c23.333 -29.333 54.333 -44.002 93 -44.002c39.333 0 70.666 14.667 93.999 44c22.667 28.667 34 68.334 34 119.001s-11.333 90.334 -34 119.001c-23.333 29.333 -54.666 44 -93.999 44
c-38.667 0 -69.667 -14.667 -93 -44s-35 -69 -35 -119s11.667 -89.667 35 -119z" />
    <glyph glyph-name="ocircumflex" unicode="&#xf4;" horiz-adv-x="592" 
d="M237 581h-125l120 147h130l120 -147h-125l-60 82zM487 61c-48.667 -52 -111.998 -78 -189.998 -78s-141.333 26 -190 78c-49.333 51.333 -74 116.333 -74 195c0 78 24.667 143.333 74 196c49.333 51.333 112.666 77 189.999 77s140.666 -25.667 189.999 -77
c49.333 -52.667 74 -118 74 -196c0 -78.667 -24.667 -143.667 -74 -195zM204.002 137c23.333 -29.333 54.333 -44.002 93 -44.002c39.333 0 70.666 14.667 93.999 44c22.667 28.667 34 68.334 34 119.001s-11.333 90.334 -34 119.001c-23.333 29.333 -54.666 44 -93.999 44
c-38.667 0 -69.667 -14.667 -93 -44s-35 -69 -35 -119s11.667 -89.667 35 -119z" />
    <glyph glyph-name="otilde" unicode="&#xf5;" horiz-adv-x="592" 
d="M193 586h-108.001c0 118.667 42.667 178 128 178c26.667 0 54.667 -8.66699 84 -26c28.667 -18 49.334 -27 62.001 -27c28 0 42 17.667 42 53h108c0 -118.667 -42.667 -178 -128 -178c-26 0 -53.667 9 -83 27c-29.333 17.333 -50.333 26 -63 26
c-28 0 -42 -17.667 -42 -53zM486.999 61c-48.667 -52 -111.998 -78 -189.998 -78s-141.333 26 -190 78c-49.333 51.333 -74 116.333 -74 195c0 78 24.667 143.333 74 196c49.333 51.333 112.666 77 189.999 77s140.666 -25.667 189.999 -77c49.333 -52.667 74 -118 74 -196
c0 -78.667 -24.667 -143.667 -74 -195zM204.001 137c23.333 -29.333 54.333 -44.002 93 -44.002c39.333 0 70.666 14.667 93.999 44c22.667 28.667 34 68.334 34 119.001s-11.333 90.334 -34 119.001c-23.333 29.333 -54.666 44 -93.999 44
c-38.667 0 -69.667 -14.667 -93 -44s-35 -69 -35 -119s11.667 -89.667 35 -119z" />
    <glyph glyph-name="odieresis" unicode="&#xf6;" horiz-adv-x="592" 
d="M262 584h-141v128h141v-128zM473 584h-141v128h141v-128zM487 61c-48.667 -52 -111.998 -78 -189.998 -78s-141.333 26 -190 78c-49.333 51.333 -74 116.333 -74 195c0 78 24.667 143.333 74 196c49.333 51.333 112.666 77 189.999 77s140.666 -25.667 189.999 -77
c49.333 -52.667 74 -118 74 -196c0 -78.667 -24.667 -143.667 -74 -195zM204.002 137c23.333 -29.333 54.333 -44.002 93 -44.002c39.333 0 70.666 14.667 93.999 44c22.667 28.667 34 68.334 34 119.001s-11.333 90.334 -34 119.001c-23.333 29.333 -54.666 44 -93.999 44
c-38.667 0 -69.667 -14.667 -93 -44s-35 -69 -35 -119s11.667 -89.667 35 -119z" />
    <glyph glyph-name="divide" unicode="&#xf7;" 
d="M423 440h-145v145h145v-145zM640 247h-580v120h580v-120zM423 29h-145v145h145v-145z" />
    <glyph glyph-name="oslash" unicode="&#xf8;" horiz-adv-x="592" 
d="M547 480l-42.999 -49.002c38 -49.333 57 -107.666 57 -174.999c0 -78.667 -24.667 -143.667 -74 -195c-48.667 -52 -112 -78 -190 -78c-54 0 -102.667 13.667 -146 41l-41 -47l-62 54l43 49c-38.667 48.667 -58 107.334 -58 176.001c0 78 24.667 143.333 74 196
c49.333 51.333 112.666 77 189.999 77c55.333 0 104.333 -14 147 -42l41 47zM169.001 255.998c0 -25.333 3.66699 -49.667 11 -73l187 215c-20 14 -43.333 21 -70 21c-39.333 0 -70.5 -14.667 -93.5 -44s-34.5 -69 -34.5 -119zM297.001 92.9971
c39.333 0 70.5 14.667 93.5 44s34.5 69 34.5 119c0 26 -3.33301 50 -10 72l-186 -215c19.333 -13.333 42 -20 68 -20z" />
    <glyph glyph-name="ugrave" unicode="&#xf9;" horiz-adv-x="578" 
d="M317 712l47 -141h-94l-125 141h172zM377 240v275.999h141v-516h-138l-2 70c-33.333 -55.333 -83 -83 -149 -83c-53.333 0 -94.833 16.333 -124.5 49s-44.5 77.334 -44.5 134.001v346h141v-314c0 -28 6.5 -49.667 19.5 -65s31.5 -23 55.5 -23c30 0 54.333 11.5 73 34.5
s28 53.5 28 91.5z" />
    <glyph glyph-name="uacute" unicode="&#xfa;" horiz-adv-x="578" 
d="M261 712h172l-125 -141h-94zM377 240v275.999h141v-516h-138l-2 70c-33.333 -55.333 -83 -83 -149 -83c-53.333 0 -94.833 16.333 -124.5 49s-44.5 77.334 -44.5 134.001v346h141v-314c0 -28 6.5 -49.667 19.5 -65s31.5 -23 55.5 -23c30 0 54.333 11.5 73 34.5
s28 53.5 28 91.5z" />
    <glyph glyph-name="ucircumflex" unicode="&#xfb;" horiz-adv-x="578" 
d="M349 581l-60 82l-60 -82h-125l120 147h130l120 -147h-125zM377 240v275.999h141v-516h-138l-2 70c-33.333 -55.333 -83 -83 -149 -83c-53.333 0 -94.833 16.333 -124.5 49s-44.5 77.334 -44.5 134.001v346h141v-314c0 -28 6.5 -49.667 19.5 -65s31.5 -23 55.5 -23
c30 0 54.333 11.5 73 34.5s28 53.5 28 91.5z" />
    <glyph glyph-name="udieresis" unicode="&#xfc;" horiz-adv-x="578" 
d="M113 712h141v-128h-141v128zM324 712h141v-128h-141v128zM377 240v275.999h141v-516h-138l-2 70c-33.333 -55.333 -83 -83 -149 -83c-53.333 0 -94.833 16.333 -124.5 49s-44.5 77.334 -44.5 134.001v346h141v-314c0 -28 6.5 -49.667 19.5 -65s31.5 -23 55.5 -23
c30 0 54.333 11.5 73 34.5s28 53.5 28 91.5z" />
    <glyph glyph-name="yacute" unicode="&#xfd;" horiz-adv-x="556" 
d="M253 712h172l-125 -141h-94zM281 151l109.999 365h150l-206 -608c-14 -42.667 -32.167 -72 -54.5 -88s-53.166 -24 -92.499 -24h-118v120h68c38 0 62.333 14.667 73 44l5 14l-201 542h155l95 -290z" />
    <glyph glyph-name="thorn" unicode="&#xfe;" horiz-adv-x="593" 
d="M351 529c60.667 0 110.999 -24.334 150.999 -73.001c40 -49.333 60 -114.666 60 -195.999c0 -82 -20.667 -148.667 -62 -200s-94.666 -77 -159.999 -77c-58.667 0 -105 21.667 -139 65v-252h-141v916h141v-248c35.333 43.333 85.333 65 150 65zM309.999 106.999
c34.667 0 62.667 14 84 42s32 65 32 111s-10.667 82.833 -32 110.5s-49.333 41.5 -84 41.5s-62.667 -13.833 -84 -41.5s-32 -64.5 -32 -110.5s10.833 -83 32.5 -111s49.5 -42 83.5 -42z" />
    <glyph glyph-name="ydieresis" unicode="&#xff;" horiz-adv-x="556" 
d="M105 712h141v-128h-141v128zM316 712h141v-128h-141v128zM281 151l109.999 365h150l-206 -608c-14 -42.667 -32.167 -72 -54.5 -88s-53.166 -24 -92.499 -24h-118v120h68c38 0 62.333 14.667 73 44l5 14l-201 542h155l95 -290z" />
    <glyph glyph-name="Amacron" unicode="&#x100;" horiz-adv-x="719" 
d="M188 907h363v-105h-363v105zM694 0h-158l-48 148h-258l-48 -148h-157l252 712h171zM299 358l-29 -88h179l-29 88l-60 205z" />
    <glyph glyph-name="amacron" unicode="&#x101;" horiz-adv-x="557" 
d="M94 711h363v-105h-363v105zM517 0l-142.999 0.000976562c-7.33301 33.333 -11 50.666 -11 51.999c-36.667 -44.667 -89.667 -67 -159 -67c-54 0 -97.333 14.333 -130 43s-49 66.667 -49 114c0 83.333 52.333 135.333 157 156l180 36v38c0 37.333 -29 56 -87 56
c-28.667 0 -50.334 -5.33301 -65.001 -16s-23.667 -28 -27 -52l-129 2c8.66699 110.667 82 166 220 166c148.667 0 223 -64 223 -192v-228c0 -48.667 6.66699 -84.667 20 -108zM244.001 89.001c35.333 0 63.834 10.501 85.501 31.501s32.5 49.5 32.5 85.5v38l-132 -28
c-44.667 -8.66699 -67 -30.334 -67 -65.001c0 -18.667 7.16699 -33.667 21.5 -45s34.166 -17 59.499 -17z" />
    <glyph glyph-name="Abreve" unicode="&#x102;" horiz-adv-x="719" 
d="M503 810c-28 -28 -73.001 -42 -135.001 -42c-61.333 0 -105.666 14 -132.999 42c-27.333 27.333 -42 67.333 -44 120h86c2 -46.667 32.667 -70 92 -70s90 23.333 92 70h86c-2 -52.667 -16.667 -92.667 -44 -120zM693.999 0h-158l-48 148h-258l-48 -148h-157l252 712h171z
M298.999 358l-29 -88h179l-29 88l-60 205z" />
    <glyph glyph-name="abreve" unicode="&#x103;" horiz-adv-x="557" 
d="M409 614c-28 -28 -73.001 -42 -135.001 -42c-61.333 0 -105.666 14 -132.999 42c-27.333 27.333 -42 67.333 -44 120h86c2 -46.667 32.667 -70 92 -70s90 23.333 92 70h86c-2 -52.667 -16.667 -92.667 -44 -120zM516.999 0l-142.999 0.000976562
c-7.33301 33.333 -11 50.666 -11 51.999c-36.667 -44.667 -89.667 -67 -159 -67c-54 0 -97.333 14.333 -130 43s-49 66.667 -49 114c0 83.333 52.333 135.333 157 156l180 36v38c0 37.333 -29 56 -87 56c-28.667 0 -50.334 -5.33301 -65.001 -16s-23.667 -28 -27 -52l-129 2
c8.66699 110.667 82 166 220 166c148.667 0 223 -64 223 -192v-228c0 -48.667 6.66699 -84.667 20 -108zM244 89.001c35.333 0 63.834 10.501 85.501 31.501s32.5 49.5 32.5 85.5v38l-132 -28c-44.667 -8.66699 -67 -30.334 -67 -65.001c0 -18.667 7.16699 -33.667 21.5 -45
s34.166 -17 59.499 -17z" />
    <glyph glyph-name="Aogonek" unicode="&#x104;" horiz-adv-x="719" 
d="M608 -97c0 -24.667 16.667 -36.999 50 -36.999h36v-87h-83c-86 0 -129 31 -129 93c0 22.667 6.83301 43.167 20.5 61.5s37.5 38.833 71.5 61.5l7 5h-45l-48 148h-258l-48 -148h-157l252 712h171l246 -712l-52 -44c-22.667 -18.667 -34 -36.334 -34 -53.001zM299 358.001
l-29 -88h179l-29 88l-60 205z" />
    <glyph glyph-name="aogonek" unicode="&#x105;" horiz-adv-x="557" 
d="M431 -97c0 -24.667 16.6699 -37 50.0029 -37h36v-87h-83c-86 0 -129 31 -129 93c0 20.667 5.66699 39.334 17 56.001s30.666 35 57.999 55c-8.66699 29.333 -14.334 52.333 -17.001 69c-36.667 -44.667 -89.667 -67 -159 -67c-54 0 -97.333 14.333 -130 43
s-49 66.667 -49 114c0 83.333 52.333 135.333 157 156l180 36v38c0 37.333 -29 56 -87 56c-28.667 0 -50.334 -5.33301 -65.001 -16s-23.667 -28 -27 -52l-129 2c8.66699 110.667 82 166 220 166c148.667 0 223 -64 223 -192v-228c0 -48.667 6.66699 -84.667 20 -108
l-52 -44c-22.667 -18.667 -34 -36.334 -34 -53.001zM244.003 89c35.333 0 63.834 10.501 85.501 31.501s32.5 49.5 32.5 85.5v38l-132 -28c-44.667 -8.66699 -67 -30.334 -67 -65.001c0 -18.667 7.16699 -33.667 21.5 -45s34.166 -17 59.499 -17z" />
    <glyph glyph-name="Cacute" unicode="&#x106;" horiz-adv-x="693" 
d="M382 767h-94l47 141h172zM366 -23c-96.667 0 -176 34.668 -238 104.001s-93 161 -93 275c0 113.333 31.333 203.666 94 270.999c63.333 67.333 143 101 239 101c86.667 0 156.667 -22.5 210 -67.5s83.333 -106.5 90 -184.5h-141c-6 39.333 -22.167 69.833 -48.5 91.5
s-60.833 32.5 -103.5 32.5c-60 0 -107 -22 -141 -66s-51 -103.333 -51 -178c0 -77.333 17 -138.5 51 -183.5s81 -67.5 141 -67.5c43.333 0 78 11.667 104 35s42 54.333 48 93h140c-6 -80 -35.667 -142.667 -89 -188s-124 -68 -212 -68z" />
    <glyph glyph-name="cacute" unicode="&#x107;" horiz-adv-x="548" 
d="M305 571h-94l47 141h172zM281 -17c-75.333 0 -135.666 24.666 -180.999 73.999c-44.667 48.667 -67 115 -67 199s22.333 150.333 67 199c45.333 49.333 105.666 74 180.999 74c66 0 119.667 -16.833 161 -50.5s67.333 -81.167 78 -142.5h-138
c-15.333 55.333 -48.333 83 -99 83c-36 0 -64 -14.167 -84 -42.5s-30 -68.5 -30 -120.5s10 -92.167 30 -120.5s48 -42.5 84 -42.5c50 0 83 28.333 99 85h138c-10.667 -61.333 -37 -109.166 -79 -143.499s-95.333 -51.5 -160 -51.5z" />
    <glyph glyph-name="Ccircumflex" unicode="&#x108;" horiz-adv-x="693" 
d="M303 777h-125l120 147h130l120 -147h-125l-60 82zM366 -23c-96.667 0 -176 34.668 -238 104.001s-93 161 -93 275c0 113.333 31.333 203.666 94 270.999c63.333 67.333 143 101 239 101c86.667 0 156.667 -22.5 210 -67.5s83.333 -106.5 90 -184.5h-141
c-6 39.333 -22.167 69.833 -48.5 91.5s-60.833 32.5 -103.5 32.5c-60 0 -107 -22 -141 -66s-51 -103.333 -51 -178c0 -77.333 17 -138.5 51 -183.5s81 -67.5 141 -67.5c43.333 0 78 11.667 104 35s42 54.333 48 93h140c-6 -80 -35.667 -142.667 -89 -188s-124 -68 -212 -68z
" />
    <glyph glyph-name="ccircumflex" unicode="&#x109;" horiz-adv-x="548" 
d="M226 581h-125l120 147h130l120 -147h-125l-60 82zM281 -17c-75.333 0 -135.666 24.666 -180.999 73.999c-44.667 48.667 -67 115 -67 199s22.333 150.333 67 199c45.333 49.333 105.666 74 180.999 74c66 0 119.667 -16.833 161 -50.5s67.333 -81.167 78 -142.5h-138
c-15.333 55.333 -48.333 83 -99 83c-36 0 -64 -14.167 -84 -42.5s-30 -68.5 -30 -120.5s10 -92.167 30 -120.5s48 -42.5 84 -42.5c50 0 83 28.333 99 85h138c-10.667 -61.333 -37 -109.166 -79 -143.499s-95.333 -51.5 -160 -51.5z" />
    <glyph glyph-name="Cdotaccent" unicode="&#x10a;" horiz-adv-x="693" 
d="M433 780h-141v128h141v-128zM366 -23c-96.667 0 -176 34.668 -238 104.001s-93 161 -93 275c0 113.333 31.333 203.666 94 270.999c63.333 67.333 143 101 239 101c86.667 0 156.667 -22.5 210 -67.5s83.333 -106.5 90 -184.5h-141c-6 39.333 -22.167 69.833 -48.5 91.5
s-60.833 32.5 -103.5 32.5c-60 0 -107 -22 -141 -66s-51 -103.333 -51 -178c0 -77.333 17 -138.5 51 -183.5s81 -67.5 141 -67.5c43.333 0 78 11.667 104 35s42 54.333 48 93h140c-6 -80 -35.667 -142.667 -89 -188s-124 -68 -212 -68z" />
    <glyph glyph-name="cdotaccent" unicode="&#x10b;" horiz-adv-x="548" 
d="M356 584h-141v128h141v-128zM281 -17c-75.333 0 -135.666 24.666 -180.999 73.999c-44.667 48.667 -67 115 -67 199s22.333 150.333 67 199c45.333 49.333 105.666 74 180.999 74c66 0 119.667 -16.833 161 -50.5s67.333 -81.167 78 -142.5h-138
c-15.333 55.333 -48.333 83 -99 83c-36 0 -64 -14.167 -84 -42.5s-30 -68.5 -30 -120.5s10 -92.167 30 -120.5s48 -42.5 84 -42.5c50 0 83 28.333 99 85h138c-10.667 -61.333 -37 -109.166 -79 -143.499s-95.333 -51.5 -160 -51.5z" />
    <glyph glyph-name="Ccaron" unicode="&#x10c;" horiz-adv-x="693" 
d="M428 767h-130l-120 147h125l60 -82l60 82h125zM366 -23c-96.667 0 -176 34.668 -238 104.001s-93 161 -93 275c0 113.333 31.333 203.666 94 270.999c63.333 67.333 143 101 239 101c86.667 0 156.667 -22.5 210 -67.5s83.333 -106.5 90 -184.5h-141
c-6 39.333 -22.167 69.833 -48.5 91.5s-60.833 32.5 -103.5 32.5c-60 0 -107 -22 -141 -66s-51 -103.333 -51 -178c0 -77.333 17 -138.5 51 -183.5s81 -67.5 141 -67.5c43.333 0 78 11.667 104 35s42 54.333 48 93h140c-6 -80 -35.667 -142.667 -89 -188s-124 -68 -212 -68z
" />
    <glyph glyph-name="ccaron" unicode="&#x10d;" horiz-adv-x="548" 
d="M351 571h-130l-120 147h125l60 -82l60 82h125zM281 -17c-75.333 0 -135.666 24.666 -180.999 73.999c-44.667 48.667 -67 115 -67 199s22.333 150.333 67 199c45.333 49.333 105.666 74 180.999 74c66 0 119.667 -16.833 161 -50.5s67.333 -81.167 78 -142.5h-138
c-15.333 55.333 -48.333 83 -99 83c-36 0 -64 -14.167 -84 -42.5s-30 -68.5 -30 -120.5s10 -92.167 30 -120.5s48 -42.5 84 -42.5c50 0 83 28.333 99 85h138c-10.667 -61.333 -37 -109.166 -79 -143.499s-95.333 -51.5 -160 -51.5z" />
    <glyph glyph-name="Dcaron" unicode="&#x10e;" horiz-adv-x="697" 
d="M529 914l-120 -147h-130l-120 147h125l60 -82l60 82h125zM65 712h262.001c225.333 0 338 -118.667 338 -356c0 -113.333 -26.833 -201 -80.5 -263s-132.834 -93 -237.501 -93h-282v712zM213.001 125l114.999 -0.000976562c68.667 0 117.334 17.833 146.001 53.5
s43 94.834 43 177.501c0 84 -15 144.667 -45 182c-31.333 36 -86 54 -164 54h-95v-467z" />
    <glyph glyph-name="dcaron" unicode="&#x10f;" horiz-adv-x="820" 
d="M394 464l-0.000976562 248.001h141v-712h-125l-5 64c-35.333 -54 -85.333 -81 -150 -81c-65.333 0 -118.666 25.667 -159.999 77s-62 118 -62 200c0 81.333 20 146.666 60 195.999c40 48.667 90.333 73 151 73c64.667 0 114.667 -21.667 150 -65zM620.999 494.001l49 218
h150l-90 -218h-109zM284.999 107.001c34 0 61.833 14 83.5 42s32.5 65 32.5 111s-10.667 82.833 -32 110.5s-49.333 41.5 -84 41.5s-62.667 -13.833 -84 -41.5s-32 -64.5 -32 -110.5s10.667 -83 32 -111s49.333 -42 84 -42z" />
    <glyph glyph-name="Dcroat" unicode="&#x110;" horiz-adv-x="753" 
d="M121 712h262.001c225.333 0 338 -118.667 338 -356c0 -113.333 -26.833 -201 -80.5 -263s-132.834 -93 -237.501 -93h-282v304l-106 -4v121l106 -4v295zM269.001 125l115 -0.000976562c68.667 0 117.334 17.833 146.001 53.5s43 94.834 43 177.501
c0 84 -15 144.667 -45 182c-30.667 36 -85.334 54 -164.001 54h-95v-176l166 5v-121l-166 5v-180z" />
    <glyph glyph-name="dslash" unicode="&#x111;" horiz-adv-x="639" 
d="M535 671l93.999 3.00098v-111l-94 3v-566h-125l-5 64c-35.333 -54 -85.333 -81 -150 -81c-65.333 0 -118.666 25.667 -159.999 77s-62 118 -62 200c0 81.333 20 146.666 60 195.999c40 48.667 90.333 73 151 73c64.667 0 114.667 -21.667 150 -65v102l-121 -3v111l121 -3
v61h141v-61zM284.999 107.001c34 0 61.833 14 83.5 42s32.5 65 32.5 111s-10.667 82.833 -32 110.5s-49.333 41.5 -84 41.5s-62.667 -13.833 -84 -41.5s-32 -64.5 -32 -110.5s10.667 -83 32 -111s49.333 -42 84 -42z" />
    <glyph glyph-name="Emacron" unicode="&#x112;" horiz-adv-x="633" 
d="M140 907h363v-105h-363v105zM213 306v-181h380v-125h-528v712h518v-125h-370v-154h333v-127h-333z" />
    <glyph glyph-name="emacron" unicode="&#x113;" horiz-adv-x="583" 
d="M111 711h363v-105h-363v105zM552 240l0.000976562 -24h-374c2.66699 -38.667 14.667 -69 36 -91s49.666 -33 84.999 -33c50 0 83.333 22.333 100 67l140 -10c-17.333 -54.667 -46.333 -96.167 -87 -124.5s-90.667 -42.5 -150 -42.5c-83.333 0 -149 26 -197 78
s-72 118.667 -72 200c0 78 23 142.333 69 193s107.667 76 185 76c78 0 141.667 -26 191 -78c49.333 -52.667 74 -123 74 -211zM370.001 396c-20 20 -46 30 -78 30s-58.333 -10 -79 -30c-20.667 -21.333 -32.667 -49.333 -36 -84h229c-4 36 -16 64 -36 84z" />
    <glyph glyph-name="Ebreve" unicode="&#x114;" horiz-adv-x="633" 
d="M455 810c-28 -28 -73.001 -42 -135.001 -42c-61.333 0 -105.666 14 -132.999 42c-27.333 27.333 -42 67.333 -44 120h86c2 -46.667 32.667 -70 92 -70s90 23.333 92 70h86c-2 -52.667 -16.667 -92.667 -44 -120zM212.999 306v-181h380v-125h-528v712h518v-125h-370v-154
h333v-127h-333z" />
    <glyph glyph-name="ebreve" unicode="&#x115;" horiz-adv-x="583" 
d="M426 614c-28 -28 -73 -42 -135 -42s-106.333 14 -133 42c-27.333 27.333 -42 67.333 -44 120h86c2 -46.667 32.667 -70 92 -70s90 23.333 92 70h86c-2 -52.667 -16.667 -92.667 -44 -120zM552 240l0.000976562 -24h-374c2.66699 -38.667 14.667 -69 36 -91
s49.666 -33 84.999 -33c50 0 83.333 22.333 100 67l140 -10c-17.333 -54.667 -46.333 -96.167 -87 -124.5s-90.667 -42.5 -150 -42.5c-83.333 0 -149 26 -197 78s-72 118.667 -72 200c0 78 23 142.333 69 193s107.667 76 185 76c78 0 141.667 -26 191 -78
c49.333 -52.667 74 -123 74 -211zM370.001 396c-20 20 -46 30 -78 30s-58.333 -10 -79 -30c-20.667 -21.333 -32.667 -49.333 -36 -84h229c-4 36 -16 64 -36 84z" />
    <glyph glyph-name="Edotaccent" unicode="&#x116;" horiz-adv-x="633" 
d="M250 908h141v-128h-141v128zM213 306v-181h380v-125h-528v712h518v-125h-370v-154h333v-127h-333z" />
    <glyph glyph-name="edotaccent" unicode="&#x117;" horiz-adv-x="583" 
d="M221 712h141v-128h-141v128zM552 240l0.000976562 -24h-374c2.66699 -38.667 14.667 -69 36 -91s49.666 -33 84.999 -33c50 0 83.333 22.333 100 67l140 -10c-17.333 -54.667 -46.333 -96.167 -87 -124.5s-90.667 -42.5 -150 -42.5c-83.333 0 -149 26 -197 78
s-72 118.667 -72 200c0 78 23 142.333 69 193s107.667 76 185 76c78 0 141.667 -26 191 -78c49.333 -52.667 74 -123 74 -211zM370.001 396c-20 20 -46 30 -78 30s-58.333 -10 -79 -30c-20.667 -21.333 -32.667 -49.333 -36 -84h229c-4 36 -16 64 -36 84z" />
    <glyph glyph-name="Eogonek" unicode="&#x118;" horiz-adv-x="633" 
d="M593 0l-52 -43.999c-22.667 -18.667 -34 -36.334 -34 -53.001c0 -24.667 16.667 -37 50 -37h36v-87h-83c-86 0 -129 31 -129 93c0 22.667 6.83301 43.167 20.5 61.5s37.5 38.833 71.5 61.5l7 5h-415v712h518v-125h-370v-154h333v-127h-333v-181h380v-125z" />
    <glyph glyph-name="eogonek" unicode="&#x119;" horiz-adv-x="583" 
d="M552 240l0.000976562 -23.999h-374c2.66699 -38.667 14.667 -69 36 -91s49.666 -33 84.999 -33c50 0 83.333 22.333 100 67l140 -10c-25.333 -77.333 -72.666 -128 -141.999 -152l-48 -41c-22.667 -18.667 -34 -36.334 -34 -53.001c0 -24.667 16.667 -37 50 -37h36v-87
h-83c-86 0 -129 31 -129 93c0 20.667 5.66699 39.5 17 56.5s31 35.5 59 55.5c-72.667 8 -129.334 37.333 -170.001 88c-41.333 51.333 -62 114 -62 188c0 78 23 142.333 69 193s107.667 76 185 76c78 0 141.667 -26 191 -78c49.333 -52.667 74 -123 74 -211z
M370.001 396.001c-20 20 -46 30 -78 30s-58.333 -10 -79 -30c-20.667 -21.333 -32.667 -49.333 -36 -84h229c-4 36 -16 64 -36 84z" />
    <glyph glyph-name="Ecaron" unicode="&#x11a;" horiz-adv-x="633" 
d="M506 914l-120 -147h-130l-120 147h125l60 -82l60 82h125zM213 306v-181h380v-125h-528v712h518v-125h-370v-154h333v-127h-333z" />
    <glyph glyph-name="ecaron" unicode="&#x11b;" horiz-adv-x="583" 
d="M477 718l-120 -147h-130l-120 147h125l60 -82l60 82h125zM552 240l0.000976562 -24h-374c2.66699 -38.667 14.667 -69 36 -91s49.666 -33 84.999 -33c50 0 83.333 22.333 100 67l140 -10c-17.333 -54.667 -46.333 -96.167 -87 -124.5s-90.667 -42.5 -150 -42.5
c-83.333 0 -149 26 -197 78s-72 118.667 -72 200c0 78 23 142.333 69 193s107.667 76 185 76c78 0 141.667 -26 191 -78c49.333 -52.667 74 -123 74 -211zM370.001 396c-20 20 -46 30 -78 30s-58.333 -10 -79 -30c-20.667 -21.333 -32.667 -49.333 -36 -84h229
c-4 36 -16 64 -36 84z" />
    <glyph glyph-name="Gcircumflex" unicode="&#x11c;" horiz-adv-x="742" 
d="M431 777l-60 82l-60 -82h-125l120 147h130l120 -147h-125zM380 385l297 0.000976562v-385h-96l-23 77c-41.333 -62 -107.666 -93 -198.999 -93c-92.667 0 -169.667 34 -231 102c-62 66.667 -93 156.667 -93 270s31.333 203.333 94 270c62 67.333 141.333 101 238 101
c86 0 155.333 -20.833 208 -62.5s85 -100.834 97 -177.501l-145 -9c-7.33301 38.667 -24 68.667 -50 90s-60 32 -102 32c-60 0 -107 -22 -141 -66s-51 -103.333 -51 -178c0 -76.667 17 -137.667 51 -183s81 -68 141 -68c46 0 84.667 13.5 116 40.5s50.666 65.5 57.999 115.5
h-169v124z" />
    <glyph glyph-name="gcircumflex" unicode="&#x11d;" horiz-adv-x="595" 
d="M337 581l-60 82l-60 -82h-125l120 147h130l120 -147h-125zM405 452l4.99902 64h125v-522c0 -67.333 -21.5 -119.166 -64.5 -155.499s-103.5 -54.5 -181.5 -54.5c-72 0 -128.167 15 -168.5 45s-63.166 73 -68.499 129h130c8 -46 42.667 -69 104 -69
c38.667 0 66.334 8.5 83.001 25.5s25 42.833 25 77.5v71c-34.667 -42 -81.334 -63 -140.001 -63c-65.333 0 -118.333 25 -159 75c-41.333 49.333 -62 113.666 -62 192.999c0 80 20.667 143.667 62 191c40.667 46.667 93.667 70 159 70c66.667 0 117 -25.667 151 -77z
M284.999 120c34 0 61.833 13.667 83.5 41s32.5 63 32.5 107s-10.833 79.667 -32.5 107s-49.5 41 -83.5 41c-34.667 0 -62.667 -13.333 -84 -40s-32 -62.667 -32 -108s10.667 -81.333 32 -108s49.333 -40 84 -40z" />
    <glyph glyph-name="Gbreve" unicode="&#x11e;" horiz-adv-x="742" 
d="M505 810c-28 -28 -73.001 -42 -135.001 -42c-61.333 0 -105.666 14 -132.999 42c-27.333 27.333 -42 67.333 -44 120h86c2 -46.667 32.667 -70 92 -70s90 23.333 92 70h86c-2 -52.667 -16.667 -92.667 -44 -120zM379.999 385l297 0.000976562v-385h-96l-23 77
c-41.333 -62 -107.666 -93 -198.999 -93c-92.667 0 -169.667 34 -231 102c-62 66.667 -93 156.667 -93 270s31.333 203.333 94 270c62 67.333 141.333 101 238 101c86 0 155.333 -20.833 208 -62.5s85 -100.834 97 -177.501l-145 -9c-7.33301 38.667 -24 68.667 -50 90
s-60 32 -102 32c-60 0 -107 -22 -141 -66s-51 -103.333 -51 -178c0 -76.667 17 -137.667 51 -183s81 -68 141 -68c46 0 84.667 13.5 116 40.5s50.666 65.5 57.999 115.5h-169v124z" />
    <glyph glyph-name="gbreve" unicode="&#x11f;" horiz-adv-x="595" 
d="M411 614c-28 -28 -73.001 -42 -135.001 -42c-61.333 0 -105.666 14 -132.999 42c-27.333 27.333 -42 67.333 -44 120h86c2 -46.667 32.667 -70 92 -70s90 23.333 92 70h86c-2 -52.667 -16.667 -92.667 -44 -120zM404.999 452l4.99902 64h125v-522
c0 -67.333 -21.5 -119.166 -64.5 -155.499s-103.5 -54.5 -181.5 -54.5c-72 0 -128.167 15 -168.5 45s-63.166 73 -68.499 129h130c8 -46 42.667 -69 104 -69c38.667 0 66.334 8.5 83.001 25.5s25 42.833 25 77.5v71c-34.667 -42 -81.334 -63 -140.001 -63
c-65.333 0 -118.333 25 -159 75c-41.333 49.333 -62 113.666 -62 192.999c0 80 20.667 143.667 62 191c40.667 46.667 93.667 70 159 70c66.667 0 117 -25.667 151 -77zM284.998 120c34 0 61.833 13.667 83.5 41s32.5 63 32.5 107s-10.833 79.667 -32.5 107
s-49.5 41 -83.5 41c-34.667 0 -62.667 -13.333 -84 -40s-32 -62.667 -32 -108s10.667 -81.333 32 -108s49.333 -40 84 -40z" />
    <glyph glyph-name="Gdotaccent" unicode="&#x120;" horiz-adv-x="742" 
d="M300 908h141v-128h-141v128zM380 385l297 0.000976562v-385h-96l-23 77c-41.333 -62 -107.666 -93 -198.999 -93c-92.667 0 -169.667 34 -231 102c-62 66.667 -93 156.667 -93 270s31.333 203.333 94 270c62 67.333 141.333 101 238 101c86 0 155.333 -20.833 208 -62.5
s85 -100.834 97 -177.501l-145 -9c-7.33301 38.667 -24 68.667 -50 90s-60 32 -102 32c-60 0 -107 -22 -141 -66s-51 -103.333 -51 -178c0 -76.667 17 -137.667 51 -183s81 -68 141 -68c46 0 84.667 13.5 116 40.5s50.666 65.5 57.999 115.5h-169v124z" />
    <glyph glyph-name="gdotaccent" unicode="&#x121;" horiz-adv-x="595" 
d="M206 712h141v-128h-141v128zM405 452l4.99902 64h125v-522c0 -67.333 -21.5 -119.166 -64.5 -155.499s-103.5 -54.5 -181.5 -54.5c-72 0 -128.167 15 -168.5 45s-63.166 73 -68.499 129h130c8 -46 42.667 -69 104 -69c38.667 0 66.334 8.5 83.001 25.5s25 42.833 25 77.5
v71c-34.667 -42 -81.334 -63 -140.001 -63c-65.333 0 -118.333 25 -159 75c-41.333 49.333 -62 113.666 -62 192.999c0 80 20.667 143.667 62 191c40.667 46.667 93.667 70 159 70c66.667 0 117 -25.667 151 -77zM284.999 120c34 0 61.833 13.667 83.5 41s32.5 63 32.5 107
s-10.833 79.667 -32.5 107s-49.5 41 -83.5 41c-34.667 0 -62.667 -13.333 -84 -40s-32 -62.667 -32 -108s10.667 -81.333 32 -108s49.333 -40 84 -40z" />
    <glyph glyph-name="uni0122" unicode="&#x122;" horiz-adv-x="742" 
d="M380 385l297 0.000976562v-385h-96l-23 77c-41.333 -62 -107.666 -93 -198.999 -93c-92.667 0 -169.667 34 -231 102c-62 66.667 -93 156.667 -93 270s31.333 203.333 94 270c62 67.333 141.333 101 238 101c86 0 155.333 -20.833 208 -62.5s85 -100.834 97 -177.501
l-145 -9c-7.33301 38.667 -24 68.667 -50 90s-60 32 -102 32c-60 0 -107 -22 -141 -66s-51 -103.333 -51 -178c0 -76.667 17 -137.667 51 -183s81 -68 141 -68c46 0 84.667 13.5 116 40.5s50.666 65.5 57.999 115.5h-169v124zM378 -175.999h-98v116h158v-139
c0 -68 -37.333 -102 -112 -102h-46v51h46c34.667 0 52 17 52 51v23z" />
    <glyph glyph-name="uni0123" unicode="&#x123;" horiz-adv-x="595" 
d="M260 678l97 9v-103h-157v103c0 68 37 102 111 102h46v-51h-46c-34 0 -51 -17 -51 -51v-9zM405 452l4.99902 64h125v-522c0 -67.333 -21.5 -119.166 -64.5 -155.499s-103.5 -54.5 -181.5 -54.5c-72 0 -128.167 15 -168.5 45s-63.166 73 -68.499 129h130
c8 -46 42.667 -69 104 -69c38.667 0 66.334 8.5 83.001 25.5s25 42.833 25 77.5v71c-34.667 -42 -81.334 -63 -140.001 -63c-65.333 0 -118.333 25 -159 75c-41.333 49.333 -62 113.666 -62 192.999c0 80 20.667 143.667 62 191c40.667 46.667 93.667 70 159 70
c66.667 0 117 -25.667 151 -77zM284.999 120c34 0 61.833 13.667 83.5 41s32.5 63 32.5 107s-10.833 79.667 -32.5 107s-49.5 41 -83.5 41c-34.667 0 -62.667 -13.333 -84 -40s-32 -62.667 -32 -108s10.667 -81.333 32 -108s49.333 -40 84 -40z" />
    <glyph glyph-name="Hcircumflex" unicode="&#x124;" horiz-adv-x="704" 
d="M412 777l-60 82l-60 -82h-125l120 147h130l120 -147h-125zM491 437v275h148v-712h-148v305h-278v-305h-148v712h148v-275h278z" />
    <glyph glyph-name="hcircumflex" unicode="&#x125;" horiz-adv-x="578" 
d="M191 777l-60 82l-60 -82h-125l120 147h130l120 -147h-125zM349 529c53.333 0 94.833 -16.332 124.5 -48.999s44.5 -77.334 44.5 -134.001v-346h-141v314c0 28 -6.5 49.667 -19.5 65s-31.5 23 -55.5 23c-30 0 -54.333 -11.5 -73 -34.5s-28 -53.5 -28 -91.5v-276h-141v712
h141v-265c34 54.667 83.333 82 148 82z" />
    <glyph glyph-name="Hbar" unicode="&#x126;" horiz-adv-x="704" 
d="M491 637v75h148v-712h-148v293h-278v-293h-148v712h148v-75h278zM213 507v-84h278v84h-278z" />
    <glyph glyph-name="hbar" unicode="&#x127;" horiz-adv-x="598" 
d="M369 529c53.333 0 94.833 -16.332 124.5 -48.999s44.5 -77.334 44.5 -134.001v-346h-141v314c0 28 -6.5 49.667 -19.5 65s-31.5 23 -55.5 23c-30 0 -54.333 -11.5 -73 -34.5s-28 -53.5 -28 -91.5v-276h-141v567l-70 -2v104l70 -2v45h141v-46l130 3v-104l-130 3v-121
c34 54.667 83.333 82 148 82z" />
    <glyph glyph-name="Itilde" unicode="&#x128;" horiz-adv-x="278" 
d="M35 782h-108c0 118.667 42.667 178 128 178c26.667 0 54.667 -8.66699 84 -26c29.333 -18 50 -27 62 -27c28 0 42 17.667 42 53h108c0 -118.667 -42.667 -178 -128 -178c-26 0 -53.667 9 -83 27c-29.333 17.333 -50.333 26 -63 26c-28 0 -42 -17.667 -42 -53zM213 0h-148
v712h148v-712z" />
    <glyph glyph-name="itilde" unicode="&#x129;" horiz-adv-x="261" 
d="M27 586h-108c0 118.667 42.667 178 128 178c26 0 53.667 -8.66699 83 -26c29.333 -18 50.333 -27 63 -27c28 0 42 17.667 42 53h108c0 -118.667 -42.667 -178 -128 -178c-26 0 -53.667 9 -83 27c-29.333 17.333 -50.333 26 -63 26c-28 0 -42 -17.667 -42 -53zM201 0h-141
v516h141v-516z" />
    <glyph glyph-name="Imacron" unicode="&#x12a;" horiz-adv-x="278" 
d="M321 802h-363v105h363v-105zM213 0h-148v712h148v-712z" />
    <glyph glyph-name="imacron" unicode="&#x12b;" horiz-adv-x="261" 
d="M313 606h-363v105h363v-105zM201 0h-141v516h141v-516z" />
    <glyph glyph-name="Ibreve" unicode="&#x12c;" horiz-adv-x="278" 
d="M273 810c-28 -28 -73.001 -42 -135.001 -42c-61.333 0 -105.666 14 -132.999 42c-27.333 26 -42 66 -44 120h86c2 -46.667 32.667 -70 92 -70s90 23.333 92 70h86c-2 -52.667 -16.667 -92.667 -44 -120zM212.999 0h-148v712h148v-712z" />
    <glyph glyph-name="ibreve" unicode="&#x12d;" horiz-adv-x="261" 
d="M265 614c-28 -28 -73 -42 -135 -42c-61.333 0 -106 14 -134 42c-26.667 26.667 -41 66.667 -43 120h86c2 -46.667 32.667 -70 92 -70s90 23.333 92 70h86c-2 -52.667 -16.667 -92.667 -44 -120zM201 0h-141v516h141v-516z" />
    <glyph glyph-name="Iogonek" unicode="&#x12e;" horiz-adv-x="278" 
d="M213 0l-52 -43.999c-22.667 -18.667 -34 -36.334 -34 -53.001c0 -24.667 16.667 -37 50 -37h36v-87h-73c-86 0 -129 31 -129 93c0 20.667 6 39.5 18 56.5s35.333 40.833 70 71.5h-34v712h148v-712z" />
    <glyph glyph-name="iogonek" unicode="&#x12f;" horiz-adv-x="261" 
d="M60 584v128h141v-128h-141zM87 0l-27 0.000976562v516h141v-516l-52 -44c-22.667 -18.667 -34 -36.334 -34 -53.001c0 -24.667 16.667 -37 50 -37h36v-87h-73c-86 0 -129 31 -129 93c0 20.667 6 39.5 18 56.5s35.333 40.833 70 71.5z" />
    <glyph glyph-name="Idot" unicode="&#x130;" horiz-adv-x="278" 
d="M209 780h-141v128h141v-128zM213 0h-148v712h148v-712z" />
    <glyph glyph-name="dotlessi" unicode="&#x131;" horiz-adv-x="261" 
d="M201 0h-141v516h141v-516z" />
    <glyph glyph-name="IJ" unicode="&#x132;" horiz-adv-x="843" 
d="M213 0h-148v712h148v-712zM718 42c-40.667 -38.667 -97.334 -58 -170.001 -58c-73.333 0 -129.666 19.333 -168.999 58c-40.667 38.667 -61 92.667 -61 162v63h140v-65c0 -60 29 -90 87 -90c56.667 0 85 30 85 90v510h148v-508c0 -69.333 -20 -123.333 -60 -162z" />
    <glyph glyph-name="ij" unicode="&#x133;" horiz-adv-x="522" 
d="M201 584h-141v128h141v-128zM462 584h-141v128h141v-128zM201 0h-141v516h141v-516zM326 -204h-91.999v124h36c19.333 0 32.666 3 39.999 9s11 16.667 11 32v555h141v-574c0 -52 -10.5 -89.333 -31.5 -112s-55.833 -34 -104.5 -34z" />
    <glyph glyph-name="Jcircumflex" unicode="&#x134;" horiz-adv-x="575" 
d="M376 777h-125l120 147h130l120 -147h-125l-60 82zM450 42c-40.667 -38.667 -97.334 -58 -170.001 -58c-73.333 0 -129.666 19.333 -168.999 58c-40.667 38.667 -61 92.667 -61 162v63h140v-65c0 -60 29 -90 87 -90c56.667 0 85 30 85 90v510h148v-508
c0 -69.333 -20 -123.333 -60 -162z" />
    <glyph glyph-name="jcircumflex" unicode="&#x135;" horiz-adv-x="261" 
d="M66 581h-125l120 147h130l120 -147h-125l-60 82zM65 -204h-91.999v124h36c19.333 0 32.666 3 39.999 9s11 16.667 11 32v555h141v-574c0 -52 -10.5 -89.333 -31.5 -112s-55.833 -34 -104.5 -34z" />
    <glyph glyph-name="uni0136" unicode="&#x136;" horiz-adv-x="692" 
d="M654 712l-270 -286l303 -426h-183l-225 327l-66 -66v-261h-148v712h148v-275l252 275h189zM377 -176h-98v116h158v-139c0 -68 -37.333 -102 -112 -102h-46v51h46c34.667 0 52 17 52 51v23z" />
    <glyph glyph-name="uni0137" unicode="&#x137;" horiz-adv-x="572" 
d="M553 516l-201 -203l205 -313h-167l-137 224l-52 -53v-171h-141v712h141v-391l175 195h177zM311 -176h-98v116h158v-139c0 -68 -37.333 -102 -112 -102h-46v51h46c34.667 0 52 17 52 51v23z" />
    <glyph glyph-name="kgreenlandic" unicode="&#x138;" horiz-adv-x="572" 
d="M557 0h-167l-137 224l-52 -53v-171h-141v516h141v-195l175 195h177l-201 -203z" />
    <glyph glyph-name="Lacute" unicode="&#x139;" horiz-adv-x="575" 
d="M111 908h172l-125 -141h-94zM213 712v-580h347v-132h-495v712h148z" />
    <glyph glyph-name="lacute" unicode="&#x13a;" horiz-adv-x="261" 
d="M150 767h-94l47 141h172zM201 0h-141v712h141v-712z" />
    <glyph glyph-name="uni013B" unicode="&#x13b;" horiz-adv-x="575" 
d="M213 712v-580h347v-132h-495v712h148zM332 -176h-98v116h158v-139c0 -68 -37.333 -102 -112 -102h-46v51h46c34.667 0 52 17 52 51v23z" />
    <glyph glyph-name="uni013C" unicode="&#x13c;" horiz-adv-x="261" 
d="M60 712h141v-712h-141v712zM52 -176v116h158v-139c0 -68 -37.333 -102 -112 -102h-46v51h46c34.667 0 52 17 52 51v23h-98z" />
    <glyph glyph-name="Lcaron" unicode="&#x13d;" horiz-adv-x="575" 
d="M213 712v-580h347v-132h-495v712h148zM373 712h150l-90 -218h-109z" />
    <glyph glyph-name="lcaron" unicode="&#x13e;" horiz-adv-x="479" 
d="M201 0h-141v712h141v-712zM389 494h-109l49 218h150z" />
    <glyph glyph-name="Ldot" unicode="&#x13f;" horiz-adv-x="575" 
d="M213 712v-580h347v-132h-495v712h148zM348 481h152v-150h-152v150z" />
    <glyph glyph-name="ldot" unicode="&#x140;" horiz-adv-x="422" 
d="M201 0h-141v712h141v-712zM406 285h-152v150h152v-150z" />
    <glyph glyph-name="Lslash" unicode="&#x141;" horiz-adv-x="663" 
d="M301 331v-199h347v-132h-495v261l-120 -58v125l120 53v331h148v-262l244 118v-125z" />
    <glyph glyph-name="lslash" unicode="&#x142;" horiz-adv-x="364" 
d="M254 467l79 47v-131l-79 -40v-343h-141v265l-80 -48v131l80 40v324h141v-245z" />
    <glyph glyph-name="Nacute" unicode="&#x143;" horiz-adv-x="705" 
d="M325 908h172l-125 -141h-94zM492 255v457h148v-712h-145l-282 457v-457h-148v712h145z" />
    <glyph glyph-name="nacute" unicode="&#x144;" horiz-adv-x="578" 
d="M265 712h172l-125 -141h-94zM349 529c53.333 0 94.833 -16.332 124.5 -48.999s44.5 -77.334 44.5 -134.001v-346h-141v314c0 28 -6.5 49.667 -19.5 65s-31.5 23 -55.5 23c-30 0 -54.333 -11.5 -73 -34.5s-28 -53.5 -28 -91.5v-276h-141v516h138l2 -70
c33.333 55.333 83 83 149 83z" />
    <glyph glyph-name="uni0145" unicode="&#x145;" horiz-adv-x="705" 
d="M492 255v457h148v-712h-145l-282 457v-457h-148v712h145zM372 -176h-98v116h158v-139c0 -68 -37.333 -102 -112 -102h-46v51h46c34.667 0 52 17 52 51v23z" />
    <glyph glyph-name="uni0146" unicode="&#x146;" horiz-adv-x="578" 
d="M349 529c53.333 0 94.833 -16.332 124.5 -48.999s44.5 -77.334 44.5 -134.001v-346h-141v314c0 28 -6.5 49.667 -19.5 65s-31.5 23 -55.5 23c-30 0 -54.333 -11.5 -73 -34.5s-28 -53.5 -28 -91.5v-276h-141v516h138l2 -70c33.333 55.333 83 83 149 83zM308 -175.999h-98
v116h158v-139c0 -68 -37.333 -102 -112 -102h-46v51h46c34.667 0 52 17 52 51v23z" />
    <glyph glyph-name="Ncaron" unicode="&#x147;" horiz-adv-x="705" 
d="M538 914l-120 -147h-130l-120 147h125l60 -82l60 82h125zM492 255v457h148v-712h-145l-282 457v-457h-148v712h145z" />
    <glyph glyph-name="ncaron" unicode="&#x148;" horiz-adv-x="578" 
d="M478 718l-120 -147h-130l-120 147h125l60 -82l60 82h125zM349 529c53.333 0 94.833 -16.332 124.5 -48.999s44.5 -77.334 44.5 -134.001v-346h-141v314c0 28 -6.5 49.667 -19.5 65s-31.5 23 -55.5 23c-30 0 -54.333 -11.5 -73 -34.5s-28 -53.5 -28 -91.5v-276h-141v516
h138l2 -70c33.333 55.333 83 83 149 83z" />
    <glyph glyph-name="napostrophe" unicode="&#x149;" horiz-adv-x="823" 
d="M116 562h-86v150h163v-179c0 -86.667 -47.667 -130 -143 -130h-19v64h19c44 0 66 22 66 66v29zM594 529c53.333 0 94.833 -16.332 124.5 -48.999s44.5 -77.334 44.5 -134.001v-346h-141v314c0 28 -6.5 49.667 -19.5 65s-31.5 23 -55.5 23c-30 0 -54.333 -11.5 -73 -34.5
s-28 -53.5 -28 -91.5v-276h-141v516h138l2 -70c33.333 55.333 83 83 149 83z" />
    <glyph glyph-name="Eng" unicode="&#x14a;" horiz-adv-x="705" 
d="M492 255l0.000976562 457h148v-770c0 -52 -10.5 -89.333 -31.5 -112s-55.833 -34 -104.5 -34h-99v124h36c19.333 0 32.666 3 39.999 9s11 16.667 11 32v44l-279 452v-457h-148v712h145z" />
    <glyph glyph-name="eng" unicode="&#x14b;" horiz-adv-x="578" 
d="M349 529c53.333 0 94.834 -16.332 124.501 -48.999s44.5 -77.334 44.5 -134.001v-404c0 -52 -10.5 -89.333 -31.5 -112s-55.833 -34 -104.5 -34h-92v124h36c19.333 0 32.666 3 39.999 9s11 16.667 11 32v353c0 28 -6.5 49.667 -19.5 65s-31.5 23 -55.5 23
c-30 0 -54.333 -11.5 -73 -34.5s-28 -53.5 -28 -91.5v-276h-141v516h138l2 -70c33.333 55.333 83 83 149 83z" />
    <glyph glyph-name="Omacron" unicode="&#x14c;" horiz-adv-x="746" 
d="M555 802h-363v105h363v-105zM614 82c-65.333 -70 -146.332 -105.001 -242.999 -105.001s-176.667 35 -240 105c-64 69.333 -96 161 -96 275c0 112 31.667 202.333 95 271c63.333 67.333 143.666 101 240.999 101c96.667 0 177.667 -33.667 243 -101
c64.667 -67.333 97 -157.666 97 -270.999c0 -114 -32.333 -205.667 -97 -275zM234.001 173.999c33.333 -46 79.002 -69 137.002 -69s104.667 23 140 69c34.667 45.333 52 106.333 52 183c0 73.333 -17.333 132.333 -52 177s-81.334 67 -140.001 67
s-104.334 -22.333 -137.001 -67c-34 -45.333 -51 -104.333 -51 -177c0 -76 17 -137 51 -183z" />
    <glyph glyph-name="omacron" unicode="&#x14d;" horiz-adv-x="592" 
d="M479 606h-363v105h363v-105zM487 61c-48.667 -52 -111.998 -78 -189.998 -78s-141.333 26 -190 78c-49.333 51.333 -74 116.333 -74 195c0 78 24.667 143.333 74 196c49.333 51.333 112.666 77 189.999 77s140.666 -25.667 189.999 -77c49.333 -52.667 74 -118 74 -196
c0 -78.667 -24.667 -143.667 -74 -195zM204.002 137c23.333 -29.333 54.333 -44.002 93 -44.002c39.333 0 70.666 14.667 93.999 44c22.667 28.667 34 68.334 34 119.001s-11.333 90.334 -34 119.001c-23.333 29.333 -54.666 44 -93.999 44
c-38.667 0 -69.667 -14.667 -93 -44s-35 -69 -35 -119s11.667 -89.667 35 -119z" />
    <glyph glyph-name="Obreve" unicode="&#x14e;" horiz-adv-x="746" 
d="M507 810c-28 -28 -73.001 -42 -135.001 -42c-61.333 0 -105.666 14 -132.999 42c-27.333 27.333 -42 67.333 -44 120h86c2 -46.667 32.667 -70 92 -70s90 23.333 92 70h86c-2 -52.667 -16.667 -92.667 -44 -120zM613.999 82
c-65.333 -70 -146.332 -105.001 -242.999 -105.001s-176.667 35 -240 105c-64 69.333 -96 161 -96 275c0 112 31.667 202.333 95 271c63.333 67.333 143.666 101 240.999 101c96.667 0 177.667 -33.667 243 -101c64.667 -67.333 97 -157.666 97 -270.999
c0 -114 -32.333 -205.667 -97 -275zM234 173.999c33.333 -46 79.002 -69 137.002 -69s104.667 23 140 69c34.667 45.333 52 106.333 52 183c0 73.333 -17.333 132.333 -52 177s-81.334 67 -140.001 67s-104.334 -22.333 -137.001 -67c-34 -45.333 -51 -104.333 -51 -177
c0 -76 17 -137 51 -183z" />
    <glyph glyph-name="obreve" unicode="&#x14f;" horiz-adv-x="592" 
d="M431 614c-28 -28 -73.001 -42 -135.001 -42c-61.333 0 -105.666 14 -132.999 42c-27.333 27.333 -42 67.333 -44 120h86c2 -46.667 32.667 -70 92 -70s90 23.333 92 70h86c-2 -52.667 -16.667 -92.667 -44 -120zM486.999 61c-48.667 -52 -111.998 -78 -189.998 -78
s-141.333 26 -190 78c-49.333 51.333 -74 116.333 -74 195c0 78 24.667 143.333 74 196c49.333 51.333 112.666 77 189.999 77s140.666 -25.667 189.999 -77c49.333 -52.667 74 -118 74 -196c0 -78.667 -24.667 -143.667 -74 -195zM204.001 137
c23.333 -29.333 54.333 -44.002 93 -44.002c39.333 0 70.666 14.667 93.999 44c22.667 28.667 34 68.334 34 119.001s-11.333 90.334 -34 119.001c-23.333 29.333 -54.666 44 -93.999 44c-38.667 0 -69.667 -14.667 -93 -44s-35 -69 -35 -119s11.667 -89.667 35 -119z" />
    <glyph glyph-name="Ohungarumlaut" unicode="&#x150;" horiz-adv-x="746" 
d="M297 767h-94l57 156h152zM496 767h-94l67 156h152zM614 82c-65.333 -70 -146.332 -105.001 -242.999 -105.001s-176.667 35 -240 105c-64 69.333 -96 161 -96 275c0 112 31.667 202.333 95 271c63.333 67.333 143.666 101 240.999 101c96.667 0 177.667 -33.667 243 -101
c64.667 -67.333 97 -157.666 97 -270.999c0 -114 -32.333 -205.667 -97 -275zM234.001 173.999c33.333 -46 79.002 -69 137.002 -69s104.667 23 140 69c34.667 45.333 52 106.333 52 183c0 73.333 -17.333 132.333 -52 177s-81.334 67 -140.001 67
s-104.334 -22.333 -137.001 -67c-34 -45.333 -51 -104.333 -51 -177c0 -76 17 -137 51 -183z" />
    <glyph glyph-name="ohungarumlaut" unicode="&#x151;" horiz-adv-x="592" 
d="M221 571h-94l57 156h152zM420 571h-94l67 156h152zM487 61c-48.667 -52 -111.998 -78 -189.998 -78s-141.333 26 -190 78c-49.333 51.333 -74 116.333 -74 195c0 78 24.667 143.333 74 196c49.333 51.333 112.666 77 189.999 77s140.666 -25.667 189.999 -77
c49.333 -52.667 74 -118 74 -196c0 -78.667 -24.667 -143.667 -74 -195zM204.002 137c23.333 -29.333 54.333 -44.002 93 -44.002c39.333 0 70.666 14.667 93.999 44c22.667 28.667 34 68.334 34 119.001s-11.333 90.334 -34 119.001c-23.333 29.333 -54.666 44 -93.999 44
c-38.667 0 -69.667 -14.667 -93 -44s-35 -69 -35 -119s11.667 -89.667 35 -119z" />
    <glyph glyph-name="OE" unicode="&#x152;" horiz-adv-x="1131" 
d="M711 306v-180.999h380v-125h-528v66c-50 -55.333 -116.667 -83 -200 -83c-92.667 0 -170.667 34 -234 102c-62.667 67.333 -94 157.666 -94 270.999c0 112 31.333 201.333 94 268c62 66 140 99 234 99c83.333 0 150 -26.667 200 -80v69h518v-125h-370v-154h333v-127h-333
zM375 106.001c58.667 0 104.667 22.167 138 66.5s50 105.5 50 183.5c0 76.667 -16.667 136.5 -50 179.5s-79.333 64.5 -138 64.5c-59.333 0 -106.166 -22.167 -140.499 -66.5s-51.5 -103.5 -51.5 -177.5c0 -76.667 17.167 -137.5 51.5 -182.5s81.166 -67.5 140.499 -67.5z
" />
    <glyph glyph-name="oe" unicode="&#x153;" horiz-adv-x="975" 
d="M944 240l0.000976562 -24h-374c2.66699 -38.667 14.667 -69 36 -91s49.666 -33 84.999 -33c50 0 83.333 22.333 100 67l140 -10c-17.333 -54.667 -46.333 -96.167 -87 -124.5s-90.667 -42.5 -150 -42.5c-84 0 -151 28.333 -201 85c-51.333 -56 -116.666 -84 -195.999 -84
c-78 0 -141.333 26 -190 78c-49.333 51.333 -74 116.333 -74 195c0 78 24.667 143.333 74 196c49.333 51.333 112.666 77 189.999 77c78.667 0 143 -27 193 -81c46.667 54 109.667 81 189 81c78 0 141.667 -26 191 -78c49.333 -52.667 74 -123 74 -211zM684.001 426
c-32.667 0 -59.168 -10.168 -79.501 -30.501s-32.166 -48.166 -35.499 -83.499h229c-4 36 -16 64 -36 84s-46 30 -78 30zM204 136.999c23.333 -29.333 54.333 -44.002 93 -44.002c39.333 0 70.666 14.667 93.999 44c22.667 28.667 34 68.334 34 119.001
s-11.333 90.334 -34 119.001c-23.333 29.333 -54.666 44 -93.999 44c-38.667 0 -69.667 -14.667 -93 -44s-35 -69 -35 -119s11.667 -89.667 35 -119z" />
    <glyph glyph-name="Racute" unicode="&#x154;" horiz-adv-x="677" 
d="M309 908h172l-125 -141h-94zM486 342c35.333 -7.33301 60.666 -20.501 75.999 -39.501s25.333 -44.5 30 -76.5l29 -226h-152l-17 183c-3.33301 32.667 -13.166 56.334 -29.499 71.001s-42.5 22 -78.5 22h-131v-276h-148v712h332c78.667 0 136 -18.333 172 -55
c35.333 -37.333 53 -84.333 53 -141c0 -92 -45.333 -150 -136 -174zM213 587.999v-192h142c40.667 0 71.167 8.83301 91.5 26.5s30.5 42.167 30.5 73.5c0 28.667 -8.5 51.167 -25.5 67.5s-42.5 24.5 -76.5 24.5h-162z" />
    <glyph glyph-name="racute" unicode="&#x155;" horiz-adv-x="378" 
d="M182 712h172l-125 -141h-94zM313 534c16.667 0 31.667 -2.33301 45 -7v-129c-17.333 1.33301 -27 2 -29 2c-85.333 0 -128 -49.667 -128 -149v-251h-141v516h138l-2 -69c22.667 58 61.667 87 117 87z" />
    <glyph glyph-name="uni0156" unicode="&#x156;" horiz-adv-x="677" 
d="M486 342c35.333 -7.33301 60.666 -20.501 75.999 -39.501s25.333 -44.5 30 -76.5l29 -226h-152l-17 183c-3.33301 32.667 -13.166 56.334 -29.499 71.001s-42.5 22 -78.5 22h-131v-276h-148v712h332c78.667 0 136 -18.333 172 -55c35.333 -37.333 53 -84.333 53 -141
c0 -92 -45.333 -150 -136 -174zM213 587.999v-192h142c40.667 0 71.167 8.83301 91.5 26.5s30.5 42.167 30.5 73.5c0 28.667 -8.5 51.167 -25.5 67.5s-42.5 24.5 -76.5 24.5h-162zM360 -176.001h-98v116h158v-139c0 -68 -37.333 -102 -112 -102h-46v51h46
c34.667 0 52 17 52 51v23z" />
    <glyph glyph-name="uni0157" unicode="&#x157;" horiz-adv-x="378" 
d="M313 534c16.667 0 31.667 -2.33301 45 -7v-129c-17.333 1.33301 -27 2 -29 2c-85.333 0 -128 -49.667 -128 -149v-251h-141v516h138l-2 -69c22.667 58 61.667 87 117 87zM150 -176h-98v116h158v-139c0 -68 -37.333 -102 -112 -102h-46v51h46c34.667 0 52 17 52 51v23z
" />
    <glyph glyph-name="Rcaron" unicode="&#x158;" horiz-adv-x="677" 
d="M522 914l-120 -147h-130l-120 147h125l60 -82l60 82h125zM486 342c35.333 -7.33301 60.666 -20.501 75.999 -39.501s25.333 -44.5 30 -76.5l29 -226h-152l-17 183c-3.33301 32.667 -13.166 56.334 -29.499 71.001s-42.5 22 -78.5 22h-131v-276h-148v712h332
c78.667 0 136 -18.333 172 -55c35.333 -37.333 53 -84.333 53 -141c0 -92 -45.333 -150 -136 -174zM213 587.999v-192h142c40.667 0 71.167 8.83301 91.5 26.5s30.5 42.167 30.5 73.5c0 28.667 -8.5 51.167 -25.5 67.5s-42.5 24.5 -76.5 24.5h-162z" />
    <glyph glyph-name="rcaron" unicode="&#x159;" horiz-adv-x="378" 
d="M395 718l-120 -147h-130l-120 147h125l60 -82l60 82h125zM198 516l-2 -69c22.667 58 61.667 87 117 87c16.667 0 31.667 -2.33301 45 -7v-129c-17.333 1.33301 -27 2 -29 2c-85.333 0 -128 -49.667 -128 -149v-251h-141v516h138z" />
    <glyph glyph-name="Sacute" unicode="&#x15a;" horiz-adv-x="663" 
d="M348 767h-94l47 141h172zM341 -23c-92 0 -164.832 21.666 -218.499 64.999s-81.5 103 -83.5 179h145c2 -39.333 16.667 -69.666 44 -90.999s64.666 -32 111.999 -32c40.667 0 72.667 7.83301 96 23.5s35 37.5 35 65.5c0 23.333 -8.33301 41.166 -25 53.499
s-44.667 23.5 -84 33.5l-131 33c-56 14 -99.167 38 -129.5 72s-45.5 76 -45.5 126c0 62 23 114.667 69 158c45.333 43.333 111 65 197 65s154.667 -21.333 206 -64c51.333 -43.333 79.333 -100 84 -170h-144c-4.66699 35.333 -20 63 -46 83s-59 30 -99 30
c-36 0 -64.667 -8 -86 -24s-32 -36.667 -32 -62c0 -39.333 27.667 -66 83 -80l142 -35c129.333 -31.333 194 -99.666 194 -204.999c0 -69.333 -25.167 -124 -75.5 -164s-119.5 -60 -207.5 -60z" />
    <glyph glyph-name="sacute" unicode="&#x15b;" horiz-adv-x="540" 
d="M293 571h-94l47 141h172zM443 27c-40.667 -30.667 -96.333 -45.999 -167 -45.999s-125.334 15 -164.001 45c-39.333 30 -62.666 72.667 -69.999 128l129 5c9.33301 -53.333 46 -80 110 -80c28.667 0 51.334 5 68.001 15s25 24 25 42c0 25.333 -22.667 42.666 -68 51.999
l-102 20c-100 20 -150 70.333 -150 151c0 52 19 93.333 57 124s89 46 153 46c62 0 113 -14.833 153 -44.5s63.333 -69.834 70 -120.501l-127 -5c-3.33301 22.667 -13.833 40.334 -31.5 53.001s-39.834 19 -66.501 19c-23.333 0 -42 -5 -56 -15s-21 -23.333 -21 -40
c0 -26 19.333 -43.333 58 -52l111 -23c51.333 -10.667 89.333 -28 114 -52s37 -56 37 -96c0 -54 -20.667 -96 -62 -126z" />
    <glyph glyph-name="Scircumflex" unicode="&#x15c;" horiz-adv-x="663" 
d="M269 777h-125l120 147h130l120 -147h-125l-60 82zM341 -23c-92 0 -164.832 21.666 -218.499 64.999s-81.5 103 -83.5 179h145c2 -39.333 16.667 -69.666 44 -90.999s64.666 -32 111.999 -32c40.667 0 72.667 7.83301 96 23.5s35 37.5 35 65.5
c0 23.333 -8.33301 41.166 -25 53.499s-44.667 23.5 -84 33.5l-131 33c-56 14 -99.167 38 -129.5 72s-45.5 76 -45.5 126c0 62 23 114.667 69 158c45.333 43.333 111 65 197 65s154.667 -21.333 206 -64c51.333 -43.333 79.333 -100 84 -170h-144
c-4.66699 35.333 -20 63 -46 83s-59 30 -99 30c-36 0 -64.667 -8 -86 -24s-32 -36.667 -32 -62c0 -39.333 27.667 -66 83 -80l142 -35c129.333 -31.333 194 -99.666 194 -204.999c0 -69.333 -25.167 -124 -75.5 -164s-119.5 -60 -207.5 -60z" />
    <glyph glyph-name="scircumflex" unicode="&#x15d;" horiz-adv-x="540" 
d="M214 581h-125l120 147h130l120 -147h-125l-60 82zM443 27c-40.667 -30.667 -96.333 -45.999 -167 -45.999s-125.334 15 -164.001 45c-39.333 30 -62.666 72.667 -69.999 128l129 5c9.33301 -53.333 46 -80 110 -80c28.667 0 51.334 5 68.001 15s25 24 25 42
c0 25.333 -22.667 42.666 -68 51.999l-102 20c-100 20 -150 70.333 -150 151c0 52 19 93.333 57 124s89 46 153 46c62 0 113 -14.833 153 -44.5s63.333 -69.834 70 -120.501l-127 -5c-3.33301 22.667 -13.833 40.334 -31.5 53.001s-39.834 19 -66.501 19
c-23.333 0 -42 -5 -56 -15s-21 -23.333 -21 -40c0 -26 19.333 -43.333 58 -52l111 -23c51.333 -10.667 89.333 -28 114 -52s37 -56 37 -96c0 -54 -20.667 -96 -62 -126z" />
    <glyph glyph-name="Scedilla" unicode="&#x15e;" horiz-adv-x="663" 
d="M624 201c0 -64.667 -22.166 -116.833 -66.499 -156.5s-105.5 -61.834 -183.5 -66.501l-31 -46h11c30.667 0 55 -7.83301 73 -23.5s27 -37.167 27 -64.5c0 -33.333 -12.667 -59.333 -38 -78s-60 -28 -104 -28h-49v64h35c30 0 45 10 45 30c0 17.333 -9.33301 26 -28 26h-22
l-37 52l43 69c-80 6.66699 -142.833 31.167 -188.5 73.5s-69.5 98.5 -71.5 168.5h145c2 -39.333 16.667 -69.666 44 -90.999s64.666 -32 111.999 -32c40.667 0 72.667 7.83301 96 23.5s35 37.5 35 65.5c0 23.333 -8.33301 41.166 -25 53.499s-44.667 23.5 -84 33.5l-131 33
c-56 14 -99.167 38 -129.5 72s-45.5 76 -45.5 126c0 62 23 114.667 69 158c45.333 43.333 111 65 197 65s154.667 -21.333 206 -64c51.333 -43.333 79.333 -100 84 -170h-144c-4.66699 35.333 -20 63 -46 83s-59 30 -99 30c-36 0 -64.667 -8 -86 -24s-32 -36.667 -32 -62
c0 -39.333 27.667 -66 83 -80l142 -35c129.333 -31.333 194 -99.666 194 -204.999z" />
    <glyph glyph-name="scedilla" unicode="&#x15f;" horiz-adv-x="540" 
d="M505 153c0 -49.333 -17.1689 -88.832 -51.502 -118.499s-82.166 -47.167 -143.499 -52.5l-32 -47h11c30.667 0 55 -7.83301 73 -23.5s27 -37.167 27 -64.5c0 -33.333 -12.667 -59.333 -38 -78s-60 -28 -104 -28h-49v64h35c30 0 45 10 45 30c0 17.333 -9.33301 26 -28 26
h-22l-37 52l44 70c-115.333 10.667 -179.666 67.667 -192.999 171l129 5c9.33301 -53.333 46 -80 110 -80c28.667 0 51.334 5 68.001 15s25 24 25 42c0 25.333 -22.667 42.666 -68 51.999l-102 20c-100 20 -150 70.333 -150 151c0 52 19 93.333 57 124s89 46 153 46
c62 0 113 -14.833 153 -44.5s63.333 -69.834 70 -120.501l-127 -5c-3.33301 22.667 -13.833 40.334 -31.5 53.001s-39.834 19 -66.501 19c-23.333 0 -42 -5 -56 -15s-21 -23.333 -21 -40c0 -26 19.333 -43.333 58 -52l111 -23c51.333 -10.667 89.333 -28 114 -52
s37 -56 37 -96z" />
    <glyph glyph-name="Scaron" unicode="&#x160;" horiz-adv-x="663" 
d="M394 767h-130l-120 147h125l60 -82l60 82h125zM341 -23c-92 0 -164.832 21.666 -218.499 64.999s-81.5 103 -83.5 179h145c2 -39.333 16.667 -69.666 44 -90.999s64.666 -32 111.999 -32c40.667 0 72.667 7.83301 96 23.5s35 37.5 35 65.5
c0 23.333 -8.33301 41.166 -25 53.499s-44.667 23.5 -84 33.5l-131 33c-56 14 -99.167 38 -129.5 72s-45.5 76 -45.5 126c0 62 23 114.667 69 158c45.333 43.333 111 65 197 65s154.667 -21.333 206 -64c51.333 -43.333 79.333 -100 84 -170h-144
c-4.66699 35.333 -20 63 -46 83s-59 30 -99 30c-36 0 -64.667 -8 -86 -24s-32 -36.667 -32 -62c0 -39.333 27.667 -66 83 -80l142 -35c129.333 -31.333 194 -99.666 194 -204.999c0 -69.333 -25.167 -124 -75.5 -164s-119.5 -60 -207.5 -60z" />
    <glyph glyph-name="scaron" unicode="&#x161;" horiz-adv-x="540" 
d="M339 571h-130l-120 147h125l60 -82l60 82h125zM443 27c-40.667 -30.667 -96.333 -45.999 -167 -45.999s-125.334 15 -164.001 45c-39.333 30 -62.666 72.667 -69.999 128l129 5c9.33301 -53.333 46 -80 110 -80c28.667 0 51.334 5 68.001 15s25 24 25 42
c0 25.333 -22.667 42.666 -68 51.999l-102 20c-100 20 -150 70.333 -150 151c0 52 19 93.333 57 124s89 46 153 46c62 0 113 -14.833 153 -44.5s63.333 -69.834 70 -120.501l-127 -5c-3.33301 22.667 -13.833 40.334 -31.5 53.001s-39.834 19 -66.501 19
c-23.333 0 -42 -5 -56 -15s-21 -23.333 -21 -40c0 -26 19.333 -43.333 58 -52l111 -23c51.333 -10.667 89.333 -28 114 -52s37 -56 37 -96c0 -54 -20.667 -96 -62 -126z" />
    <glyph glyph-name="uni0162" unicode="&#x162;" horiz-adv-x="615" 
d="M382 580v-580h-34l-38 -57h11c30.667 0 55 -7.83301 73 -23.5s27 -37.167 27 -64.5c0 -33.333 -12.667 -59.333 -38 -78s-60 -28 -104 -28h-49v64h35c30 0 45 10 45 30c0 17.333 -9.33301 26 -28 26h-22l-37 52l50 79h-39v580h-214v132h575v-132h-213z" />
    <glyph glyph-name="uni0163" unicode="&#x163;" horiz-adv-x="342" 
d="M322 412l-96 3v-253c0 -17.333 3.83301 -29.833 11.5 -37.5s20.167 -11.5 37.5 -11.5h47v-113h-92h-1l-31 -47h11c30.667 0 55 -7.83301 73 -23.5s27 -37.167 27 -64.5c0 -33.333 -12.667 -59.333 -38 -78s-60 -28 -104 -28h-49v64h35c30 0 45 10 45 30
c0 17.333 -9.33301 26 -28 26h-22l-37 52l49 78c-50 16 -75 61.333 -75 136v270l-70 -3v104l70 -2v161h141v-162l96 3v-104z" />
    <glyph glyph-name="Tcaron" unicode="&#x164;" horiz-adv-x="615" 
d="M493 914l-120 -147h-130l-120 147h125l60 -82l60 82h125zM20 712h575v-132h-213v-580h-148v580h-214v132z" />
    <glyph glyph-name="tcaron" unicode="&#x165;" horiz-adv-x="393" 
d="M279 570l49 218h150l-90 -218h-109zM226 675v-162l96 3v-104l-96 3v-253c0 -17.333 3.83301 -29.833 11.5 -37.5s20.167 -11.5 37.5 -11.5h47v-113h-92c-52 0 -89.167 11.167 -111.5 33.5s-33.5 59.5 -33.5 111.5v270l-70 -3v104l70 -2v161h141z" />
    <glyph glyph-name="Tbar" unicode="&#x166;" horiz-adv-x="615" 
d="M595 712v-132h-213v-180l191 4v-132l-191 4v-276h-148v276l-191 -4v132l191 -4v180h-214v132h575z" />
    <glyph glyph-name="tbar" unicode="&#x167;" horiz-adv-x="347" 
d="M327 516v-104l-106 3v-99l106 3v-104l-100 3l4 -38v-18c0 -17.333 3.83301 -29.833 11.5 -37.5s20.167 -11.5 37.5 -11.5h47v-113h-92c-52 0 -89.167 11.167 -111.5 33.5s-33.5 59.5 -33.5 111.5v35l2 38l-72 -3v104l75 -3v99l-75 -3v104l73 -3l-3 53v109h141v-109
l-5 -53z" />
    <glyph glyph-name="Utilde" unicode="&#x168;" horiz-adv-x="683" 
d="M238 782h-107.999c0 118.667 42.667 178 128 178c26.667 0 54.667 -8.66699 84 -26c29.333 -18 50 -27 62 -27c28 0 42 17.667 42 53h108c0 -118.667 -42.667 -178 -128 -178c-26.667 0 -54.334 9 -83.001 27c-29.333 17.333 -50.333 26 -63 26
c-28 0 -42 -17.667 -42 -53zM545.001 40c-48.667 -42 -116.667 -63 -204 -63s-155 21 -203 63c-48.667 42 -73 101.667 -73 179v493h148v-495c0 -74.667 43 -112 129 -112c85.333 0 128 37.333 128 112v495h148v-493c0 -77.333 -24.333 -137 -73 -179z" />
    <glyph glyph-name="utilde" unicode="&#x169;" horiz-adv-x="578" 
d="M227 639c-28 0 -42 -17.667 -42 -53h-108c0 118.667 42.667 178 128 178c26 0 53.667 -8.66699 83 -26c29.333 -18 50.333 -27 63 -27c28 0 42 17.667 42 53h108c0 -118.667 -42.667 -178 -128 -178c-26 0 -53.667 9 -83 27c-29.333 17.333 -50.333 26 -63 26zM377 240
v275.999h141v-516h-138l-2 70c-33.333 -55.333 -83 -83 -149 -83c-53.333 0 -94.833 16.333 -124.5 49s-44.5 77.334 -44.5 134.001v346h141v-314c0 -28 6.5 -49.667 19.5 -65s31.5 -23 55.5 -23c30 0 54.333 11.5 73 34.5s28 53.5 28 91.5z" />
    <glyph glyph-name="Umacron" unicode="&#x16a;" horiz-adv-x="683" 
d="M524 802h-363v105h363v-105zM545 40c-48.667 -42 -116.667 -63 -204 -63s-155 21 -203 63c-48.667 42 -73 101.667 -73 179v493h148v-495c0 -74.667 43 -112 129 -112c85.333 0 128 37.333 128 112v495h148v-493c0 -77.333 -24.333 -137 -73 -179z" />
    <glyph glyph-name="umacron" unicode="&#x16b;" horiz-adv-x="578" 
d="M108 711h363v-105h-363v105zM377 240v275.999h141v-516h-138l-2 70c-33.333 -55.333 -83 -83 -149 -83c-53.333 0 -94.833 16.333 -124.5 49s-44.5 77.334 -44.5 134.001v346h141v-314c0 -28 6.5 -49.667 19.5 -65s31.5 -23 55.5 -23c30 0 54.333 11.5 73 34.5
s28 53.5 28 91.5z" />
    <glyph glyph-name="Ubreve" unicode="&#x16c;" horiz-adv-x="683" 
d="M476 810c-28 -28 -73 -42 -135 -42s-106.333 14 -133 42c-27.333 27.333 -42 67.333 -44 120h86c2 -46.667 32.667 -70 92 -70s90 23.333 92 70h86c-2 -52.667 -16.667 -92.667 -44 -120zM545 40c-48.667 -42 -116.667 -63 -204 -63s-155 21 -203 63
c-48.667 42 -73 101.667 -73 179v493h148v-495c0 -74.667 43 -112 129 -112c85.333 0 128 37.333 128 112v495h148v-493c0 -77.333 -24.333 -137 -73 -179z" />
    <glyph glyph-name="ubreve" unicode="&#x16d;" horiz-adv-x="578" 
d="M423 614c-28 -28 -73.001 -42 -135.001 -42c-61.333 0 -105.666 14 -132.999 42c-27.333 27.333 -42 67.333 -44 120h86c2 -46.667 32.667 -70 92 -70s90 23.333 92 70h86c-2 -52.667 -16.667 -92.667 -44 -120zM376.999 240v275.999h141v-516h-138l-2 70
c-33.333 -55.333 -83 -83 -149 -83c-53.333 0 -94.833 16.333 -124.5 49s-44.5 77.334 -44.5 134.001v346h141v-314c0 -28 6.5 -49.667 19.5 -65s31.5 -23 55.5 -23c30 0 54.333 11.5 73 34.5s28 53.5 28 91.5z" />
    <glyph glyph-name="Uring" unicode="&#x16e;" horiz-adv-x="683" 
d="M448 809c-28 -28 -63.333 -42 -106 -42s-78 14 -106 42c-28 27.333 -42 62.333 -42 105s14 78 42 106s63.333 42 106 42s78 -14 106 -42s42 -63.333 42 -106s-14 -77.667 -42 -105zM292 863c12.667 -12.667 29.501 -19 50.501 -19s37.833 6.33301 50.5 19
s19 29.667 19 51s-6.33301 38.666 -19 51.999s-29.334 20 -50.001 20s-37.667 -6.66699 -51 -20s-20 -30.666 -20 -51.999s6.66699 -38.333 20 -51zM545.001 40c-48.667 -42 -116.667 -63 -204 -63s-155 21 -203 63c-48.667 42 -73 101.667 -73 179v493h148v-495
c0 -74.667 43 -112 129 -112c85.333 0 128 37.333 128 112v495h148v-493c0 -77.333 -24.333 -137 -73 -179z" />
    <glyph glyph-name="uring" unicode="&#x16f;" horiz-adv-x="578" 
d="M395 613c-28 -28 -63.333 -42 -106 -42s-78 14 -106 42c-28 27.333 -42 62.333 -42 105s14 78 42 106s63.333 42 106 42s78 -14 106 -42s42 -63.333 42 -106s-14 -77.667 -42 -105zM340 770c-13.333 13.333 -30.3301 20 -50.9971 20s-37.334 -6.66699 -50.001 -20
s-19 -30.666 -19 -51.999s6.33301 -38.333 19 -51c13.333 -12.667 30.166 -19 50.499 -19s37.166 6.33301 50.499 19s20 29.667 20 51s-6.66699 38.666 -20 51.999zM377.003 240v275.999h141v-516h-138l-2 70c-33.333 -55.333 -83 -83 -149 -83
c-53.333 0 -94.833 16.333 -124.5 49s-44.5 77.334 -44.5 134.001v346h141v-314c0 -28 6.5 -49.667 19.5 -65s31.5 -23 55.5 -23c30 0 54.333 11.5 73 34.5s28 53.5 28 91.5z" />
    <glyph glyph-name="Uhungarumlaut" unicode="&#x170;" horiz-adv-x="683" 
d="M266 767h-94l57 156h152zM465 767h-94l67 156h152zM545 40c-48.667 -42 -116.667 -63 -204 -63s-155 21 -203 63c-48.667 42 -73 101.667 -73 179v493h148v-495c0 -74.667 43 -112 129 -112c85.333 0 128 37.333 128 112v495h148v-493c0 -77.333 -24.333 -137 -73 -179z
" />
    <glyph glyph-name="uhungarumlaut" unicode="&#x171;" horiz-adv-x="578" 
d="M176 727h152l-115 -156h-94zM537 727l-125 -156h-94l67 156h152zM377 240v275.999h141v-516h-138l-2 70c-33.333 -55.333 -83 -83 -149 -83c-53.333 0 -94.833 16.333 -124.5 49s-44.5 77.334 -44.5 134.001v346h141v-314c0 -28 6.5 -49.667 19.5 -65s31.5 -23 55.5 -23
c30 0 54.333 11.5 73 34.5s28 53.5 28 91.5z" />
    <glyph glyph-name="Uogonek" unicode="&#x172;" horiz-adv-x="683" 
d="M470 217v495.002h148v-493c0 -64 -16.833 -116.167 -50.5 -156.5s-81.5 -66.5 -143.5 -78.5l-48 -40c-22.667 -18.667 -34 -36.334 -34 -53.001c0 -24.667 16.667 -37 50 -37h36v-87h-83c-86 0 -129 31 -129 93c0 22 6.33301 42 19 60s34.667 37.667 66 59
c-76 6 -134.333 29.667 -175 71s-61 97.666 -61 168.999v493h148v-495c0 -74.667 43 -112 129 -112c85.333 0 128 37.333 128 112z" />
    <glyph glyph-name="uogonek" unicode="&#x173;" horiz-adv-x="578" 
d="M518 0l-52 -44c-22.667 -18.667 -34 -36.334 -34 -53.001c0 -24.667 16.667 -37 50 -37h36v-87h-83c-86 0 -129 31 -129 93c0 22 6.66699 42 20 60s36.333 38.333 69 61l-16 80c-33.333 -57.333 -83 -86 -149 -86c-50.667 0 -92 16.667 -124 50
c-30.667 32.667 -46 81.334 -46 146.001v333h141v-307c0 -32.667 6.66699 -56.667 20 -72c14 -15.333 32.333 -23 55 -23c30 0 54.333 11.5 73 34.5s28 53.5 28 91.5v276h141v-516z" />
    <glyph glyph-name="Wcircumflex" unicode="&#x174;" horiz-adv-x="971" 
d="M548 777l-60 82l-60 -82h-125l120 147h130l120 -147h-125zM702 356l92 356h152l-208 -712h-142l-109 486l-110 -486h-144l-208 712h157l92 -356l34 -143l29 143l78 356h146l78 -356l29 -143z" />
    <glyph glyph-name="wcircumflex" unicode="&#x175;" horiz-adv-x="777" 
d="M449 581l-60 82l-60 -82h-125l120 147h130l120 -147h-125zM557 287l57 229h148l-153 -516h-134l-74 287l-12 68l-13 -68l-74 -287h-134l-153 516h148l57 -229l24 -130l24 130l58 229h125l58 -227l24 -132z" />
    <glyph glyph-name="Ycircumflex" unicode="&#x176;" horiz-adv-x="656" 
d="M388 777l-60 82l-60 -82h-125l120 147h130l120 -147h-125zM369 491l110 221h159l-236 -436v-276h-148v276l-236 436h163l108 -221l39 -99z" />
    <glyph glyph-name="ycircumflex" unicode="&#x177;" horiz-adv-x="556" 
d="M341 581l-60 82l-60 -82h-125l120 147h130l120 -147h-125zM281 151l109.999 365h150l-206 -608c-14 -42.667 -32.167 -72 -54.5 -88s-53.166 -24 -92.499 -24h-118v120h68c38 0 62.333 14.667 73 44l5 14l-201 542h155l95 -290z" />
    <glyph glyph-name="Ydieresis" unicode="&#x178;" horiz-adv-x="656" 
d="M152 908h141v-128h-141v128zM363 908h141v-128h-141v128zM369 491l110 221h159l-236 -436v-276h-148v276l-236 436h163l108 -221l39 -99z" />
    <glyph glyph-name="Zacute" unicode="&#x179;" horiz-adv-x="681" 
d="M313 908h172l-125 -141h-94zM71 712h564v-115l-393 -471h393v-126h-589v115l393 471h-368v126z" />
    <glyph glyph-name="zacute" unicode="&#x17a;" horiz-adv-x="485" 
d="M225 712h172l-125 -141h-94zM455 401l-257 -285h267v-116h-445v113l265 287h-233v116h403v-115z" />
    <glyph glyph-name="Zdotaccent" unicode="&#x17b;" horiz-adv-x="681" 
d="M270 908h141v-128h-141v128zM71 712h564v-115l-393 -471h393v-126h-589v115l393 471h-368v126z" />
    <glyph glyph-name="zdotaccent" unicode="&#x17c;" horiz-adv-x="485" 
d="M182 712h141v-128h-141v128zM455 401l-257 -285h267v-116h-445v113l265 287h-233v116h403v-115z" />
    <glyph glyph-name="Zcaron" unicode="&#x17d;" horiz-adv-x="681" 
d="M526 914l-120 -147h-130l-120 147h125l60 -82l60 82h125zM71 712h564v-115l-393 -471h393v-126h-589v115l393 471h-368v126z" />
    <glyph glyph-name="zcaron" unicode="&#x17e;" horiz-adv-x="485" 
d="M438 718l-120 -147h-130l-120 147h125l60 -82l60 82h125zM455 401l-257 -285h267v-116h-445v113l265 287h-233v116h403v-115z" />
    <glyph glyph-name="uni018F" unicode="&#x18f;" horiz-adv-x="746" 
d="M365 728c105.333 0 189.334 -33.332 252.001 -99.999s94 -157.334 94 -272.001c0 -112.667 -31.333 -203.667 -94 -273c-62.667 -70.667 -146 -106 -250 -106c-101.333 0 -182 33.667 -242 101s-90 160 -90 278c0 14 0.333008 24 1 30h526c-4 68.667 -23 121.5 -57 158.5
s-81 55.5 -141 55.5c-34.667 0 -65.167 -6.66699 -91.5 -20s-45.833 -32 -58.5 -56h-161c22 64 60.667 114 116 150s120.666 54 195.999 54zM369.001 105.001c47.333 0 86.833 13.5 118.5 40.5s53.5 65.833 65.5 116.5h-361c6.66699 -50 25.5 -88.667 56.5 -116
s71.167 -41 120.5 -41z" />
    <glyph glyph-name="florin" unicode="&#x192;" 
d="M529 712h74l-24 -123h-39c-38.667 0 -62 -19.667 -70 -59l-18 -96l88 3l-20 -104l-87 3l-65 -336c-10.667 -53.333 -32.834 -94.166 -66.501 -122.499s-77.167 -42.5 -130.5 -42.5h-74l24 123h39c38.667 0 62 19.667 70 59l61 319l-88 -3l20 104l87 -3l22 113
c10.667 53.333 32.834 94.166 66.501 122.499s77.167 42.5 130.5 42.5z" />
    <glyph glyph-name="uni01F4" unicode="&#x1f4;" horiz-adv-x="742" 
d="M343 908h172l-125 -141h-94zM380 385l297 0.000976562v-385h-96l-23 77c-41.333 -62 -107.666 -93 -198.999 -93c-92.667 0 -169.667 34 -231 102c-62 66.667 -93 156.667 -93 270s31.333 203.333 94 270c62 67.333 141.333 101 238 101c86 0 155.333 -20.833 208 -62.5
s85 -100.834 97 -177.501l-145 -9c-7.33301 38.667 -24 68.667 -50 90s-60 32 -102 32c-60 0 -107 -22 -141 -66s-51 -103.333 -51 -178c0 -76.667 17 -137.667 51 -183s81 -68 141 -68c46 0 84.667 13.5 116 40.5s50.666 65.5 57.999 115.5h-169v124z" />
    <glyph glyph-name="uni01F5" unicode="&#x1f5;" horiz-adv-x="595" 
d="M249 712h172l-125 -141h-94zM405 452l4.99902 64h125v-522c0 -67.333 -21.5 -119.166 -64.5 -155.499s-103.5 -54.5 -181.5 -54.5c-72 0 -128.167 15 -168.5 45s-63.166 73 -68.499 129h130c8 -46 42.667 -69 104 -69c38.667 0 66.334 8.5 83.001 25.5s25 42.833 25 77.5
v71c-34.667 -42 -81.334 -63 -140.001 -63c-65.333 0 -118.333 25 -159 75c-41.333 49.333 -62 113.666 -62 192.999c0 80 20.667 143.667 62 191c40.667 46.667 93.667 70 159 70c66.667 0 117 -25.667 151 -77zM284.999 120c34 0 61.833 13.667 83.5 41s32.5 63 32.5 107
s-10.833 79.667 -32.5 107s-49.5 41 -83.5 41c-34.667 0 -62.667 -13.333 -84 -40s-32 -62.667 -32 -108s10.667 -81.333 32 -108s49.333 -40 84 -40z" />
    <glyph glyph-name="Aringacute" unicode="&#x1fa;" horiz-adv-x="719" 
d="M340 1109h172l-124 -141h-94zM694 0l-158 -0.000976562l-48 148h-258l-48 -148h-157l239 676c-28.667 26.667 -43 62.334 -43 107.001c0 42.667 14 78 42 106s63.333 42 106 42s78 -14 106 -42s42 -63.333 42 -106c0 -50 -18 -88.667 -54 -116zM420 834.999
c-13.333 12.667 -30.3301 19 -50.9971 19s-37.334 -6.33301 -50.001 -19s-19 -29.834 -19 -51.501s6.33301 -38.834 19 -51.501c13.333 -12.667 30.166 -19 50.499 -19s37.166 6.33301 50.499 19s20 29.834 20 51.501s-6.66699 38.834 -20 51.501zM299.003 357.999l-29 -88
h179l-29 88l-60 205z" />
    <glyph glyph-name="aringacute" unicode="&#x1fb;" horiz-adv-x="557" 
d="M247 1042h172l-125 -141h-94zM381 609c-28 -28 -63.333 -42 -106 -42s-78 14 -106 42c-28 27.333 -42 62.333 -42 105s14 78 42 106s63.333 42 106 42s78 -14 106 -42s42 -63.333 42 -106s-14 -77.667 -42 -105zM326 766c-13.333 13.333 -30.333 20 -51 20
s-37.334 -6.66699 -50.001 -20s-19 -30.666 -19 -51.999s6.33301 -38.333 19 -51s29.334 -19 50.001 -19s37.667 6.33301 51 19s20 29.667 20 51s-6.66699 38.666 -20 51.999zM517 0l-142.999 0.000976562c-7.33301 33.333 -11 50.666 -11 51.999
c-36.667 -44.667 -89.667 -67 -159 -67c-54 0 -97.333 14.333 -130 43s-49 66.667 -49 114c0 83.333 52.333 135.333 157 156l180 36v38c0 37.333 -29 56 -87 56c-28.667 0 -50.334 -5.33301 -65.001 -16s-23.667 -28 -27 -52l-129 2c8.66699 110.667 82 166 220 166
c148.667 0 223 -64 223 -192v-228c0 -48.667 6.66699 -84.667 20 -108zM244.001 89.001c35.333 0 63.834 10.501 85.501 31.501s32.5 49.5 32.5 85.5v38l-132 -28c-44.667 -8.66699 -67 -30.334 -67 -65.001c0 -18.667 7.16699 -33.667 21.5 -45s34.166 -17 59.499 -17z" />
    <glyph glyph-name="AEacute" unicode="&#x1fc;" horiz-adv-x="1139" 
d="M637 908h172l-125 -141h-94zM719 306v-181h380v-125h-528v179h-274l-108 -179h-164l429 712h635v-125h-370v-154h333v-127h-333zM540 584l-168 -280h199v280h-31z" />
    <glyph glyph-name="aeacute" unicode="&#x1fd;" horiz-adv-x="912" 
d="M428 712h172l-125 -141h-94zM881 240l-0.000976562 -24.999h-374c3.33301 -38.667 15.666 -68.834 36.999 -90.501s49.333 -32.5 84 -32.5c48 0 81 21.333 99 64l138 -16c-37.333 -105.333 -115.333 -158 -234 -158c-98 0 -167.667 36 -209 108
c-41.333 -70 -108.666 -105 -201.999 -105c-61.333 0 -109.166 14.5 -143.499 43.5s-51.5 68.167 -51.5 117.5c0 46.667 15.833 84.167 47.5 112.5s78.167 42.5 139.5 42.5h150v51c0 50.667 -30.333 76 -91 76c-27.333 0 -48 -5.33301 -62 -16s-22.667 -28 -26 -52l-129 2
c10 110.667 80.667 166 212 166c90 0 151 -25 183 -75c44.667 50.667 106.667 76 186 76c78 0 138.5 -25.5 181.5 -76.5s64.5 -121.833 64.5 -212.5zM699.999 394.001c-20 21.333 -46.332 32 -78.999 32c-32 0 -58.667 -10.667 -80 -32c-20 -21.333 -31.667 -52.333 -35 -93
h229c-2.66699 40.667 -14.334 71.667 -35.001 93zM244 89.001c35.333 0 63.834 10.499 85.501 31.499s32.5 49.5 32.5 85.5v10h-115c-28 0 -49 -5.83301 -63 -17.5s-21 -27.167 -21 -46.5s7.16699 -34.666 21.5 -45.999s34.166 -17 59.499 -17z" />
    <glyph glyph-name="Oslashacute" unicode="&#x1fe;" horiz-adv-x="746" 
d="M345 908h172l-125 -141h-94zM686 690l-57.999 -78c55.333 -67.333 83 -152.333 83 -255c0 -114 -32.333 -205.667 -97 -275c-65.333 -70 -146.333 -105 -243 -105c-68 0 -127.667 17.333 -179 52l-58 -77l-74 53l63 85c-58.667 68.667 -88 157.667 -88 267
c0 112 31.667 202.333 95 271c63.333 67.333 143.666 101 240.999 101c70.667 0 133.667 -18.667 189 -56l52 70zM183.001 357c0 -58.667 10.001 -108 30.001 -148l266 356c-30 24 -66 36 -108 36c-58.667 0 -104.334 -22.333 -137.001 -67
c-34 -45.333 -51 -104.333 -51 -177zM371.002 105c58 0 104.667 23 140 69c34.667 45.333 52 106.333 52 183c0 49.333 -8.66699 94 -26 134l-265 -355c27.333 -20.667 60.333 -31 99 -31z" />
    <glyph glyph-name="oslashacute" unicode="&#x1ff;" horiz-adv-x="592" 
d="M269 712h172l-125 -141h-94zM547 480l-42.999 -49.002c38 -49.333 57 -107.666 57 -174.999c0 -78.667 -24.667 -143.667 -74 -195c-48.667 -52 -112 -78 -190 -78c-54 0 -102.667 13.667 -146 41l-41 -47l-62 54l43 49c-38.667 48.667 -58 107.334 -58 176.001
c0 78 24.667 143.333 74 196c49.333 51.333 112.666 77 189.999 77c55.333 0 104.333 -14 147 -42l41 47zM169.001 255.998c0 -25.333 3.66699 -49.667 11 -73l187 215c-20 14 -43.333 21 -70 21c-39.333 0 -70.5 -14.667 -93.5 -44s-34.5 -69 -34.5 -119zM297.001 92.9971
c39.333 0 70.5 14.667 93.5 44s34.5 69 34.5 119c0 26 -3.33301 50 -10 72l-186 -215c19.333 -13.333 42 -20 68 -20z" />
    <glyph glyph-name="uni0218" unicode="&#x218;" horiz-adv-x="663" 
d="M288 441l142.001 -35.001c129.333 -31.333 194 -99.666 194 -204.999c0 -69.333 -25.167 -124 -75.5 -164s-119.5 -60 -207.5 -60c-92 0 -164.833 21.667 -218.5 65s-81.5 103 -83.5 179h145c2 -39.333 16.667 -69.666 44 -90.999s64.666 -32 111.999 -32
c40.667 0 72.667 7.83301 96 23.5s35 37.5 35 65.5c0 23.333 -8.33301 41.166 -25 53.499s-44.667 23.5 -84 33.5l-131 33c-56 14 -99.167 38 -129.5 72s-45.5 76 -45.5 126c0 62 23 114.667 69 158c45.333 43.333 111 65 197 65s154.667 -21.333 206 -64
c51.333 -43.333 79.333 -100 84 -170h-144c-4.66699 35.333 -20 63 -46 83s-59 30 -99 30c-36 0 -64.667 -8 -86 -24s-32 -36.667 -32 -62c0 -39.333 27.667 -66 83 -80zM360.001 -187.001h-98v116h158v-139c0 -68 -37.333 -102 -112 -102h-46v51h46c34.667 0 52 17 52 51
v23z" />
    <glyph glyph-name="uni0219" unicode="&#x219;" horiz-adv-x="540" 
d="M243 324l111 -22.999c51.333 -10.667 89.333 -28 114 -52s37 -56 37 -96c0 -53.333 -20.5 -95.333 -61.5 -126s-96.833 -46 -167.5 -46c-69.333 0 -124 14.833 -164 44.5s-63.333 72.5 -70 128.5l129 5c9.33301 -53.333 46 -80 110 -80c28.667 0 51.334 5 68.001 15
s25 24 25 42c0 25.333 -22.667 42.666 -68 51.999l-102 20c-100 20 -150 70.333 -150 151c0 52 19 93.333 57 124s89 46 153 46c62 0 113 -14.833 153 -44.5s63.333 -69.834 70 -120.501l-127 -5c-3.33301 22.667 -13.833 40.334 -31.5 53.001s-39.834 19 -66.501 19
c-23.333 0 -42 -5 -56 -15s-21 -23.333 -21 -40c0 -26 19.333 -43.333 58 -52zM295 -183.999h-98v116h158v-139c0 -68 -37.333 -102 -112 -102h-46v51h46c34.667 0 52 17 52 51v23z" />
    <glyph glyph-name="uni021A" unicode="&#x21a;" horiz-adv-x="615" 
d="M20 712h575v-132h-213v-580h-148v580h-214v132zM327 -176h-98v116h158v-139c0 -68 -37.333 -102 -112 -102h-46v51h46c34.667 0 52 17 52 51v23z" />
    <glyph glyph-name="uni021B" unicode="&#x21b;" horiz-adv-x="342" 
d="M322 412l-96 3v-253c0 -17.333 3.83301 -29.833 11.5 -37.5s20.167 -11.5 37.5 -11.5h47v-113h-92c-52 0 -89.167 11.167 -111.5 33.5s-33.5 59.5 -33.5 111.5v270l-70 -3v104l70 -2v161h141v-162l96 3v-104zM180 -176h-98v116h158v-139c0 -68 -37.333 -102 -112 -102
h-46v51h46c34.667 0 52 17 52 51v23z" />
    <glyph glyph-name="uni0237" unicode="&#x237;" horiz-adv-x="261" 
d="M65 -204h-91.999v124h36c19.333 0 32.666 3 39.999 9s11 16.667 11 32v555h141v-574c0 -52 -10.5 -89.333 -31.5 -112s-55.833 -34 -104.5 -34z" />
    <glyph glyph-name="uni0259" unicode="&#x259;" horiz-adv-x="583" 
d="M281 534c83.333 0 149 -26 197 -78s72 -118.667 72 -200c0 -77.333 -23 -141.333 -69 -192c-46 -51.333 -107.667 -77 -185 -77c-78.667 0 -142.334 26 -191.001 78c-49.333 52.667 -74 123 -74 211v24h374c-2.66699 38.667 -14.667 69 -36 91s-49.666 33 -84.999 33
c-50 0 -83.333 -22.333 -100 -67l-140 10c17.333 54.667 46.333 96.167 87 124.5s90.667 42.5 150 42.5zM291 90c32.667 0 59.168 10.168 79.501 30.501s32.166 48.166 35.499 83.499h-229c4 -36 16 -64 36 -84s46 -30 78 -30z" />
    <glyph glyph-name="h.sups" unicode="&#x2b0;" horiz-adv-x="481" 
d="M288 724c42 0 74.666 -10.333 97.999 -31s35 -50.667 35 -90v-231h-116v208c0 36.667 -19 55 -57 55c-21.333 0 -38.666 -6.16699 -51.999 -18.5s-20 -31.5 -20 -57.5v-187h-116v470h116v-163c28 30 65.333 45 112 45z" />
    <glyph glyph-name="r.sups" unicode="&#x2b3;" horiz-adv-x="339" 
d="M287 722h31.999v-111h-36c-38.667 0 -66.167 -7 -82.5 -21s-24.5 -37.667 -24.5 -71v-147h-116v340h101l9 -69c12 30.667 26.333 51.5 43 62.5s41.334 16.5 74.001 16.5z" />
    <glyph glyph-name="circumflex" unicode="&#x2c6;" horiz-adv-x="500" 
d="M190 581h-125l120 147h130l120 -147h-125l-60 82z" />
    <glyph glyph-name="caron" unicode="&#x2c7;" horiz-adv-x="500" 
d="M315 571h-130l-120 147h125l60 -82l60 82h125z" />
    <glyph glyph-name="uni02C9" unicode="&#x2c9;" horiz-adv-x="500" 
d="M432 606h-363v105h363v-105z" />
    <glyph glyph-name="breve" unicode="&#x2d8;" horiz-adv-x="500" 
d="M384 614c-28 -28 -73.001 -42 -135.001 -42c-61.333 0 -105.666 14 -132.999 42c-27.333 27.333 -42 67.333 -44 120h86c2 -46.667 32.667 -70 92 -70s90 23.333 92 70h86c-2 -52.667 -16.667 -92.667 -44 -120z" />
    <glyph glyph-name="dotaccent" unicode="&#x2d9;" horiz-adv-x="500" 
d="M321 584h-141v128h141v-128z" />
    <glyph glyph-name="ring" unicode="&#x2da;" horiz-adv-x="500" 
d="M356 613c-28 -28 -63.333 -42 -106 -42s-78 14 -106 42c-28 27.333 -42 62.333 -42 105s14 78 42 106s63.333 42 106 42s78 -14 106 -42s42 -63.333 42 -106s-14 -77.667 -42 -105zM200 667c13.333 -12.667 30.333 -19 51 -19s37.334 6.33301 50.001 19s19 29.667 19 51
s-6.33301 38.666 -19 51.999s-29.334 20 -50.001 20s-37.667 -6.66699 -51 -20s-20 -30.666 -20 -51.999s6.66699 -38.333 20 -51z" />
    <glyph glyph-name="ogonek" unicode="&#x2db;" horiz-adv-x="500" 
d="M345 -221l-83 0.000976562c-86 0 -129 31 -129 93c0 22.667 6.83301 43.167 20.5 61.5s37.5 38.833 71.5 61.5l29 20l91 -15l-52 -44c-22.667 -18.667 -34 -36.334 -34 -53.001c0 -24.667 16.667 -37 50 -37h36v-87z" />
    <glyph glyph-name="tilde" unicode="&#x2dc;" horiz-adv-x="500" 
d="M145 626h-108c0 118.667 42.667 178 128 178c26 0 53.667 -8.66699 83 -26c29.333 -18 50.333 -27 63 -27c28 0 42 17.667 42 53h108c0 -118.667 -42.667 -178 -128 -178c-26 0 -53.667 9 -83 27c-29.333 17.333 -50.333 26 -63 26c-28 0 -42 -17.667 -42 -53z" />
    <glyph glyph-name="hungarumlaut" unicode="&#x2dd;" horiz-adv-x="500" 
d="M135 571h-94l57 156h152zM334 571h-94l67 156h152z" />
    <glyph glyph-name="s.sups" unicode="&#x2e2;" horiz-adv-x="414" 
d="M211 362c-104 0 -163.333 36.333 -178 109l114 10c8 -25.333 31.333 -38 70 -38c44 0 66 11 66 33c0 16.667 -14 26.334 -42 29.001l-74 6c-40 3.33301 -70.667 14 -92 32s-32 42 -32 72c0 34.667 14.167 61.667 42.5 81s68.5 29 120.5 29c94.667 0 150 -33.333 166 -100
l-108 -7c-5.33301 21.333 -25.333 32 -60 32c-38 0 -57 -9.33301 -57 -28c0 -14.667 10.667 -23 32 -25l74 -6c86.667 -6.66699 130 -42.334 130 -107.001c0 -38 -15.167 -67.833 -45.5 -89.5s-72.5 -32.5 -126.5 -32.5z" />
    <glyph glyph-name="gravecomb" unicode="&#x300;" horiz-adv-x="0" 
d="M76 571h-94l-125 141h172z" />
    <glyph glyph-name="acutecomb" unicode="&#x301;" horiz-adv-x="0" 
d="M19 571h-94l47 141h172z" />
    <glyph glyph-name="uni0302" unicode="&#x302;" horiz-adv-x="0" 
d="M-60 581h-125l120 147h130l120 -147h-125l-60 82z" />
    <glyph glyph-name="tildecomb" unicode="&#x303;" horiz-adv-x="0" 
d="M-104 626h-107.999c0 118.667 42.667 178 128 178c26.667 0 54.667 -8.66699 84 -26c29.333 -18 50 -27 62 -27c28 0 42 17.667 42 53h108c0 -118.667 -42.667 -178 -128 -178c-26.667 0 -54.334 9 -83.001 27c-29.333 17.333 -50.333 26 -63 26
c-28 0 -42 -17.667 -42 -53z" />
    <glyph glyph-name="uni0304" unicode="&#x304;" horiz-adv-x="0" 
d="M182 606h-363v105h363v-105z" />
    <glyph glyph-name="uni0306" unicode="&#x306;" horiz-adv-x="0" 
d="M134 614c-28 -28 -73 -42 -135 -42s-106.667 14 -134 42c-26.667 26.667 -41 66.667 -43 120h86c2 -46.667 32.667 -70 92 -70s90 23.333 92 70h86c-2 -52.667 -16.667 -92.667 -44 -120z" />
    <glyph glyph-name="uni0307" unicode="&#x307;" horiz-adv-x="0" 
d="M70 584h-141v128h141v-128z" />
    <glyph glyph-name="uni0308" unicode="&#x308;" horiz-adv-x="0" 
d="M-35 584h-141v128h141v-128zM176 584h-141v128h141v-128z" />
    <glyph glyph-name="uni030A" unicode="&#x30a;" horiz-adv-x="0" 
d="M106 613c-28 -28 -63.333 -42 -106 -42s-78 14 -106 42c-28 27.333 -42 62.333 -42 105s14 78 42 106s63.333 42 106 42s78 -14 106 -42s42 -63.333 42 -106s-14 -77.667 -42 -105zM-51 667c12.667 -12.667 29.667 -19 51 -19s38.333 6.33301 51 19s19 29.667 19 51
s-6.33301 38.666 -19 51.999s-29.667 20 -51 20s-38.333 -6.66699 -51 -20s-19 -30.666 -19 -51.999s6.33301 -38.333 19 -51z" />
    <glyph glyph-name="uni030B" unicode="&#x30b;" horiz-adv-x="0" 
d="M-76 571h-94l57 156h152zM123 571h-94l67 156h152z" />
    <glyph glyph-name="uni030C" unicode="&#x30c;" horiz-adv-x="0" 
d="M65 571h-130l-120 147h125l60 -82l60 82h125z" />
    <glyph glyph-name="uni0312" unicode="&#x312;" horiz-adv-x="0" 
d="M79 738h-46c-34 0 -51 -17 -51 -51v-9l97 9v-103h-157v103c0 68 37 102 111 102h46v-51z" />
    <glyph glyph-name="uni0313" unicode="&#x313;" horiz-adv-x="0" 
d="M-78 686v103h157v-103c0 -68 -37 -102 -111 -102h-46v51h46c34 0 51 17 51 51v9z" />
    <glyph glyph-name="dotbelowcomb" unicode="&#x323;" horiz-adv-x="0" 
d="M70 -196h-141v128h141v-128z" />
    <glyph glyph-name="uni0324" unicode="&#x324;" horiz-adv-x="0" 
d="M-35 -196h-141v128h141v-128zM176 -196h-141v128h141v-128z" />
    <glyph glyph-name="uni0325" unicode="&#x325;" horiz-adv-x="0" 
d="M106 -308c-28 -28 -63.333 -42 -106 -42s-78 14 -106 42s-42 63.333 -42 106s14 77.667 42 105c28 28 63.333 42 106 42s78 -14 106 -42c28 -27.333 42 -62.333 42 -105s-14 -78 -42 -106zM-51 -254c12.667 -13.333 29.667 -20 51 -20s38.333 6.66699 51 20
s19 30.666 19 51.999s-6.33301 38.333 -19 51s-29.667 19 -51 19s-38.333 -6.33301 -51 -19s-19 -29.667 -19 -51s6.33301 -38.666 19 -51.999z" />
    <glyph glyph-name="uni0326" unicode="&#x326;" horiz-adv-x="0" 
d="M-79 -176v116h158v-139c0 -68 -37.333 -102 -112 -102h-46v51h46c34.667 0 52 17 52 51v23h-98z" />
    <glyph glyph-name="uni0327" unicode="&#x327;" horiz-adv-x="0" 
d="M-29 -251h-49v64h35c30 0 45 10 45 30c0 17.333 -9.33301 26 -28 26h-22l-37 52l50 79h75l-38 -57h11c30.667 0 55 -7.83301 73 -23.5s27 -37.167 27 -64.5c0 -33.333 -12.667 -59.333 -38 -78s-60 -28 -104 -28z" />
    <glyph glyph-name="uni0328" unicode="&#x328;" horiz-adv-x="0" 
d="M-212 -221l-83 0.000976562c-86 0 -129 31 -129 93c0 22.667 6.83301 43.167 20.5 61.5s37.5 38.833 71.5 61.5l29 20l91 -15l-52 -44c-22.667 -18.667 -34 -36.334 -34 -53.001c0 -24.667 16.667 -37 50 -37h36v-87z" />
    <glyph glyph-name="uni032E" unicode="&#x32e;" horiz-adv-x="0" 
d="M134 -177c-28.667 -27.333 -73.667 -40.999 -135 -40.999c-62 0 -106.667 13.667 -134 41c-26.667 27.333 -41 67.666 -43 120.999h86c2 -46.667 32.667 -70 92 -70s90 23.333 92 70h86c-2 -52 -16.667 -92.333 -44 -121z" />
    <glyph glyph-name="uni0331" unicode="&#x331;" horiz-adv-x="0" 
d="M182 -195h-363v105h363v-105z" />
    <glyph glyph-name="uni0335" unicode="&#x335;" horiz-adv-x="0" 
d="M1 326l-155 -5v104l155 -5l153 5v-104z" />
    <glyph glyph-name="uni0337" unicode="&#x337;" horiz-adv-x="0" 
d="M248 516l-422 -564l-74 53l422 564z" />
    <glyph glyph-name="uni0338" unicode="&#x338;" horiz-adv-x="0" 
d="M313 690l-552 -738l-74 53l552 738z" />
    <glyph glyph-name="uni0394" unicode="&#x394;" horiz-adv-x="719" 
d="M277 712h171l246 -712h-669zM299 358l-77 -236h274l-76 236l-60 205z" />
    <glyph glyph-name="uni03A9" unicode="&#x3a9;" horiz-adv-x="752" 
d="M340 0l-305 0.000976562v120h134v2c-88 64 -132 154.333 -132 271c0 99.333 31 180.333 93 243c61.333 62 143 93 245 93c103.333 0 185.333 -31 246 -93c61.333 -63.333 92 -144.333 92 -243c0 -118 -43.333 -208.333 -130 -271v-2h134v-120h-304v113
c101.333 51.333 152 139.666 152 264.999c0 72.667 -16.833 128 -50.5 166s-80.167 57 -139.5 57c-58.667 0 -105 -19 -139 -57s-51 -93.333 -51 -166c0 -124.667 51.667 -213 155 -265v-113z" />
    <glyph glyph-name="uni03BC" unicode="&#x3bc;" horiz-adv-x="578" 
d="M201 -204h-141.001v720h141v-307c0 -63.333 25 -95 75 -95c30 0 54.333 11.5 73 34.5s28 53.5 28 91.5v276h141v-516h-138l-2 70c-11.333 -26 -28.333 -46.167 -51 -60.5s-48 -21.5 -76 -21.5c-25.333 0 -49.666 6.33301 -72.999 19l-2 -2l25 -115v-94z" />
    <glyph glyph-name="pi" unicode="&#x3c0;" horiz-adv-x="668" 
d="M648 516v-130h-119v-199c0 -24.667 5.16699 -42.167 15.5 -52.5s27.5 -15.5 51.5 -15.5h26v-119h-53c-114 0 -171 60.667 -171 182v204h-138v-386h-131v386h-114v130h633z" />
    <glyph glyph-name="d.sups" unicode="&#x1d48;" horiz-adv-x="460" 
d="M283 673l0.000976562 168.999h117v-470h-109l-3 40c-28.667 -36.667 -65.334 -55 -110.001 -55c-43.333 0 -78.333 17.333 -105 52s-40 79.334 -40 134.001c0 56 13.167 100.5 39.5 133.5s61.5 49.5 105.5 49.5c40.667 0 75.667 -17.667 105 -53zM216.001 455.999
c28 -2 48 12.332 60 42.999s12 61.5 0 92.5s-32 45.5 -60 43.5c-20 0 -35.667 -7.66699 -47 -23s-17 -37.666 -17 -66.999c0 -28.667 5.66699 -50.667 17 -66s27 -23 47 -23z" />
    <glyph glyph-name="t.sups" unicode="&#x1d57;" horiz-adv-x="293" 
d="M273 713v-83l-74 2v-135c0 -26 11 -39 33 -39h40v-86h-82c-40 0 -68 7.5 -84 22.5s-24 43.5 -24 85.5v152l-67 -2v83l67 -2v103h117v-103z" />
    <glyph glyph-name="Wgrave" unicode="&#x1e80;" horiz-adv-x="971" 
d="M516 908l47 -141h-94l-125 141h172zM702 356l92 356h152l-208 -712h-142l-109 486l-110 -486h-144l-208 712h157l92 -356l34 -143l29 143l78 356h146l78 -356l29 -143z" />
    <glyph glyph-name="wgrave" unicode="&#x1e81;" horiz-adv-x="777" 
d="M417 712l47 -141h-94l-125 141h172zM557 287l57 229h148l-153 -516h-134l-74 287l-12 68l-13 -68l-74 -287h-134l-153 516h148l57 -229l24 -130l24 130l58 229h125l58 -227l24 -132z" />
    <glyph glyph-name="Wacute" unicode="&#x1e82;" horiz-adv-x="971" 
d="M460 908h172l-125 -141h-94zM702 356l92 356h152l-208 -712h-142l-109 486l-110 -486h-144l-208 712h157l92 -356l34 -143l29 143l78 356h146l78 -356l29 -143z" />
    <glyph glyph-name="wacute" unicode="&#x1e83;" horiz-adv-x="777" 
d="M361 712h172l-125 -141h-94zM557 287l57 229h148l-153 -516h-134l-74 287l-12 68l-13 -68l-74 -287h-134l-153 516h148l57 -229l24 -130l24 130l58 229h125l58 -227l24 -132z" />
    <glyph glyph-name="Wdieresis" unicode="&#x1e84;" horiz-adv-x="971" 
d="M312 908h141v-128h-141v128zM523 908h141v-128h-141v128zM702 356l92 356h152l-208 -712h-142l-109 486l-110 -486h-144l-208 712h157l92 -356l34 -143l29 143l78 356h146l78 -356l29 -143z" />
    <glyph glyph-name="wdieresis" unicode="&#x1e85;" horiz-adv-x="777" 
d="M213 712h141v-128h-141v128zM424 712h141v-128h-141v128zM557 287l57 229h148l-153 -516h-134l-74 287l-12 68l-13 -68l-74 -287h-134l-153 516h148l57 -229l24 -130l24 130l58 229h125l58 -227l24 -132z" />
    <glyph glyph-name="uni1E9E" unicode="&#x1e9e;" horiz-adv-x="719" 
d="M654 607l-151.998 -182c59.333 -11.333 105.166 -35.166 137.499 -71.499s48.5 -81.5 48.5 -135.5c0 -70 -24 -125 -72 -165s-116.667 -60 -206 -60c-32 0 -65.333 3 -100 9v121c30.667 -5.33301 60.667 -8 90 -8c89.333 0 134 34 134 102c0 32 -11.833 56.667 -35.5 74
s-57.167 26 -100.5 26c-8.66699 0 -28.334 -0.666992 -59.001 -2v98l152 193c-32 3.33301 -67.333 5 -106 5c-61.333 0 -105.166 -13.5 -131.499 -40.5s-39.5 -67.5 -39.5 -121.5v-449h-149v448c0 93.333 27.5 164.666 82.5 213.999s133.5 74 235.5 74
c83.333 0 173.666 -6 270.999 -18v-111z" />
    <glyph glyph-name="Ygrave" unicode="&#x1ef2;" horiz-adv-x="656" 
d="M356 908l47 -141h-94l-125 141h172zM369 491l110 221h159l-236 -436v-276h-148v276l-236 436h163l108 -221l39 -99z" />
    <glyph glyph-name="ygrave" unicode="&#x1ef3;" horiz-adv-x="556" 
d="M309 712l47 -141h-94l-125 141h172zM281 151l109.999 365h150l-206 -608c-14 -42.667 -32.167 -72 -54.5 -88s-53.166 -24 -92.499 -24h-118v120h68c38 0 62.333 14.667 73 44l5 14l-201 542h155l95 -290z" />
    <glyph glyph-name="thinspace" unicode="&#x2009;" horiz-adv-x="261" 
 />
    <glyph glyph-name="uni2011" unicode="&#x2011;" horiz-adv-x="380" 
d="M330 222h-280v122h280v-122z" />
    <glyph glyph-name="endash" unicode="&#x2013;" horiz-adv-x="535" 
d="M485 222h-435v112h435v-112z" />
    <glyph glyph-name="emdash" unicode="&#x2014;" horiz-adv-x="829" 
d="M779 222h-729v112h729v-112z" />
    <glyph glyph-name="quoteleft" unicode="&#x2018;" horiz-adv-x="223" 
d="M193 403h-163v179c0 86.667 47.667 130 143 130h19v-64h-19c-44 0 -66 -22 -66 -66v-29h86v-150z" />
    <glyph glyph-name="quoteright" unicode="&#x2019;" horiz-adv-x="223" 
d="M50 403h-19v64h19c44 0 66 22 66 66v29h-86v150h163v-179c0 -86.667 -47.667 -130 -143 -130z" />
    <glyph glyph-name="quotesinglbase" unicode="&#x201a;" horiz-adv-x="283" 
d="M80 -159h-19v64h19c44 0 66 22 66 66v29h-86v150h163v-179c0 -86.667 -47.667 -130 -143 -130z" />
    <glyph glyph-name="quotedblleft" unicode="&#x201c;" horiz-adv-x="435" 
d="M193 403h-163v179c0 86.667 47.667 130 143 130h19v-64h-19c-44 0 -66 -22 -66 -66v-29h86v-150zM405 403h-163v179c0 86.667 47.667 130 143 130h19v-64h-19c-44 0 -66 -22 -66 -66v-29h86v-150z" />
    <glyph glyph-name="quotedblright" unicode="&#x201d;" horiz-adv-x="435" 
d="M50 403h-19v64h19c44 0 66 22 66 66v29h-86v150h163v-179c0 -86.667 -47.667 -130 -143 -130zM262 403h-19v64h19c44 0 66 22 66 66v29h-86v150h163v-179c0 -86.667 -47.667 -130 -143 -130z" />
    <glyph glyph-name="quotedblbase" unicode="&#x201e;" horiz-adv-x="495" 
d="M80 -159h-19v64h19c44 0 66 22 66 66v29h-86v150h163v-179c0 -86.667 -47.667 -130 -143 -130zM292 -159h-19v64h19c44 0 66 22 66 66v29h-86v150h163v-179c0 -86.667 -47.667 -130 -143 -130z" />
    <glyph glyph-name="dagger" unicode="&#x2020;" horiz-adv-x="613" 
d="M372 614l176 5v-125l-176 6v-605h-130v605l-177 -6v125l177 -5v236h130v-236z" />
    <glyph glyph-name="daggerdbl" unicode="&#x2021;" horiz-adv-x="613" 
d="M548 619v-125l-176 6v-250l176 5v-125l-176 6v-241h-130v241l-177 -6v125l177 -5v250l-177 -6v125l177 -5v236h130v-236z" />
    <glyph glyph-name="bullet" unicode="&#x2022;" horiz-adv-x="416" 
d="M351 157h-286v260h286v-260z" />
    <glyph glyph-name="ellipsis" unicode="&#x2026;" horiz-adv-x="855" 
d="M225 0h-165v150h165v-150zM510 0h-165v150h165v-150zM795 0h-165v150h165v-150z" />
    <glyph glyph-name="perthousand" unicode="&#x2030;" horiz-adv-x="1645" 
d="M390 336c-32 -40 -78.333 -60 -139 -60s-106.667 20 -138 60c-32 40 -48 96.333 -48 169c0 72 16 127.333 48 166s78 58 138 58s106 -19.333 138 -58s48 -94 48 -166s-15.667 -128.333 -47 -169zM415 -15h-108l448 742h106zM174 503c0 -90.667 25.667 -136 77 -136
s77 45.333 77 136c0 47.333 -6.16699 81.666 -18.5 102.999s-31.833 32 -58.5 32s-46.167 -10.667 -58.5 -32s-18.5 -55.666 -18.5 -102.999zM1058 44c-32 -40 -78.333 -60 -139 -60s-106.667 20 -138 60c-32 40 -48 96.333 -48 169c0 72 16 127.333 48 166s78 58 138 58
s106 -19.333 138 -58s48 -94 48 -166s-15.667 -128.333 -47 -169zM1533 44c-32 -40 -78.333 -60 -139 -60c-61.333 0 -107.333 20 -138 60c-32 40 -48 96.333 -48 169c0 72 16 127.333 48 166s78 58 138 58s106 -19.333 138 -58s48 -94 48 -166s-15.667 -128.333 -47 -169z
M842 211c0 -90.667 25.667 -136 77 -136s77 45.333 77 136c0 47.333 -6.16699 81.666 -18.5 102.999s-31.833 32 -58.5 32s-46.167 -10.667 -58.5 -32s-18.5 -55.666 -18.5 -102.999zM1317 211c0 -90.667 25.667 -136 77 -136s77 45.333 77 136
c0 47.333 -6.16699 81.666 -18.5 102.999s-31.833 32 -58.5 32s-46.167 -10.667 -58.5 -32s-18.5 -55.666 -18.5 -102.999z" />
    <glyph glyph-name="guilsinglleft" unicode="&#x2039;" horiz-adv-x="391" 
d="M331 155v-165l-271 208v118l271 208v-165l-141 -102z" />
    <glyph glyph-name="guilsinglright" unicode="&#x203a;" horiz-adv-x="390" 
d="M330 198l-270 -208v165l140 102l-140 102v165l270 -208v-118z" />
    <glyph glyph-name="uni203D" unicode="&#x203d;" horiz-adv-x="618" 
d="M301 728c90 0 159.499 -18.166 208.499 -54.499s73.5 -87.5 73.5 -153.5c0 -73.333 -33.333 -127.333 -100 -162l-43 -23c-30 -15.333 -52.167 -30.333 -66.5 -45s-23.166 -33.334 -26.499 -56.001h-91l-29 221v67h148v-67l-4 -32l8 5c20 11.333 34.167 23 42.5 35
s12.5 27.333 12.5 46c0 62.667 -44.667 94 -134 94c-46.667 0 -80.167 -8.66699 -100.5 -26s-31.166 -46.333 -32.499 -87h-139c2 76.667 26.167 135.5 72.5 176.5s113.166 61.5 200.499 61.5zM376.999 0.000976562h-152v150h152v-150z" />
    <glyph glyph-name="fraction" unicode="&#x2044;" horiz-adv-x="374" 
d="M18 -15h-108l448 742h106z" />
    <glyph glyph-name="zero.sups" unicode="&#x2070;" horiz-adv-x="426" 
d="M352 416c-32 -40 -78.333 -60 -139 -60s-106.667 20 -138 60c-32 40 -48 96.333 -48 169c0 72 16 127.333 48 166s78 58 138 58s106 -19.333 138 -58s48 -94 48 -166s-15.667 -128.333 -47 -169zM136 583c0 -90.667 25.667 -136 77 -136s77 45.333 77 136
c0 47.333 -6.16699 81.666 -18.5 102.999s-31.833 32 -58.5 32s-46.167 -10.667 -58.5 -32s-18.5 -55.666 -18.5 -102.999z" />
    <glyph glyph-name="four.sups" unicode="&#x2074;" horiz-adv-x="447" 
d="M340 372h-95v78l-215 -3v81l197 271h113v-265l69 3v-90l-69 3v-78zM243 680l-103 -144l105 -2v146h-2z" />
    <glyph glyph-name="five.sups" unicode="&#x2075;" horiz-adv-x="445" 
d="M219 356c-44.667 0 -81.999 10.001 -111.999 30.001s-49.333 47.333 -58 82l100 12c11.333 -27.333 35 -41 71 -41c24 0 42.333 5.66699 55 17s19 27.333 19 48c0 21.333 -6.5 37.833 -19.5 49.5s-30.833 17.5 -53.5 17.5c-26.667 0 -49.334 -9.33301 -68.001 -28l-96 12
l38 244h271v-86h-201l-15 -84l2 -1c27.333 16 58 24 92 24c44.667 0 81 -13 109 -39s42 -60.667 42 -104c0 -44.667 -16.167 -81.334 -48.5 -110.001s-74.833 -43 -127.5 -43z" />
    <glyph glyph-name="six.sups" unicode="&#x2076;" horiz-adv-x="461" 
d="M245 356c-62.667 0 -110.834 19.5 -144.501 58.5s-50.5 93.833 -50.5 164.5c0 74.667 16.167 131.5 48.5 170.5s79.833 58.5 142.5 58.5c42.667 0 78.334 -8.66699 107.001 -26s47 -40.333 55 -69l-101 -13c-10.667 20.667 -32 31 -64 31
c-56.667 0 -86.667 -40.667 -90 -122c26.667 34.667 65.667 52 117 52c46 0 83.167 -14 111.5 -42s42.5 -64 42.5 -108c0 -46 -16 -83.333 -48 -112s-74 -43 -126 -43zM241 438c24 0 42.833 7.16797 56.5 21.501s20.5 32.166 20.5 53.499s-7 38.5 -21 51.5
s-32.667 19.5 -56 19.5c-24 0 -43.167 -6.83301 -57.5 -20.5s-21.5 -31.167 -21.5 -52.5c0 -22 7.5 -39.667 22.5 -53s33.833 -20 56.5 -20z" />
    <glyph glyph-name="seven.sups" unicode="&#x2077;" horiz-adv-x="403" 
d="M214 372h-106c2.66699 114.667 51 227 145 337h-213v90h323v-83c-50 -54 -86.667 -107.667 -110 -161c-23.333 -52.667 -36.333 -113.667 -39 -183z" />
    <glyph glyph-name="eight.sups" unicode="&#x2078;" horiz-adv-x="473" 
d="M237 356c-60 0 -107 12.166 -141 36.499s-51 57.833 -51 100.5c0 27.333 7.66699 50.5 23 69.5s36.333 32.167 63 39.5v3c-18.667 7.33301 -34 19.333 -46 36s-18 34.667 -18 54c0 35.333 14.833 63 44.5 83s71.5 30 125.5 30c53.333 0 94.833 -10.167 124.5 -30.5
s44.5 -47.833 44.5 -82.5c0 -21.333 -6 -40.166 -18 -56.499s-27.333 -27.5 -46 -33.5v-3c26.667 -7.33301 47.667 -20.5 63 -39.5s23 -42.167 23 -69.5c0 -42.667 -16.833 -76.167 -50.5 -100.5s-80.5 -36.5 -140.5 -36.5zM184 645.999
c14 -9.33301 31.668 -14.0029 53.001 -14.0029s39 4.66699 53 14c13.333 9.33301 20.166 21.833 20.499 37.5s-6.16699 27.834 -19.5 36.501c-12.667 8.66699 -30.667 13 -54 13s-41.333 -4.33301 -54 -13c-13.333 -9.33301 -20 -21.666 -20 -36.999s7 -27.666 21 -36.999z
M172.001 448.996c16 -12 37.667 -17.999 65 -17.999s49 6 65 18c16 11.333 24 26.666 24 45.999c0 20 -7.83301 35.5 -23.5 46.5s-37.5 16.5 -65.5 16.5s-50 -5.5 -66 -16.5s-24 -26.5 -24 -46.5s8.33301 -35.333 25 -46z" />
    <glyph glyph-name="nine.sups" unicode="&#x2079;" horiz-adv-x="461" 
d="M220 356c-42.667 0 -78.334 8.66699 -107.001 26s-47 40.333 -55 69l101 13c10.667 -20.667 32 -31 64 -31c56.667 0 86.667 40.667 90 122c-26.667 -34.667 -65.667 -52 -117 -52c-46 0 -83.167 14 -111.5 42s-42.5 64 -42.5 108c0 46 16 83.333 48 112s74 43 126 43
c62.667 0 110.834 -19.5 144.501 -58.5s50.5 -93.833 50.5 -164.5c0 -74.667 -16.167 -131.5 -48.5 -170.5s-79.833 -58.5 -142.5 -58.5zM220 580c24 0 43.167 6.83203 57.5 20.499s21.5 31.167 21.5 52.5c0 22 -7.5 39.667 -22.5 53s-33.833 20 -56.5 20
c-24 0 -42.833 -7.16699 -56.5 -21.5s-20.5 -32.166 -20.5 -53.499s7 -38.5 21 -51.5s32.667 -19.5 56 -19.5z" />
    <glyph glyph-name="plus.sups" unicode="&#x207a;" horiz-adv-x="438" 
d="M255 593h144v-75h-144v-146h-75v146h-142v75h142v148h75v-148z" />
    <glyph glyph-name="minus.sups" unicode="&#x207b;" horiz-adv-x="436" 
d="M397 522h-359v74h359v-74z" />
    <glyph glyph-name="parenleft.sups" unicode="&#x207d;" horiz-adv-x="304" 
d="M266 237l-117 0.000976562c-58.667 91.333 -88 197 -88 317c0 118 29.333 221.667 88 311h117c-45.333 -98.667 -68 -203.334 -68 -314.001c0 -111.333 22.667 -216 68 -314z" />
    <glyph glyph-name="parenright.sups" unicode="&#x207e;" horiz-adv-x="304" 
d="M155 237l-117 -0.000976562c45.333 98.667 68 203.334 68 314.001c0 109.333 -22.667 214 -68 314h117c58.667 -89.333 88 -193 88 -311c0 -120 -29.333 -225.667 -88 -317z" />
    <glyph glyph-name="n.sups" unicode="&#x207f;" horiz-adv-x="481" 
d="M288 724c42 0 74.667 -10.333 98 -31s35 -50.667 35 -90v-231h-116v208c0 36.667 -19 55 -57 55c-21.333 0 -38.666 -6.16699 -51.999 -18.5s-20 -31.5 -20 -57.5v-187h-116v340h101l3 -48c29.333 40 70.666 60 123.999 60z" />
    <glyph glyph-name="zero.subs" unicode="&#x2080;" horiz-adv-x="426" 
d="M352 -131c-32 -40 -78.333 -60 -139 -60s-106.667 20 -138 60c-32 40 -48 96.333 -48 169c0 72 16 127.333 48 166s78 58 138 58s106 -19.333 138 -58s48 -94 48 -166s-15.667 -128.333 -47 -169zM136 36c0 -90.667 25.667 -136 77 -136s77 45.333 77 136
c0 47.333 -6.16699 81.666 -18.5 102.999s-31.833 32 -58.5 32s-46.167 -10.667 -58.5 -32s-18.5 -55.666 -18.5 -102.999z" />
    <glyph glyph-name="one.subs" unicode="&#x2081;" horiz-adv-x="296" 
d="M236 -175h-100v275h-106v75h30c24.667 0 44.667 6 60 18s23 28.667 23 50v9h93v-427z" />
    <glyph glyph-name="two.subs" unicode="&#x2082;" horiz-adv-x="433" 
d="M382 -175h-330.002c0 49.333 6.66699 88.333 20 117s36 52 68 70l97 54c30.667 16.667 46 36.334 46 59.001c0 16 -6 28.667 -18 38s-28.667 14 -50 14c-43.333 0 -66.333 -20 -69 -60h-96c0.666992 47.333 15.334 83.166 44.001 107.499s69.334 36.5 122.001 36.5
c51.333 0 92 -12.167 122 -36.5s45 -56.833 45 -97.5c0 -50.667 -27.667 -91 -83 -121l-100 -54c-19.333 -11.333 -30 -24.333 -32 -39h214v-88z" />
    <glyph glyph-name="three.subs" unicode="&#x2083;" horiz-adv-x="446" 
d="M352 -154c-30.667 -24.667 -73.332 -37 -127.999 -37c-53.333 0 -95.333 12.667 -126 38c-30.667 26 -47 62.333 -49 109h96c3.33301 -42 29.666 -63 78.999 -63s74 18 74 54c0 34.667 -26 52 -78 52h-35v83h38c43.333 0 65 15.333 65 46
c0 15.333 -6.16699 27.333 -18.5 36s-29.166 13 -50.499 13c-43.333 0 -67 -17.333 -71 -52h-96c2.66699 44 18.5 77.667 47.5 101s69.167 35 120.5 35s91.666 -11 120.999 -33s44 -51.333 44 -88c0 -48 -23.667 -78.667 -71 -92v-1c25.333 -6 45.833 -18.5 61.5 -37.5
s23.5 -41.5 23.5 -67.5c0 -38.667 -15.667 -70.667 -47 -96z" />
    <glyph glyph-name="four.subs" unicode="&#x2084;" horiz-adv-x="447" 
d="M340 -175h-95v78l-215 -3v81l197 271h113v-265l69 3v-90l-69 3v-78zM243 133l-103 -144l105 -2v146h-2z" />
    <glyph glyph-name="five.subs" unicode="&#x2085;" horiz-adv-x="445" 
d="M219 -191c-44.667 0 -81.999 10.001 -111.999 30.001s-49.333 47.333 -58 82l100 12c11.333 -27.333 35 -41 71 -41c24 0 42.333 5.66699 55 17s19 27.333 19 48c0 21.333 -6.5 37.833 -19.5 49.5s-30.833 17.5 -53.5 17.5c-26.667 0 -49.334 -9.33301 -68.001 -28
l-96 12l38 244h271v-86h-201l-15 -84l2 -1c27.333 16 58 24 92 24c44.667 0 81 -13 109 -39s42 -60.667 42 -104c0 -44.667 -16.167 -81.334 -48.5 -110.001s-74.833 -43 -127.5 -43z" />
    <glyph glyph-name="six.subs" unicode="&#x2086;" horiz-adv-x="461" 
d="M245 -191c-62.667 0 -110.834 19.5 -144.501 58.5s-50.5 93.833 -50.5 164.5c0 74.667 16.167 131.5 48.5 170.5s79.833 58.5 142.5 58.5c42.667 0 78.334 -8.66699 107.001 -26s47 -40.333 55 -69l-101 -13c-10.667 20.667 -32 31 -64 31
c-56.667 0 -86.667 -40.667 -90 -122c26.667 34.667 65.667 52 117 52c46 0 83.167 -14 111.5 -42s42.5 -64 42.5 -108c0 -46 -16 -83.333 -48 -112s-74 -43 -126 -43zM241 -109c24 0 42.833 7.16797 56.5 21.501s20.5 32.166 20.5 53.499s-7 38.5 -21 51.5
s-32.667 19.5 -56 19.5c-24 0 -43.167 -6.83301 -57.5 -20.5s-21.5 -31.167 -21.5 -52.5c0 -22 7.5 -39.667 22.5 -53s33.833 -20 56.5 -20z" />
    <glyph glyph-name="seven.subs" unicode="&#x2087;" horiz-adv-x="403" 
d="M214 -175h-106c2.66699 114.667 51 227 145 337h-213v90h323v-83c-50 -54 -86.667 -107.667 -110 -161s-36.333 -114.333 -39 -183z" />
    <glyph glyph-name="eight.subs" unicode="&#x2088;" horiz-adv-x="473" 
d="M237 -191c-60 0 -107 12.166 -141 36.499s-51 57.833 -51 100.5c0 27.333 7.66699 50.5 23 69.5s36.333 32.167 63 39.5v3c-18.667 7.33301 -34 19.333 -46 36s-18 34.667 -18 54c0 35.333 14.833 63 44.5 83s71.5 30 125.5 30c53.333 0 94.833 -10.167 124.5 -30.5
s44.5 -47.833 44.5 -82.5c0 -21.333 -6 -40.166 -18 -56.499s-27.333 -27.5 -46 -33.5v-3c26.667 -7.33301 47.667 -20.5 63 -39.5s23 -42.167 23 -69.5c0 -42.667 -16.833 -76.167 -50.5 -100.5s-80.5 -36.5 -140.5 -36.5zM184 98.999
c14 -9.33301 31.668 -14.002 53.001 -14.002s39 4.66699 53 14c13.333 9.33301 20.166 21.833 20.499 37.5s-6.16699 27.834 -19.5 36.501c-12.667 8.66699 -30.667 13 -54 13s-41.333 -4.33301 -54 -13c-13.333 -9.33301 -20 -21.666 -20 -36.999c0 -16 7 -28.333 21 -37z
M172.001 -99.0029c16.667 -11.333 38.332 -17 64.999 -17s48.334 5.66699 65.001 17c16 12 24 27.667 24 47c0 20 -7.83301 35.5 -23.5 46.5s-37.5 16.5 -65.5 16.5s-50 -5.5 -66 -16.5s-24 -26.5 -24 -46.5c0 -19.333 8.33301 -35 25 -47z" />
    <glyph glyph-name="nine.subs" unicode="&#x2089;" horiz-adv-x="461" 
d="M220 -191c-42.667 0 -78.334 8.66699 -107.001 26s-47 40.333 -55 69l101 13c10.667 -20.667 32 -31 64 -31c56.667 0 86.667 40.667 90 122c-26.667 -34.667 -65.667 -52 -117 -52c-46 0 -83.167 14 -111.5 42s-42.5 64 -42.5 108c0 46 16 83.333 48 112s74 43 126 43
c62.667 0 110.834 -19.5 144.501 -58.5s50.5 -93.833 50.5 -164.5c0 -74.667 -16.167 -131.5 -48.5 -170.5s-79.833 -58.5 -142.5 -58.5zM220 33c24 0 43.167 6.83203 57.5 20.499s21.5 31.167 21.5 52.5c0 22 -7.5 39.667 -22.5 53s-33.833 20 -56.5 20
c-24 0 -42.833 -7.16699 -56.5 -21.5s-20.5 -32.166 -20.5 -53.499s7 -38.5 21 -51.5s32.667 -19.5 56 -19.5z" />
    <glyph glyph-name="plus.subs" unicode="&#x208a;" horiz-adv-x="438" 
d="M255 76h144v-75h-144v-146h-75v146h-142v75h142v148h75v-148z" />
    <glyph glyph-name="minus.subs" unicode="&#x208b;" horiz-adv-x="436" 
d="M397 5h-359v74h359v-74z" />
    <glyph glyph-name="equal.subs" unicode="&#x208c;" horiz-adv-x="436" 
d="M397 90h-359v73h359v-73zM397 -86h-359v74h359v-74z" />
    <glyph glyph-name="uni208D" unicode="&#x208d;" horiz-adv-x="304" 
d="M266 -310l-117 0.000976562c-58.667 91.333 -88 197 -88 317c0 118 29.333 221.667 88 311h117c-45.333 -98.667 -68 -203.334 -68 -314.001c0 -111.333 22.667 -216 68 -314z" />
    <glyph glyph-name="uni208E" unicode="&#x208e;" horiz-adv-x="304" 
d="M155 -310l-117 -0.000976562c45.333 98.667 68 203.334 68 314.001c0 109.333 -22.667 214 -68 314h117c58.667 -89.333 88 -193 88 -311c0 -120 -29.333 -225.667 -88 -317z" />
    <glyph glyph-name="n.subs" unicode="&#x2099;" horiz-adv-x="481" 
d="M288 177c42 0 74.667 -10.333 98 -31s35 -50.667 35 -90v-231h-116v208c0 36.667 -19 55 -57 55c-21.333 0 -38.666 -6.16699 -51.999 -18.5s-20 -31.5 -20 -57.5v-187h-116v340h101l3 -48c29.333 40 70.666 60 123.999 60z" />
    <glyph glyph-name="Euro" unicode="&#x20ac;" 
d="M518 600c-94.667 0 -156 -32.668 -184 -98.001h306v-103h-328c-1.33301 -25.333 -2 -40.666 -2 -45.999c0 -20.667 0.333008 -33.667 1 -39h329v-103h-308c29.333 -66 91.333 -99 186 -99c40 0 80.667 6 122 18v-127c-46 -12.667 -91 -19 -135 -19
c-80 0 -148.167 20 -204.5 60s-95.833 95.667 -118.5 167h-122v103h102c-0.666992 6 -1 19 -1 39c0 4 0.666992 19.333 2 46h-103v103h123c23.333 72 63 127.667 119 167s123.667 59 203 59c44 0 89 -6.33301 135 -19v-127c-41.333 12 -82 18 -122 18z" />
    <glyph glyph-name="uni20B8" unicode="&#x20b8;" horiz-adv-x="615" 
d="M20 580v132h575v-132h-575zM234 360h-214v132h575v-132h-213v-360h-148v360z" />
    <glyph glyph-name="uni20B9" unicode="&#x20b9;" 
d="M640 712l0.00292969 -99.999h-188c13.333 -18.667 22 -40.334 26 -65.001h162v-100h-168c-16.667 -52 -58.334 -87 -125.001 -105c32 -6 57.167 -18.667 75.5 -38s32.833 -48 43.5 -86l61 -218h-155l-49 189c-8.66699 36 -21.334 60.667 -38.001 74
c-16.667 12.667 -44.334 19 -83.001 19h-142v100h168c56 0 90 21.667 102 65h-270v100h273c-8.66699 43.333 -37 65 -85 65h-188v100h580z" />
    <glyph glyph-name="uni20BA" unicode="&#x20ba;" 
d="M524 255l141 0.00195312c-8 -80.667 -38.5 -143.334 -91.5 -188.001s-123.5 -67 -211.5 -67h-190v160l-136 -71v126l136 71v90l-136 -71v126l136 71v210h148v-132l196 102v-126l-196 -102v-90l196 102v-126l-196 -102v-106h31c54 0 94.667 9.66699 122 29
s44.333 50.666 51 93.999z" />
    <glyph glyph-name="uni20BC" unicode="&#x20bc;" 
d="M419 712v-181c158.667 -6 238 -86.667 238 -242v-289h-138v296c0 38 -7.83301 66 -23.5 84s-41.167 28 -76.5 30v-309h-137v309c-35.333 -2 -60.833 -12 -76.5 -30s-23.5 -46 -23.5 -84v-296h-138v289c0 155.333 79.333 236 238 242v181h137z" />
    <glyph glyph-name="uni20BF" unicode="&#x20bf;" 
d="M638 209c0 -49.333 -13.833 -92 -41.5 -128s-66.5 -60 -116.5 -72v-153h-110v144h-85v-144h-110v144h-83v712h83v135h110v-135h85v135h110v-144c42.667 -10.667 76 -30.334 100 -59.001s36 -64 36 -106c0 -38 -10 -70 -30 -96s-48.667 -44.333 -86 -55
c92 -23.333 138 -82.666 138 -177.999zM377 592h-147v-155h141c33.333 0 58.333 7 75 21s25 33.333 25 58c0 50.667 -31.333 76 -94 76zM230 125h149.001c37.333 0 65.666 8.66699 84.999 26s29 41.333 29 72c0 30 -9.33301 53.167 -28 69.5s-45 24.5 -79 24.5h-156v-192z
" />
    <glyph glyph-name="uni2105" unicode="&#x2105;" horiz-adv-x="1134" 
d="M394 -15h-108l448 742h106zM256 361c-56.667 0 -102.669 16.168 -138.002 48.501s-53 76.166 -53 131.499c0 56 17 100.667 51 134s79.333 50 136 50c48.667 0 89.667 -11.833 123 -35.5s53.333 -55.167 60 -94.5l-117 -13c-5.33301 38 -26.333 57 -63 57
c-44.667 0 -67 -32 -67 -96s22.333 -96 67 -96c36.667 0 57.334 22 62.001 66l117 -13c-6.66699 -42.667 -25.667 -76.5 -57 -101.5s-71.666 -37.5 -120.999 -37.5zM868.998 -15.999c-63.333 0 -112.666 16 -147.999 48s-53 76.333 -53 133s17.667 100.834 53 132.501
s84.666 47.5 147.999 47.5c62.667 0 111.667 -15.833 147 -47.5s53 -75.834 53 -132.501c0 -57.333 -17.667 -101.833 -53 -133.5s-84.333 -47.5 -147 -47.5zM807.998 95.001c14.667 -16.667 35 -24.999 61 -24.999s46.333 8.33301 61 25c14 17.333 21 40.666 21 69.999
s-7.16699 52.333 -21.5 69s-34.5 25 -60.5 25s-46.333 -8.33301 -61 -25s-22 -39.667 -22 -69c0 -30 7.33301 -53.333 22 -70z" />
    <glyph glyph-name="uni2113" unicode="&#x2113;" horiz-adv-x="532" 
d="M314 99c30.667 0 62.335 14.332 95.002 42.999l64 -89c-50.667 -47.333 -108.667 -71 -174 -71c-48.667 0 -88.667 13.5 -120 40.5s-47 63.167 -47 108.5v44l-72 -33l-45 105l117 47v271c0 51.333 15.167 91.333 45.5 120s73.166 43 128.499 43
c60 0 106.167 -16.667 138.5 -50s48.5 -80.333 48.5 -141c0 -79.333 -17.833 -143.166 -53.5 -191.499s-94.834 -87.5 -177.501 -117.5v-72c0 -18 4.66699 -32 14 -42s22 -15 38 -15zM308.001 615.999c-14 0 -25.167 -4.33203 -33.5 -12.999s-12.5 -20.334 -12.5 -35.001
v-212c38 23.333 64.333 46.833 79 70.5s22 54.5 22 92.5c0 64.667 -18.333 97 -55 97z" />
    <glyph glyph-name="uni2116" unicode="&#x2116;" horiz-adv-x="1170" 
d="M939 725c62.667 0 111.667 -15.833 147 -47.5s53 -75.834 53 -132.501c0 -57.333 -17.667 -101.833 -53 -133.5s-84.333 -47.5 -147 -47.5c-63.333 0 -112.666 16 -147.999 48s-53 76.333 -53 133s17.667 100.834 53 132.501s84.666 47.5 147.999 47.5zM210 712l282 -457
v457h148v-712h-145l-282 457v-457h-148v712h145zM878 475c14.667 -16.667 35 -25 61 -25s46.333 8.33301 61 25c14 16.667 21 40 21 70c0 29.333 -7.16699 52.333 -21.5 69s-34.5 25 -60.5 25s-46.333 -8.33301 -61 -25s-22 -39.667 -22 -69c0 -30 7.33301 -53.333 22 -70z
" />
    <glyph glyph-name="uni2117" unicode="&#x2117;" horiz-adv-x="822" 
d="M141 624c71.333 70 161.334 105 270.001 105s198.667 -35 270 -105c70.667 -70 106 -159.333 106 -268c0 -107.333 -35.333 -196 -106 -266c-70.667 -70.667 -160.667 -106 -270 -106c-108.667 0 -198.334 35.333 -269.001 106c-71.333 70 -107 158.667 -107 266
c0 108.667 35.333 198 106 268zM411.001 74c82 0 149 26.668 201 80.001s78 120.666 78 201.999c0 82.667 -26 150.334 -78 203.001c-52.667 52.667 -119.667 79 -201 79s-148 -26.333 -200 -79c-52.667 -52.667 -79 -120.334 -79 -203.001c0 -82 26.333 -149.333 79 -202
c52 -53.333 118.667 -80 200 -80zM286.001 547.001l158 -0.000976562c41.333 0 74 -12.167 98 -36.5s36 -56.833 36 -97.5c0 -41.333 -12.667 -74.166 -38 -98.499s-59 -36.5 -101 -36.5h-53v-108h-100v377zM386.001 363h39c35.333 0 53 16.667 53 50
c0 32.667 -17 49 -51 49h-41v-99z" />
    <glyph glyph-name="trademark" unicode="&#x2122;" horiz-adv-x="1000" 
d="M265 330h-110v287h-122v95h353v-95h-121v-287zM541 330h-100v382h182l65 -296h8l61 296h183v-382h-100v296h-8l-61 -296h-158l-64 296h-8v-296z" />
    <glyph glyph-name="uni2126" unicode="&#x2126;" horiz-adv-x="752" 
d="M340 0l-305 0.000976562v120h134v2c-88 64 -132 154.333 -132 271c0 99.333 31 180.333 93 243c61.333 62 143 93 245 93c103.333 0 185.333 -31 246 -93c61.333 -63.333 92 -144.333 92 -243c0 -118 -43.333 -208.333 -130 -271v-2h134v-120h-304v113
c101.333 51.333 152 139.666 152 264.999c0 72.667 -16.833 128 -50.5 166s-80.167 57 -139.5 57c-58.667 0 -105 -19 -139 -57s-51 -93.333 -51 -166c0 -124.667 51.667 -213 155 -265v-113z" />
    <glyph glyph-name="estimated" unicode="&#x212e;" horiz-adv-x="911" 
d="M161 623c72.667 70 171 105 295 105c123.333 0 221.666 -36.667 294.999 -110c72.667 -73.333 109 -164 109 -272h-646c-9.33301 0 -14 -4.33301 -14 -13v-176c0 -21.333 5.33301 -37 16 -47c65.333 -64 145.333 -96 240 -96c49.333 0 96.5 10.5 141.5 31.5
s81.833 48.833 110.5 83.5h73c-29.333 -41.333 -72.166 -75.333 -128.499 -102s-121.833 -40 -196.5 -40c-121.333 0 -219.333 34.667 -294 104c-74.667 68.667 -112 157 -112 265c0 106.667 37 195.667 111 267zM456 700c-94.667 0 -174.667 -32.667 -240 -98
c-10.667 -10 -16 -24.667 -16 -44v-176c0 -8.66699 4.66699 -13 14 -13h481c9.33301 0 14 4.33301 14 13v176c0 19.333 -5.33301 34 -16 44c-66.667 65.333 -145.667 98 -237 98z" />
    <glyph glyph-name="uni2153" unicode="&#x2153;" horiz-adv-x="1078" 
d="M320 -15h-108l448 742h106zM271 292h-100v275h-106v75h30c24.667 0 44.667 6 60 18s23 28.667 23 50v9h93v-427zM966 21c-30.667 -24.667 -73.332 -37 -127.999 -37c-54 0 -96 13 -126 39c-30.667 24.667 -47 60.667 -49 108h96c3.33301 -42 29.666 -63 78.999 -63
s74 18 74 54c0 34.667 -26 52 -78 52h-35v83h38c43.333 0 65 15.333 65 46c0 15.333 -6.16699 27.333 -18.5 36s-29.166 13 -50.499 13c-43.333 0 -67 -17.333 -71 -52h-96c2.66699 44 18.5 77.667 47.5 101s69.167 35 120.5 35s91.666 -11 120.999 -33s44 -51.333 44 -88
c0 -48 -23.667 -78.667 -71 -92v-1c25.333 -6 45.833 -18.5 61.5 -37.5s23.5 -41.5 23.5 -67.5c0 -38.667 -15.667 -70.667 -47 -96z" />
    <glyph glyph-name="uni2154" unicode="&#x2154;" horiz-adv-x="1206" 
d="M397 292h-330.002c0 49.333 6.66699 88.333 20 117s36 52 68 70l97 54c30.667 16.667 46 36.334 46 59.001c0 16 -6 28.667 -18 38s-28.667 14 -50 14c-42.667 0 -65.667 -20 -69 -60h-96c0.666992 47.333 15.334 83.166 44.001 107.499s69.334 36.5 122.001 36.5
c51.333 0 92 -12.167 122 -36.5s45 -56.833 45 -97.5c0 -50.667 -27.667 -91 -83 -121l-100 -54c-19.333 -11.333 -30 -24.333 -32 -39h214v-88zM447.998 -15h-108l448 742h106zM1094 21c-30.667 -24.667 -73.332 -37 -127.999 -37c-54 0 -96 13 -126 39
c-30.667 24.667 -47 60.667 -49 108h96c3.33301 -42 29.666 -63 78.999 -63s74 18 74 54c0 34.667 -26 52 -78 52h-35v83h38c43.333 0 65 15.333 65 46c0 15.333 -6.16699 27.333 -18.5 36s-29.166 13 -50.499 13c-43.333 0 -67 -17.333 -71 -52h-96
c2.66699 44 18.5 77.667 47.5 101s69.167 35 120.5 35s91.666 -11 120.999 -33s44 -51.333 44 -88c0 -48 -23.667 -78.667 -71 -92v-1c25.333 -6 45.833 -18.5 61.5 -37.5s23.5 -41.5 23.5 -67.5c0 -38.667 -15.667 -70.667 -47 -96z" />
    <glyph glyph-name="uni2155" unicode="&#x2155;" horiz-adv-x="1100" 
d="M320 -15h-108l448 742h106zM271 292h-100v275h-106v75h30c24.667 0 44.667 6 60 18s23 28.667 23 50v9h93v-427zM859 -16c-44.667 0 -82 10.001 -112 30.001s-49.333 47.333 -58 82l100 12c11.333 -27.333 35 -41 71 -41c24 0 42.333 5.66699 55 17s19 27.333 19 48
c0 21.333 -6.5 37.833 -19.5 49.5s-30.833 17.5 -53.5 17.5c-26.667 0 -49.334 -9.33301 -68.001 -28l-96 12l38 244h271v-86h-201l-15 -84l2 -1c26.667 16 57.334 24 92.001 24c44.667 0 81 -13 109 -39s42 -60.667 42 -104c0 -44.667 -16.167 -81.334 -48.5 -110.001
s-74.833 -43 -127.5 -43z" />
    <glyph glyph-name="uni2156" unicode="&#x2156;" horiz-adv-x="1222" 
d="M397 292h-330.002c0 49.333 6.66699 88.333 20 117s36 52 68 70l97 54c30.667 16.667 46 36.334 46 59.001c0 16 -6 28.667 -18 38s-28.667 14 -50 14c-42.667 0 -65.667 -20 -69 -60h-96c0.666992 47.333 15.334 83.166 44.001 107.499s69.334 36.5 122.001 36.5
c51.333 0 92 -12.167 122 -36.5s45 -56.833 45 -97.5c0 -50.667 -27.667 -91 -83 -121l-100 -54c-19.333 -11.333 -30 -24.333 -32 -39h214v-88zM441.998 -15h-108l448 742h106zM980.998 -16c-44.667 0 -82 10.001 -112 30.001s-49.333 47.333 -58 82l100 12
c11.333 -27.333 35 -41 71 -41c24 0 42.333 5.66699 55 17s19 27.333 19 48c0 21.333 -6.5 37.833 -19.5 49.5s-30.833 17.5 -53.5 17.5c-26.667 0 -49.334 -9.33301 -68.001 -28l-96 12l38 244h271v-86h-201l-15 -84l2 -1c26.667 16 57.334 24 92.001 24
c44.667 0 81 -13 109 -39s42 -60.667 42 -104c0 -44.667 -16.167 -81.334 -48.5 -110.001s-74.833 -43 -127.5 -43z" />
    <glyph glyph-name="uni2157" unicode="&#x2157;" horiz-adv-x="1203" 
d="M368 313c-30.667 -24.667 -73.332 -37 -127.999 -37c-54 0 -96 13 -126 39c-30.667 24.667 -47 60.667 -49 108h96c3.33301 -42 29.666 -63 78.999 -63s74 18 74 54c0 34.667 -26 52 -78 52h-35v83h38c43.333 0 65 15.333 65 46c0 15.333 -6.16699 27.333 -18.5 36
s-29.166 13 -50.499 13c-43.333 0 -67 -17.333 -71 -52h-96c2.66699 44 18.5 77.667 47.5 101s69.167 35 120.5 35s91.666 -11 120.999 -33s44 -51.333 44 -88c0 -48 -23.667 -78.667 -71 -92v-1c25.333 -6 45.833 -18.5 61.5 -37.5s23.5 -41.5 23.5 -67.5
c0 -38.667 -15.667 -70.667 -47 -96zM423.002 -15h-108l448 742h106zM962.002 -16c-44.667 0 -81.999 10.001 -111.999 30.001s-49.333 47.333 -58 82l100 12c11.333 -27.333 35 -41 71 -41c24 0 42.333 5.66699 55 17s19 27.333 19 48c0 21.333 -6.5 37.833 -19.5 49.5
s-30.833 17.5 -53.5 17.5c-26.667 0 -49.334 -9.33301 -68.001 -28l-96 12l38 244h271v-86h-201l-15 -84l2 -1c27.333 16 58 24 92 24c44.667 0 81 -13 109 -39s42 -60.667 42 -104c0 -44.667 -16.167 -81.334 -48.5 -110.001s-74.833 -43 -127.5 -43z" />
    <glyph glyph-name="uni2158" unicode="&#x2158;" horiz-adv-x="1247" 
d="M467 -15h-108l448 742h106zM375 292h-95v78l-215 -3v81l197 271h113v-265l69 3v-90l-69 3v-78zM278 600l-103 -144l105 -2v146h-2zM1006 -16c-44.667 0 -81.999 10.001 -111.999 30.001s-49.333 47.333 -58 82l100 12c11.333 -27.333 35 -41 71 -41
c24 0 42.333 5.66699 55 17s19 27.333 19 48c0 21.333 -6.5 37.833 -19.5 49.5s-30.833 17.5 -53.5 17.5c-26.667 0 -49.334 -9.33301 -68.001 -28l-96 12l38 244h271v-86h-201l-15 -84l2 -1c27.333 16 58 24 92 24c44.667 0 81 -13 109 -39s42 -60.667 42 -104
c0 -44.667 -16.167 -81.334 -48.5 -110.001s-74.833 -43 -127.5 -43z" />
    <glyph glyph-name="uni2159" unicode="&#x2159;" horiz-adv-x="1079" 
d="M320 -15h-108l448 742h106zM271 292h-100v275h-106v75h30c24.667 0 44.667 6 60 18s23 28.667 23 50v9h93v-427zM840 -16c-62.667 0 -110.834 19.5 -144.501 58.5s-50.5 93.833 -50.5 164.5c0 74.667 16.167 131.5 48.5 170.5s79.833 58.5 142.5 58.5
c42.667 0 78.334 -8.66699 107.001 -26s47 -40.333 55 -69l-101 -13c-10.667 20.667 -32 31 -64 31c-56.667 0 -86.667 -40.667 -90 -122c26.667 34.667 65.667 52 117 52c46 0 83.167 -14 111.5 -42s42.5 -64 42.5 -108c0 -46 -16 -83.333 -48 -112s-74 -43 -126 -43z
M836 66c24 0 42.833 7.16797 56.5 21.501s20.5 32.166 20.5 53.499s-7 38.5 -21 51.5s-32.667 19.5 -56 19.5c-24 0 -43.167 -6.83301 -57.5 -20.5s-21.5 -31.167 -21.5 -52.5c0 -22 7.5 -39.667 22.5 -53s33.833 -20 56.5 -20z" />
    <glyph glyph-name="uni215A" unicode="&#x215a;" horiz-adv-x="1171" 
d="M412 -15h-108l448 742h106zM235 276c-44.667 0 -82 10.001 -112 30.001s-49.333 47.333 -58 82l100 12c11.333 -27.333 35 -41 71 -41c24 0 42.333 5.66699 55 17s19 27.333 19 48c0 21.333 -6.5 37.833 -19.5 49.5s-30.833 17.5 -53.5 17.5
c-26.667 0 -49.334 -9.33301 -68.001 -28l-96 12l38 244h271v-86h-201l-15 -84l2 -1c26.667 16 57.334 24 92.001 24c44.667 0 81 -13 109 -39s42 -60.667 42 -104c0 -44.667 -16.167 -81.334 -48.5 -110.001s-74.833 -43 -127.5 -43zM932 -15.999
c-62.667 0 -110.834 19.5 -144.501 58.5s-50.5 93.833 -50.5 164.5c0 74.667 16.167 131.5 48.5 170.5s79.833 58.5 142.5 58.5c42.667 0 78.334 -8.66699 107.001 -26s47 -40.333 55 -69l-101 -13c-10.667 20.667 -32 31 -64 31c-56.667 0 -86.667 -40.667 -90 -122
c26.667 34.667 65.667 52 117 52c46 0 83.167 -14 111.5 -42s42.5 -64 42.5 -108c0 -46 -16 -83.333 -48 -112s-74 -43 -126 -43zM928 66.001c24 0 42.833 7.16797 56.5 21.501s20.5 32.166 20.5 53.499s-7 38.5 -21 51.5s-32.667 19.5 -56 19.5
c-24 0 -43.167 -6.83301 -57.5 -20.5s-21.5 -31.167 -21.5 -52.5c0 -22 7.5 -39.667 22.5 -53s33.833 -20 56.5 -20z" />
    <glyph glyph-name="oneeighth" unicode="&#x215b;" horiz-adv-x="1100" 
d="M320 -15h-108l448 742h106zM271 292h-100v275h-106v75h30c24.667 0 44.667 6 60 18s23 28.667 23 50v9h93v-427zM844 -16c-60 0 -107 12.166 -141 36.499s-51 57.833 -51 100.5c0 27.333 7.66699 50.5 23 69.5s36.333 32.167 63 39.5v3
c-18.667 7.33301 -34 19.333 -46 36s-18 34.667 -18 54c0 35.333 14.833 63 44.5 83s71.5 30 125.5 30c53.333 0 94.833 -10.167 124.5 -30.5s44.5 -47.833 44.5 -82.5c0 -21.333 -6 -40.166 -18 -56.499s-27.333 -27.5 -46 -33.5v-3c26.667 -7.33301 47.667 -20.5 63 -39.5
s23 -42.167 23 -69.5c0 -42.667 -16.833 -76.167 -50.5 -100.5s-80.5 -36.5 -140.5 -36.5zM791 273.999c14 -9.33301 31.668 -14.0029 53.001 -14.0029s39 4.66699 53 14c13.333 9.33301 20.166 21.833 20.499 37.5s-6.16699 27.834 -19.5 36.501
c-12.667 8.66699 -30.667 13 -54 13s-41.333 -4.33301 -54 -13c-13.333 -9.33301 -20 -21.666 -20 -36.999s7 -27.666 21 -36.999zM779.001 76.9961c16 -12 37.667 -17.999 65 -17.999s49 6 65 18c16 11.333 24 26.666 24 45.999c0 20 -7.83301 35.5 -23.5 46.5
s-37.5 16.5 -65.5 16.5s-50 -5.5 -66 -16.5s-24 -26.5 -24 -46.5s8.33301 -35.333 25 -46z" />
    <glyph glyph-name="threeeighths" unicode="&#x215c;" horiz-adv-x="1203" 
d="M368 313c-30.667 -24.667 -73.332 -37 -127.999 -37c-54 0 -96 13 -126 39c-30.667 24.667 -47 60.667 -49 108h96c3.33301 -42 29.666 -63 78.999 -63s74 18 74 54c0 34.667 -26 52 -78 52h-35v83h38c43.333 0 65 15.333 65 46c0 15.333 -6.16699 27.333 -18.5 36
s-29.166 13 -50.499 13c-43.333 0 -67 -17.333 -71 -52h-96c2.66699 44 18.5 77.667 47.5 101s69.167 35 120.5 35s91.666 -11 120.999 -33s44 -51.333 44 -88c0 -48 -23.667 -78.667 -71 -92v-1c25.333 -6 45.833 -18.5 61.5 -37.5s23.5 -41.5 23.5 -67.5
c0 -38.667 -15.667 -70.667 -47 -96zM423.002 -15h-108l448 742h106zM947.002 -16c-60 0 -107 12.166 -141 36.499s-51 57.833 -51 100.5c0 27.333 7.66699 50.5 23 69.5s36.333 32.167 63 39.5v3c-18.667 7.33301 -34 19.333 -46 36s-18 34.667 -18 54
c0 35.333 14.833 63 44.5 83s71.5 30 125.5 30c53.333 0 94.833 -10.167 124.5 -30.5s44.5 -47.833 44.5 -82.5c0 -21.333 -6 -40.166 -18 -56.499s-27.333 -27.5 -46 -33.5v-3c26.667 -7.33301 47.667 -20.5 63 -39.5s23 -42.167 23 -69.5
c0 -42.667 -16.833 -76.167 -50.5 -100.5s-80.5 -36.5 -140.5 -36.5zM894.002 273.999c14 -9.33301 31.668 -14.0029 53.001 -14.0029s39 4.66699 53 14c13.333 9.33301 20.166 21.833 20.499 37.5s-6.16699 27.834 -19.5 36.501c-12.667 8.66699 -30.667 13 -54 13
s-41.333 -4.33301 -54 -13c-13.333 -9.33301 -20 -21.666 -20 -36.999s7 -27.666 21 -36.999zM882.003 76.9961c16 -12 37.667 -17.999 65 -17.999s49 6 65 18c16 11.333 24 26.666 24 45.999c0 20 -7.83301 35.5 -23.5 46.5s-37.5 16.5 -65.5 16.5s-50 -5.5 -66 -16.5
s-24 -26.5 -24 -46.5s8.33301 -35.333 25 -46z" />
    <glyph glyph-name="fiveeighths" unicode="&#x215d;" horiz-adv-x="1192" 
d="M412 -15h-108l448 742h106zM235 276c-44.667 0 -82 10.001 -112 30.001s-49.333 47.333 -58 82l100 12c11.333 -27.333 35 -41 71 -41c24 0 42.333 5.66699 55 17s19 27.333 19 48c0 21.333 -6.5 37.833 -19.5 49.5s-30.833 17.5 -53.5 17.5
c-26.667 0 -49.334 -9.33301 -68.001 -28l-96 12l38 244h271v-86h-201l-15 -84l2 -1c26.667 16 57.334 24 92.001 24c44.667 0 81 -13 109 -39s42 -60.667 42 -104c0 -44.667 -16.167 -81.334 -48.5 -110.001s-74.833 -43 -127.5 -43zM936 -15.999
c-60 0 -107 12.166 -141 36.499s-51 57.833 -51 100.5c0 27.333 7.66699 50.5 23 69.5s36.333 32.167 63 39.5v3c-18.667 7.33301 -34 19.333 -46 36s-18 34.667 -18 54c0 35.333 14.833 63 44.5 83s71.5 30 125.5 30c53.333 0 94.833 -10.167 124.5 -30.5
s44.5 -47.833 44.5 -82.5c0 -21.333 -6 -40.166 -18 -56.499s-27.333 -27.5 -46 -33.5v-3c26.667 -7.33301 47.667 -20.5 63 -39.5s23 -42.167 23 -69.5c0 -42.667 -16.833 -76.167 -50.5 -100.5s-80.5 -36.5 -140.5 -36.5zM883 274
c14 -9.33301 31.668 -14.0029 53.001 -14.0029s39 4.66699 53 14c13.333 9.33301 20.166 21.833 20.499 37.5s-6.16699 27.834 -19.5 36.501c-12.667 8.66699 -30.667 13 -54 13s-41.333 -4.33301 -54 -13c-13.333 -9.33301 -20 -21.666 -20 -36.999s7 -27.666 21 -36.999z
M871.001 76.9971c16 -12 37.667 -17.999 65 -17.999s49 6 65 18c16 11.333 24 26.666 24 45.999c0 20 -7.83301 35.5 -23.5 46.5s-37.5 16.5 -65.5 16.5s-50 -5.5 -66 -16.5s-24 -26.5 -24 -46.5s8.33301 -35.333 25 -46z" />
    <glyph glyph-name="seveneighths" unicode="&#x215e;" horiz-adv-x="1087" 
d="M307 -15h-108l448 742h106zM239 292h-106c2.66699 114.667 51 227 145 337h-213v90h323v-83c-50 -54 -86.667 -107.667 -110 -161c-22.667 -52.667 -35.667 -113.667 -39 -183zM831 -16c-60 0 -107 12.166 -141 36.499s-51 57.833 -51 100.5
c0 27.333 7.66699 50.5 23 69.5s36.333 32.167 63 39.5v3c-18.667 7.33301 -34 19.333 -46 36s-18 34.667 -18 54c0 35.333 14.833 63 44.5 83s71.5 30 125.5 30c53.333 0 94.833 -10.167 124.5 -30.5s44.5 -47.833 44.5 -82.5c0 -21.333 -6 -40.166 -18 -56.499
s-27.333 -27.5 -46 -33.5v-3c26.667 -7.33301 47.667 -20.5 63 -39.5s23 -42.167 23 -69.5c0 -42.667 -16.833 -76.167 -50.5 -100.5s-80.5 -36.5 -140.5 -36.5zM778 273.999c14 -9.33301 31.668 -14.0029 53.001 -14.0029s39 4.66699 53 14
c13.333 9.33301 20.166 21.833 20.499 37.5s-6.16699 27.834 -19.5 36.501c-12.667 8.66699 -30.667 13 -54 13s-41.333 -4.33301 -54 -13c-13.333 -9.33301 -20 -21.666 -20 -36.999s7 -27.666 21 -36.999zM766.001 76.9961c16 -12 37.667 -17.999 65 -17.999s49 6 65 18
c16 11.333 24 26.666 24 45.999c0 20 -7.83301 35.5 -23.5 46.5s-37.5 16.5 -65.5 16.5s-50 -5.5 -66 -16.5s-24 -26.5 -24 -46.5s8.33301 -35.333 25 -46z" />
    <glyph glyph-name="arrowleft" unicode="&#x2190;" horiz-adv-x="799" 
d="M235 423h529v-135h-527l98 -123l124 -165h-155l-269 356l269 356h155l-124 -164z" />
    <glyph glyph-name="arrowup" unicode="&#x2191;" horiz-adv-x="793" 
d="M40 460l356 269l357 -269v-155l-165 124l-122 97v-526h-141v525l-120 -96l-165 -124v155z" />
    <glyph glyph-name="arrowright" unicode="&#x2192;" horiz-adv-x="799" 
d="M340 712h155l269 -356l-269 -356h-155l124 165l98 123h-527v135h529l-100 125z" />
    <glyph glyph-name="arrowdown" unicode="&#x2193;" horiz-adv-x="793" 
d="M466 186l122 97l165 124v-155l-357 -269l-356 269v155l165 -124l120 -96v525h141v-526z" />
    <glyph glyph-name="arrowboth" unicode="&#x2194;" horiz-adv-x="1177" 
d="M718 712h155l269 -356l-269 -356h-155l124 165l98 123h-703l98 -123l124 -165h-155l-269 356l269 356h155l-124 -164l-100 -125h707l-100 125z" />
    <glyph glyph-name="arrowupdn" unicode="&#x2195;" horiz-adv-x="792" 
d="M752 486l-164 124l-125 100v-708l125 100l164 124v-155l-356 -269l-356 269v155l165 -124l123 -98v704l-123 -98l-165 -124v155l356 269l356 -269v-155z" />
    <glyph glyph-name="uni2196" unicode="&#x2196;" horiz-adv-x="741" 
d="M262 540l459 -443l-100 -97l-453 445l7 -178v-218h-135v619h631v-135h-230z" />
    <glyph glyph-name="uni2197" unicode="&#x2197;" horiz-adv-x="741" 
d="M70 533v135h631v-619h-135v218l7 178l-453 -445l-100 97l459 443l-179 -7h-230z" />
    <glyph glyph-name="uni2198" unicode="&#x2198;" horiz-adv-x="741" 
d="M566 401v218h135v-619h-631v135h230l179 -7l-459 443l100 97l453 -445z" />
    <glyph glyph-name="uni2199" unicode="&#x2199;" horiz-adv-x="741" 
d="M721 571l-459 -443l179 7h230v-135h-631v619h135v-218l-7 -178l453 445z" />
    <glyph glyph-name="partialdiff" unicode="&#x2202;" horiz-adv-x="592" 
d="M268 721c98 0 170.667 -29.501 218 -88.501s71 -150.5 71 -274.5c0 -246.667 -91.667 -370 -275 -370c-76.667 0 -137 21 -181 63s-66 100.667 -66 176c0 73.333 20.5 131 61.5 173s96.833 63 167.5 63c60.667 0 111 -17 151 -51c-6 66.667 -21.667 114.834 -47 144.501
s-62.333 44.5 -111 44.5c-34.667 0 -80 -9.66699 -136 -29l-40 113c68.667 24 131 36 187 36zM286 107.999c72.667 0 114.997 49.668 126.997 149.001c-13.333 26.667 -31.666 47.667 -54.999 63s-48.666 23 -75.999 23c-31.333 0 -56.666 -10.333 -75.999 -31
s-29 -49.667 -29 -87c0 -36.667 9.33301 -65.334 28 -86.001s45.667 -31 81 -31z" />
    <glyph glyph-name="uni2206" unicode="&#x2206;" horiz-adv-x="719" 
d="M277 712h171l246 -712h-669zM299 358l-77 -236h274l-76 236l-60 205z" />
    <glyph glyph-name="product" unicode="&#x220f;" horiz-adv-x="704" 
d="M65 712h574v-916h-148v784h-278v-784h-148v916z" />
    <glyph glyph-name="summation" unicode="&#x2211;" horiz-adv-x="659" 
d="M48 712h576v-126h-391l274 -327l-280 -337h384v-126h-576v113l295 356l-282 334v113z" />
    <glyph glyph-name="minus" unicode="&#x2212;" 
d="M620 247h-540v120h540v-120z" />
    <glyph glyph-name="uni2215" unicode="&#x2215;" horiz-adv-x="374" 
d="M18 -15h-108l448 742h106z" />
    <glyph glyph-name="uni2219" unicode="&#x2219;" horiz-adv-x="406" 
d="M346 157h-286v260h286v-260z" />
    <glyph glyph-name="radical" unicode="&#x221a;" 
d="M491 -204h-181l-102 287l-114 -45l-44 120l241 90l100 -303l164 802h134z" />
    <glyph glyph-name="infinity" unicode="&#x221e;" horiz-adv-x="794" 
d="M211 158c-54.667 0 -98 16.5 -130 49.5s-48 78.5 -48 136.5s16 103.5 48 136.5s75.333 49.5 130 49.5c36 0 68 -8.16699 96 -24.5s58.333 -43.833 91 -82.5c32.667 38.667 63 66.167 91 82.5s60 24.5 96 24.5c54.667 0 98 -16.5 130 -49.5s48 -78.5 48 -136.5
s-16 -103.5 -48 -136.5s-75.333 -49.5 -130 -49.5c-36 0 -68 8.16699 -96 24.5s-58.333 43.833 -91 82.5c-32.667 -38.667 -63 -66.167 -91 -82.5s-60 -24.5 -96 -24.5zM582 267c22 0 39.333 6.83301 52 20.5s19 32.5 19 56.5c0 25.333 -6.33301 45 -19 59s-30 21 -52 21
c-34 0 -70.667 -26.667 -110 -80c37.333 -51.333 74 -77 110 -77zM214 264c34 0 70.667 26.667 110 80c-37.333 51.333 -74 77 -110 77c-22 0 -39.333 -6.83301 -52 -20.5s-19 -32.5 -19 -56.5c0 -25.333 6.33301 -45 19 -59s30 -21 52 -21z" />
    <glyph glyph-name="integral" unicode="&#x222b;" 
d="M255 -204h-64v113h29c39.333 0 59 19.667 59 59v614c0 53.333 14.167 94.166 42.5 122.499s69.166 42.5 122.499 42.5h64v-113h-29c-39.333 0 -59 -19.667 -59 -59v-614c0 -53.333 -14.167 -94.166 -42.5 -122.499s-69.166 -42.5 -122.499 -42.5z" />
    <glyph glyph-name="approxequal" unicode="&#x2248;" 
d="M207 344h-120.001c0 130.667 50 196 150 196c36.667 0 76.334 -10 119.001 -30c42 -20.667 72.333 -31 91 -31c16.667 0 28.5 4.83301 35.5 14.5s10.5 25.167 10.5 46.5h120c0 -130.667 -50 -196 -150 -196c-36.667 0 -75.667 10.333 -117 31
c-42.667 20 -73.667 30 -93 30c-16.667 0 -28.5 -4.5 -35.5 -13.5s-10.5 -24.833 -10.5 -47.5zM206.999 94h-120.001c0 130.667 50 196 150 196c36.667 0 76.334 -10 119.001 -30c42 -20.667 72.333 -31 91 -31c16.667 0 28.5 4.83301 35.5 14.5s10.5 25.167 10.5 46.5h120
c0 -130.667 -50 -196 -150 -196c-36.667 0 -75.667 10.333 -117 31c-42.667 20 -73.667 30 -93 30c-16.667 0 -28.5 -4.5 -35.5 -13.5s-10.5 -24.833 -10.5 -47.5z" />
    <glyph glyph-name="notequal" unicode="&#x2260;" 
d="M620 489v-120h-196l-53 -119h249v-120h-303l-75 -169l-79 42l57 127h-140v120h193l53 119h-246v120h300l79 178l79 -42l-61 -136h143z" />
    <glyph glyph-name="lessequal" unicode="&#x2264;" 
d="M72 458l557 162v-140l-387 -87l387 -86v-140l-557 161v130zM629 0h-558v120h558v-120z" />
    <glyph glyph-name="greaterequal" unicode="&#x2265;" 
d="M72 480v140l557 -162v-130l-557 -161v140l387 86zM629 0h-558v120h558v-120z" />
    <glyph glyph-name="uni2460" unicode="&#x2460;" horiz-adv-x="1078" 
d="M900 31c-94 -93.333 -214.333 -140 -361 -140s-267 46.667 -361 140c-95.333 93.333 -143 210.333 -143 351c0 141.333 47.667 258.666 143 351.999c94.667 92.667 215 139 361 139s266.333 -46.333 361 -139c95.333 -93.333 143 -210.666 143 -351.999
c0 -140.667 -47.667 -257.667 -143 -351zM281 126c68 -68 153.999 -102 257.999 -102s190.333 34 259 102c68 66.667 102 152 102 256c0 103.333 -34 189 -102 257c-69.333 67.333 -155.666 101 -258.999 101s-189.333 -33.667 -258 -101
c-68.667 -68 -103 -153.667 -103 -257c0 -104 34.333 -189.333 103 -256zM610.999 172h-100v275h-106v75h30c24.667 0 44.667 6 60 18s23 28.667 23 50v9h93v-427z" />
    <glyph glyph-name="uni2461" unicode="&#x2461;" horiz-adv-x="1078" 
d="M900 31c-94 -93.333 -214.333 -140 -361 -140s-267 46.667 -361 140c-95.333 93.333 -143 210.333 -143 351c0 141.333 47.667 258.666 143 351.999c94.667 92.667 215 139 361 139s266.333 -46.333 361 -139c95.333 -93.333 143 -210.666 143 -351.999
c0 -140.667 -47.667 -257.667 -143 -351zM281 126c68 -68 153.999 -102 257.999 -102s190.333 34 259 102c68 66.667 102 152 102 256c0 103.333 -34 189 -102 257c-69.333 67.333 -155.666 101 -258.999 101s-189.333 -33.667 -258 -101
c-68.667 -68 -103 -153.667 -103 -257c0 -104 34.333 -189.333 103 -256zM706.999 176h-330.002c0 49.333 6.66699 88.333 20 117s36 52 68 70l97 54c30.667 16.667 46 36.334 46 59.001c0 16 -6 28.667 -18 38s-28.667 14 -50 14c-42.667 0 -65.667 -20 -69 -60h-96
c0.666992 47.333 15.334 83.166 44.001 107.499s69.334 36.5 122.001 36.5c51.333 0 92 -12.167 122 -36.5s45 -56.833 45 -97.5c0 -50.667 -27.667 -91 -83 -121l-100 -54c-19.333 -11.333 -30 -24.333 -32 -39h214v-88z" />
    <glyph glyph-name="uni2462" unicode="&#x2462;" horiz-adv-x="1078" 
d="M900 31c-94 -93.333 -214.333 -140 -361 -140s-267 46.667 -361 140c-95.333 93.333 -143 210.333 -143 351c0 141.333 47.667 258.666 143 351.999c94.667 92.667 215 139 361 139s266.333 -46.333 361 -139c95.333 -93.333 143 -210.666 143 -351.999
c0 -140.667 -47.667 -257.667 -143 -351zM281 126c68 -68 153.999 -102 257.999 -102s190.333 34 259 102c68 66.667 102 152 102 256c0 103.333 -34 189 -102 257c-69.333 67.333 -155.666 101 -258.999 101s-189.333 -33.667 -258 -101
c-68.667 -68 -103 -153.667 -103 -257c0 -104 34.333 -189.333 103 -256zM666.999 193c-30.667 -24.667 -73.333 -37 -128 -37c-54 0 -96 13 -126 39c-30.667 24.667 -47 60.667 -49 108h96c2.66699 -42 29 -63 79 -63c49.333 0 74 18 74 54c0 34.667 -26 52 -78 52h-35v83
h38c43.333 0 65 15.333 65 46c0 15.333 -6.16699 27.333 -18.5 36s-29.166 13 -50.499 13c-43.333 0 -67 -17.333 -71 -52h-96c2.66699 44 18.5 77.667 47.5 101s69.167 35 120.5 35s91.666 -11 120.999 -33s44 -51.333 44 -88c0 -48 -23.667 -78.667 -71 -92v-1
c25.333 -6 45.833 -18.5 61.5 -37.5s23.5 -41.5 23.5 -67.5c0 -38.667 -15.667 -70.667 -47 -96z" />
    <glyph glyph-name="uni2463" unicode="&#x2463;" horiz-adv-x="1078" 
d="M900 31c-94 -93.333 -214.333 -140 -361 -140s-267 46.667 -361 140c-95.333 93.333 -143 210.333 -143 351c0 141.333 47.667 258.666 143 351.999c94.667 92.667 215 139 361 139s266.333 -46.333 361 -139c95.333 -93.333 143 -210.666 143 -351.999
c0 -140.667 -47.667 -257.667 -143 -351zM281 126c68 -68 153.999 -102 257.999 -102s190.333 34 259 102c68 66.667 102 152 102 256c0 103.333 -34 189 -102 257c-69.333 67.333 -155.666 101 -258.999 101s-189.333 -33.667 -258 -101
c-68.667 -68 -103 -153.667 -103 -257c0 -104 34.333 -189.333 103 -256zM649.999 172h-95v78l-215 -3v81l197 271h113v-265l69 3v-90l-69 3v-78zM449.999 336l105 -2v146h-2z" />
    <glyph glyph-name="uni2464" unicode="&#x2464;" horiz-adv-x="1078" 
d="M900 31c-94 -93.333 -214.333 -140 -361 -140s-267 46.667 -361 140c-95.333 93.333 -143 210.333 -143 351c0 141.333 47.667 258.666 143 351.999c94.667 92.667 215 139 361 139s266.333 -46.333 361 -139c95.333 -93.333 143 -210.666 143 -351.999
c0 -140.667 -47.667 -257.667 -143 -351zM281 126c68 -68 153.999 -102 257.999 -102s190.333 34 259 102c68 66.667 102 152 102 256c0 103.333 -34 189 -102 257c-69.333 67.333 -155.666 101 -258.999 101s-189.333 -33.667 -258 -101
c-68.667 -68 -103 -153.667 -103 -257c0 -104 34.333 -189.333 103 -256zM543.999 158c-44.667 0 -81.999 10.001 -111.999 30.001s-49.333 47.333 -58 82l100 12c11.333 -27.333 35 -41 71 -41c24 0 42.333 5.66699 55 17s19 27.333 19 48c0 21.333 -6.5 37.833 -19.5 49.5
s-30.833 17.5 -53.5 17.5c-26.667 0 -49.334 -9.33301 -68.001 -28l-96 12l38 244h271v-86h-201l-15 -84l2 -1c27.333 16 58 24 92 24c44.667 0 81 -13 109 -39s42 -60.667 42 -104c0 -44.667 -16.167 -81.334 -48.5 -110.001s-74.833 -43 -127.5 -43z" />
    <glyph glyph-name="uni2465" unicode="&#x2465;" horiz-adv-x="1078" 
d="M900 31c-94 -93.333 -214.333 -140 -361 -140s-267 46.667 -361 140c-95.333 93.333 -143 210.333 -143 351c0 141.333 47.667 258.666 143 351.999c94.667 92.667 215 139 361 139s266.333 -46.333 361 -139c95.333 -93.333 143 -210.666 143 -351.999
c0 -140.667 -47.667 -257.667 -143 -351zM281 126c68 -68 153.999 -102 257.999 -102s190.333 34 259 102c68 66.667 102 152 102 256c0 103.333 -34 189 -102 257c-69.333 67.333 -155.666 101 -258.999 101s-189.333 -33.667 -258 -101
c-68.667 -68 -103 -153.667 -103 -257c0 -104 34.333 -189.333 103 -256zM550.999 156c-62.667 0 -110.834 19.5 -144.501 58.5s-50.5 93.833 -50.5 164.5c0 74.667 16.167 131.5 48.5 170.5s79.833 58.5 142.5 58.5c42.667 0 78.334 -8.66699 107.001 -26
s47 -40.333 55 -69l-101 -13c-10.667 20.667 -32 31 -64 31c-56.667 0 -86.667 -40.667 -90 -122c26.667 34.667 65.667 52 117 52c46 0 83.167 -14 111.5 -42s42.5 -64 42.5 -108c0 -46 -16 -83.333 -48 -112s-74 -43 -126 -43zM546.999 238
c24 0 42.833 7.16797 56.5 21.501s20.5 32.166 20.5 53.499s-7 38.5 -21 51.5s-32.667 19.5 -56 19.5c-24 0 -43.167 -6.83301 -57.5 -20.5s-21.5 -31.167 -21.5 -52.5c0 -22 7.5 -39.667 22.5 -53s33.833 -20 56.5 -20z" />
    <glyph glyph-name="uni2466" unicode="&#x2466;" horiz-adv-x="1078" 
d="M900 31c-94 -93.333 -214.333 -140 -361 -140s-267 46.667 -361 140c-95.333 93.333 -143 210.333 -143 351c0 141.333 47.667 258.666 143 351.999c94.667 92.667 215 139 361 139s266.333 -46.333 361 -139c95.333 -93.333 143 -210.666 143 -351.999
c0 -140.667 -47.667 -257.667 -143 -351zM281 126c68 -68 153.999 -102 257.999 -102s190.333 34 259 102c68 66.667 102 152 102 256c0 103.333 -34 189 -102 257c-69.333 67.333 -155.666 101 -258.999 101s-189.333 -33.667 -258 -101
c-68.667 -68 -103 -153.667 -103 -257c0 -104 34.333 -189.333 103 -256zM563.999 152h-106c2.66699 114.667 51 227 145 337h-213v90h323v-83c-50 -54 -86.667 -107.667 -110 -161c-23.333 -52.667 -36.333 -113.667 -39 -183z" />
    <glyph glyph-name="uni2467" unicode="&#x2467;" horiz-adv-x="1078" 
d="M900 31c-94 -93.333 -214.333 -140 -361 -140s-267 46.667 -361 140c-95.333 93.333 -143 210.333 -143 351c0 141.333 47.667 258.666 143 351.999c94.667 92.667 215 139 361 139s266.333 -46.333 361 -139c95.333 -93.333 143 -210.666 143 -351.999
c0 -140.667 -47.667 -257.667 -143 -351zM281 126c68 -68 153.999 -102 257.999 -102s190.333 34 259 102c68 66.667 102 152 102 256c0 103.333 -34 189 -102 257c-69.333 67.333 -155.666 101 -258.999 101s-189.333 -33.667 -258 -101
c-68.667 -68 -103 -153.667 -103 -257c0 -104 34.333 -189.333 103 -256zM539.999 156c-60 0 -107 12.166 -141 36.499s-51 57.833 -51 100.5c0 27.333 7.66699 50.5 23 69.5s36.333 32.167 63 39.5v3c-18.667 7.33301 -34 19.333 -46 36s-18 34.667 -18 54
c0 35.333 14.833 63 44.5 83s71.5 30 125.5 30c53.333 0 94.833 -10.167 124.5 -30.5s44.5 -47.833 44.5 -82.5c0 -21.333 -6 -40.166 -18 -56.499s-27.333 -27.5 -46 -33.5v-3c26.667 -7.33301 47.667 -20.5 63 -39.5s23 -42.167 23 -69.5
c0 -42.667 -16.833 -76.167 -50.5 -100.5s-80.5 -36.5 -140.5 -36.5zM486.999 445.999c14 -9.33301 31.668 -14.0029 53.001 -14.0029s39 4.66699 53 14c13.333 9.33301 20.166 21.833 20.499 37.5s-6.16699 27.834 -19.5 36.501c-12.667 8.66699 -30.667 13 -54 13
s-41.333 -4.33301 -54 -13c-13.333 -9.33301 -20 -21.666 -20 -36.999s7 -27.666 21 -36.999zM475 248.996c16 -12 37.667 -17.999 65 -17.999s49 6 65 18c16 11.333 24 26.666 24 45.999c0 20 -7.83301 35.5 -23.5 46.5s-37.5 16.5 -65.5 16.5s-50 -5.5 -66 -16.5
s-24 -26.5 -24 -46.5s8.33301 -35.333 25 -46z" />
    <glyph glyph-name="uni2468" unicode="&#x2468;" horiz-adv-x="1078" 
d="M900 31c-94 -93.333 -214.333 -140 -361 -140s-267 46.667 -361 140c-95.333 93.333 -143 210.333 -143 351c0 141.333 47.667 258.666 143 351.999c94.667 92.667 215 139 361 139s266.333 -46.333 361 -139c95.333 -93.333 143 -210.666 143 -351.999
c0 -140.667 -47.667 -257.667 -143 -351zM281 126c68 -68 153.999 -102 257.999 -102s190.333 34 259 102c68 66.667 102 152 102 256c0 103.333 -34 189 -102 257c-69.333 67.333 -155.666 101 -258.999 101s-189.333 -33.667 -258 -101
c-68.667 -68 -103 -153.667 -103 -257c0 -104 34.333 -189.333 103 -256zM540.999 156c-42.667 0 -78.334 8.66699 -107.001 26s-47 40.333 -55 69l101 13c10.667 -20.667 32 -31 64 -31c56.667 0 86.667 40.667 90 122c-26.667 -34.667 -65.667 -52 -117 -52
c-46 0 -83.167 14 -111.5 42s-42.5 64 -42.5 108c0 46 16 83.333 48 112s74 43 126 43c62.667 0 110.834 -19.5 144.501 -58.5s50.5 -93.833 50.5 -164.5c0 -74.667 -16.167 -131.5 -48.5 -170.5s-79.833 -58.5 -142.5 -58.5zM540.999 380c24 0 43.167 6.83203 57.5 20.499
s21.5 31.167 21.5 52.5c0 22 -7.5 39.667 -22.5 53s-33.833 20 -56.5 20c-24 0 -42.833 -7.16699 -56.5 -21.5s-20.5 -32.166 -20.5 -53.499s7 -38.5 21 -51.5s32.667 -19.5 56 -19.5z" />
    <glyph glyph-name="uni24EA" unicode="&#x24ea;" horiz-adv-x="1078" 
d="M900 31c-94 -93.333 -214.333 -140 -361 -140s-267 46.667 -361 140c-95.333 93.333 -143 210.333 -143 351c0 141.333 47.667 258.666 143 351.999c94.667 92.667 215 139 361 139s266.333 -46.333 361 -139c95.333 -93.333 143 -210.666 143 -351.999
c0 -140.667 -47.667 -257.667 -143 -351zM281 126c68 -68 153.999 -102 257.999 -102s190.333 34 259 102c68 66.667 102 152 102 256c0 103.333 -34 189 -102 257c-69.333 67.333 -155.666 101 -258.999 101s-189.333 -33.667 -258 -101
c-68.667 -68 -103 -153.667 -103 -257c0 -104 34.333 -189.333 103 -256zM677.999 216c-32 -40 -78.333 -60 -139 -60s-106.667 20 -138 60c-32 40 -48 96.333 -48 169c0 72 16 127.333 48 166s78 58 138 58s106 -19.333 138 -58s48 -94 48 -166s-15.667 -128.333 -47 -169z
M461.999 383c0 -90.667 25.667 -136 77 -136s77 45.333 77 136c0 47.333 -6.16699 81.666 -18.5 102.999s-31.833 32 -58.5 32s-46.167 -10.667 -58.5 -32s-18.5 -55.666 -18.5 -102.999z" />
    <glyph glyph-name="uni24FF" unicode="&#x24ff;" horiz-adv-x="1078" 
d="M900 31c-94 -93.333 -214.333 -140 -361 -140s-267 46.667 -361 140c-95.333 93.333 -143 210.333 -143 351c0 141.333 47.667 258.666 143 351.999c94.667 92.667 215 139 361 139s266.333 -46.333 361 -139c95.333 -93.333 143 -210.666 143 -351.999
c0 -140.667 -47.667 -257.667 -143 -351zM401 216c31.333 -40 77.333 -60 138 -60s107 20 139 60c31.333 40.667 47 97 47 169s-16 127.333 -48 166s-78 58 -138 58s-106 -19.333 -138 -58s-48 -94 -48 -166c0 -72.667 16 -129 48 -169zM616 383
c0 -90.667 -25.667 -136 -77 -136s-77 45.333 -77 136c0 47.333 6.16699 81.666 18.5 102.999s31.833 32 58.5 32s46.167 -10.667 58.5 -32s18.5 -55.666 18.5 -102.999z" />
    <glyph glyph-name="filledbox" unicode="&#x25a0;" horiz-adv-x="1038" 
d="M973 -88h-908v888h908v-888z" />
    <glyph glyph-name="uni25A1" unicode="&#x25a1;" horiz-adv-x="1038" 
d="M973 -88h-908v888h908v-888zM209 667v-622h620v622h-620z" />
    <glyph glyph-name="lozenge" unicode="&#x25ca;" horiz-adv-x="600" 
d="M207 712h186l174 -356l-174 -356h-186l-174 356zM172 356l128 -276l128 276l-128 276z" />
    <glyph glyph-name="circle" unicode="&#x25cb;" horiz-adv-x="1078" 
d="M900 31c-94 -93.333 -214.333 -140 -361 -140s-267 46.667 -361 140c-95.333 93.333 -143 210.333 -143 351c0 141.333 47.667 258.666 143 351.999c94.667 92.667 215 139 361 139s266.333 -46.333 361 -139c95.333 -93.333 143 -210.666 143 -351.999
c0 -140.667 -47.667 -257.667 -143 -351zM281 126c68 -68 153.999 -102 257.999 -102s190.333 34 259 102c68 66.667 102 152 102 256c0 103.333 -34 189 -102 257c-69.333 67.333 -155.666 101 -258.999 101s-189.333 -33.667 -258 -101
c-68.667 -68 -103 -153.667 -103 -257c0 -104 34.333 -189.333 103 -256z" />
    <glyph glyph-name="uni25CF" unicode="&#x25cf;" horiz-adv-x="1078" 
d="M900 31c-94 -93.333 -214.333 -140 -361 -140s-267 46.667 -361 140c-95.333 93.333 -143 210.333 -143 351c0 141.333 47.667 258.666 143 351.999c94.667 92.667 215 139 361 139s266.333 -46.333 361 -139c95.333 -93.333 143 -210.666 143 -351.999
c0 -140.667 -47.667 -257.667 -143 -351z" />
    <glyph glyph-name="uni2776" unicode="&#x2776;" horiz-adv-x="1078" 
d="M900 31c-94 -93.333 -214.333 -140 -361 -140s-267 46.667 -361 140c-95.333 93.333 -143 210.333 -143 351c0 141.333 47.667 258.666 143 351.999c94.667 92.667 215 139 361 139s266.333 -46.333 361 -139c95.333 -93.333 143 -210.666 143 -351.999
c0 -140.667 -47.667 -257.667 -143 -351zM505 447v-275h100v427h-93v-9c0 -21.333 -7.66699 -38 -23 -50s-35.333 -18 -60 -18h-30v-75h106z" />
    <glyph glyph-name="uni2777" unicode="&#x2777;" horiz-adv-x="1078" 
d="M178 734c94.667 92.667 215 139 361 139s266.333 -46.333 361 -139c95.333 -93.333 143 -210.666 143 -351.999c0 -140.667 -47.667 -257.667 -143 -351c-94 -93.333 -214.333 -140 -361 -140s-267 46.667 -361 140c-95.333 93.333 -143 210.333 -143 351
c0 141.333 47.667 258.666 143 351.999zM702 176l0.00195312 88h-214c2 14.667 12.667 27.667 32 39l100 54c55.333 30 83 70.333 83 121c0 40.667 -15 73.167 -45 97.5s-70.667 36.5 -122 36.5c-52.667 0 -93.334 -12.167 -122.001 -36.5s-43.334 -60.166 -44.001 -107.499
h96c2.66699 40 25.667 60 69 60c21.333 0 38 -4.66699 50 -14s18 -22 18 -38c0 -22.667 -15.333 -42.334 -46 -59.001l-97 -54c-32 -18 -54.667 -41.333 -68 -70s-20 -67.667 -20 -117h330z" />
    <glyph glyph-name="uni2778" unicode="&#x2778;" horiz-adv-x="1078" 
d="M900 31c-94 -93.333 -214.333 -140 -361 -140s-267 46.667 -361 140c-95.333 93.333 -143 210.333 -143 351c0 141.333 47.667 258.666 143 351.999c94.667 92.667 215 139 361 139s266.333 -46.333 361 -139c95.333 -93.333 143 -210.666 143 -351.999
c0 -140.667 -47.667 -257.667 -143 -351zM413 195c30 -26 71.999 -39 125.999 -39c54.667 0 97.334 12.333 128.001 37c31.333 25.333 47 57.333 47 96c0 26 -7.83301 48.5 -23.5 67.5s-36.167 31.5 -61.5 37.5v1c47.333 13.333 71 44 71 92c0 36.667 -14.667 66 -44 88
s-69.666 33 -120.999 33s-91.5 -11.667 -120.5 -35s-44.833 -57 -47.5 -101h96c4 34.667 27.667 52 71 52c21.333 0 38.166 -4.33301 50.499 -13s18.5 -20.667 18.5 -36c0 -30.667 -21.667 -46 -65 -46h-38v-83h35c52 0 78 -17.333 78 -52c0 -36 -24.667 -54 -74 -54
c-50 0 -76.333 21 -79 63h-96c2 -47.333 18.333 -83.333 49 -108z" />
    <glyph glyph-name="uni2779" unicode="&#x2779;" horiz-adv-x="1078" 
d="M900 31c-94 -93.333 -214.333 -140 -361 -140s-267 46.667 -361 140c-95.333 93.333 -143 210.333 -143 351c0 141.333 47.667 258.666 143 351.999c94.667 92.667 215 139 361 139s266.333 -46.333 361 -139c95.333 -93.333 143 -210.666 143 -351.999
c0 -140.667 -47.667 -257.667 -143 -351zM547 255v-78h95v78l69 -3v90l-69 -3v265h-113l-197 -271v-81zM547 485v-146l-105 2l103 144h2z" />
    </font>
</defs>
</svg>
