<?xml version="1.0" standalone="no"?>
<!DOCTYPE svg PUBLIC "-//W3C//DTD SVG 1.1//EN" "http://www.w3.org/Graphics/SVG/1.1/DTD/svg11.dtd" >
<svg xmlns="http://www.w3.org/2000/svg" xmlns:xlink="http://www.w3.org/1999/xlink" version="1.1">
<metadata>
Created by FontForge 20170812 at Sun Apr 14 21:27:55 2019
 By www-data
Copyright (c) 2019 Monotype Imaging Inc. All rights reserved.
</metadata>
<defs>
<font id="HelveticaNowText-Light" horiz-adv-x="640" >
  <font-face 
    font-family="HelveticaNowText Light"
    font-weight="300"
    font-stretch="normal"
    units-per-em="1000"
    panose-1="2 11 4 4 3 2 2 2 2 4"
    ascent="875"
    descent="-125"
    x-height="516"
    cap-height="712"
    bbox="-321 -324 1607 1104"
    underline-thickness="50"
    underline-position="-250"
    unicode-range="U+000D-FEFF"
  />
<missing-glyph horiz-adv-x="737" 
d="M642 0h-547v712h547v-712zM155 659v-606h426v606h-426z" />
    <glyph glyph-name="fi" unicode="fi" horiz-adv-x="572" 
d="M122 514v51.001c0 51.333 11.5 88.666 34.5 111.999s58.833 35 107.5 35h53v-51h-52c-29.333 0 -50.5 -6.66699 -63.5 -20s-19.5 -36 -19.5 -68v-59l135 2v-47l-135 2v-471h-60v471l-90 -2v47zM424 631.001v81h64v-81h-64zM486 0.000976562h-60v516h60v-516z" />
    <glyph glyph-name="fl" unicode="fl" horiz-adv-x="572" 
d="M122 514v51.001c0 51.333 11.5 88.666 34.5 111.999s58.833 35 107.5 35h53v-51h-52c-29.333 0 -50.5 -6.66699 -63.5 -20s-19.5 -36 -19.5 -68v-59l135 2v-47l-135 2v-471h-60v471l-90 -2v47zM426 0.000976562v712h60v-712h-60z" />
    <glyph glyph-name=".notdef" horiz-adv-x="737" 
d="M642 0h-547v712h547v-712zM155 659v-606h426v606h-426z" />
    <glyph glyph-name="NULL" horiz-adv-x="0" 
 />
    <glyph glyph-name="NULL" horiz-adv-x="0" 
 />
    <glyph glyph-name="CR" unicode="&#xd;" horiz-adv-x="282" 
 />
    <glyph glyph-name="space" unicode=" " horiz-adv-x="282" 
 />
    <glyph glyph-name="exclam" unicode="!" horiz-adv-x="266" 
d="M147 168h-28l-17 339v205h61v-205zM171 0h-76v75h76v-75z" />
    <glyph glyph-name="quotedbl" unicode="&#x22;" horiz-adv-x="424" 
d="M140 436h-54v276h54v-276zM338 436h-53v276h53v-276z" />
    <glyph glyph-name="numbersign" unicode="#" horiz-adv-x="667" 
d="M619 514v-50l-126 2l-30 -220l118 3v-50l-125 2l-28 -201h-50l28 201h-189l-28 -201h-50l28 201l-119 -2v50l126 -3l30 220l-118 -2v50l125 -2l28 200h50l-28 -200h189l28 200h50l-28 -200zM254 466l-30 -220h189l30 220h-189z" />
    <glyph glyph-name="dollar" unicode="$" 
d="M566 202c0 -58.667 -19.001 -105.668 -57.001 -141.001s-90.333 -55.333 -157 -60v-145h-52v145c-133.333 8 -208 80.333 -224 217h58c6.66699 -56 25.5 -97.833 56.5 -125.5s76.5 -41.5 136.5 -41.5c58.667 0 103.334 12.833 134.001 38.5s46 60.834 46 105.501
c0 36 -10.667 64.667 -32 86s-55 37.333 -101 48l-100 23c-117.333 27.333 -176 87 -176 179c0 54 17.667 97 53 129s85 49.667 149 53v134h52v-134c59.333 -4.66699 105.833 -23.5 139.5 -56.5s52.834 -77.5 57.501 -133.5h-58c-10 93.333 -67.333 140 -172 140
c-52.667 0 -92.834 -11.167 -120.501 -33.5s-41.5 -54.5 -41.5 -96.5c0 -33.333 10.333 -60.333 31 -81s54.667 -36.667 102 -48l101 -23c60.667 -14 105 -35.5 133 -64.5s42 -67.167 42 -114.5z" />
    <glyph glyph-name="percent" unicode="%" horiz-adv-x="1232" 
d="M273 309c-58.667 0 -103 19 -133 57s-45 93.667 -45 167s15 129 45 167s74.333 57 133 57c120 0 180 -74.667 180 -224s-60 -224 -180 -224zM410 -15h-61l448 742h59zM273 356c42.667 0 74.167 14.333 94.5 43s30.5 73.334 30.5 134.001c0 118 -41.667 177 -125 177
c-82.667 0 -124 -59 -124 -177c0 -60.667 10.167 -105.334 30.5 -134.001s51.5 -43 93.5 -43zM958 -12c-58.667 0 -103.167 19 -133.5 57s-45.5 93.667 -45.5 167c0 149.333 59.667 224 179 224s179 -74.667 179 -224s-59.667 -224 -179 -224zM958 35
c83.333 0 125 59 125 177s-41.667 177 -125 177c-42 0 -73.167 -14.333 -93.5 -43s-30.5 -73.334 -30.5 -134.001c0 -61.333 10.167 -106.166 30.5 -134.499s51.5 -42.5 93.5 -42.5z" />
    <glyph glyph-name="ampersand" unicode="&#x26;" horiz-adv-x="761" 
d="M600 133l133.999 -134.001h-80l-90 90c-65.333 -67.333 -144.666 -101 -237.999 -101c-73.333 0 -131.666 18.333 -174.999 55s-65 85.667 -65 147c0 94.667 58 163 174 205c-61.333 62 -92 119.333 -92 172c0 46.667 16.667 84.667 50 114s76.666 44 129.999 44
c54 0 97.667 -14.5 131 -43.5s50 -66.833 50 -113.5c0 -81.333 -57.667 -144.666 -173 -189.999l206 -207c24.667 37.333 41 85 49 143h58c-10 -68.667 -33 -129 -69 -181zM347.999 672.999c-36.667 0 -65.999 -9.50195 -87.999 -28.502s-33 -44.5 -33 -76.5
c0 -42 26.333 -88.333 79 -139l13 -13c53.333 19.333 92 40.833 116 64.5s36 51.834 36 84.501s-11.333 58.834 -34 78.501s-52.334 29.5 -89.001 29.5zM328 38.9971c82.667 0 149.333 29 200 87l-231 232c-102.667 -35.333 -154 -90.666 -154 -165.999
c0 -46.667 16.5 -83.834 49.5 -111.501s78.167 -41.5 135.5 -41.5z" />
    <glyph glyph-name="quotesingle" unicode="'" horiz-adv-x="225" 
d="M139 436h-53v276h53v-276z" />
    <glyph glyph-name="parenleft" unicode="(" horiz-adv-x="325" 
d="M278 -204h-54c-102 137.333 -153 294.333 -153 471c0 183.333 51 343.333 153 480h54c-98 -140 -147 -300 -147 -480c0 -174 49 -331 147 -471z" />
    <glyph glyph-name="parenright" unicode=")" horiz-adv-x="325" 
d="M101 -204h-53c97.333 141.333 146 298.333 146 471c0 178.667 -48.667 338.667 -146 480h53c102 -136.667 153 -296.667 153 -480c0 -176.667 -51 -333.667 -153 -471z" />
    <glyph glyph-name="asterisk" unicode="*" horiz-adv-x="546" 
d="M274 496l-95 -133l-42 27l103 130l-154 51l17 44l150 -58l-3 155h47l-3 -155l149 58l17 -44l-153 -51l100 -130l-39 -27z" />
    <glyph glyph-name="plus" unicode="+" 
d="M346 336h249v-52h-249v-248h-53v248h-247v52h247v249h53v-249z" />
    <glyph glyph-name="comma" unicode="," horiz-adv-x="272" 
d="M102 -145h-9v34h9c28 0 42 14 42 42v73l-51 -5v77h87v-138c0 -55.333 -26 -83 -78 -83z" />
    <glyph glyph-name="hyphen" unicode="-" horiz-adv-x="378" 
d="M329 222h-280v55h280v-55z" />
    <glyph glyph-name="period" unicode="." horiz-adv-x="263" 
d="M176 0h-89v78h89v-78z" />
    <glyph glyph-name="slash" unicode="/" horiz-adv-x="452" 
d="M108 0h-60l296 712h60z" />
    <glyph glyph-name="zero" unicode="0" 
d="M319 -10c-158.667 0 -238 122 -238 366s80 366 240 366c80 0 139.667 -30 179 -90s59 -152 59 -276c0 -244 -80 -366 -240 -366zM186 119c29.333 -50 74.332 -75 134.999 -75c61.333 0 106 25 134 75c28 48.667 42 127.667 42 237c0 108 -14.167 187 -42.5 237
s-73.166 75 -134.499 75s-106 -25 -134 -75c-28.667 -49.333 -43 -128.333 -43 -237s14.333 -187.667 43 -237z" />
    <glyph glyph-name="one" unicode="1" horiz-adv-x="445" 
d="M248 712h54v-712h-60v602c-46 -44 -110.667 -67.333 -194 -70v55c103.333 5.33301 170 47 200 125z" />
    <glyph glyph-name="two" unicode="2" 
d="M548 0l-459.997 0.000976562c2.66699 61.333 18.5 114.333 47.5 159s73.833 85 134.5 121l105 63c78 45.333 117 101 117 167c0 46.667 -14.5 84.167 -43.5 112.5s-69.167 42.5 -120.5 42.5c-52.667 0 -93.334 -15.5 -122.001 -46.5s-43 -76.833 -43 -137.5v-8h-61v11
c0 74 20.5 131.667 61.5 173s96.167 62 165.5 62c67.333 0 121.333 -19 162 -57c40.667 -38.667 61 -88.334 61 -149.001c0 -87.333 -47 -158.333 -141 -213l-86 -52c-56.667 -33.333 -97.334 -64.833 -122.001 -94.5s-38.334 -62.5 -41.001 -98.5h386v-55z" />
    <glyph glyph-name="three" unicode="3" 
d="M322 -11c-78.667 0 -141.33 20.4971 -187.997 61.4971s-71.334 96.5 -74.001 166.5h61c2 -54.667 20.667 -97.167 56 -127.5s84 -45.5 146 -45.5c61.333 0 109.166 14 143.499 42s51.5 66.333 51.5 115c0 46 -15.5 82.167 -46.5 108.5s-74.5 39.5 -130.5 39.5h-66v53h51
c48.667 0 86.167 11.667 112.5 35s39.5 55 39.5 95c0 43.333 -14.5 76.5 -43.5 99.5s-69.833 34.5 -122.5 34.5c-106.667 0 -162 -52.667 -166 -158h-61c2 66.667 23 118.834 63 156.501s95.667 56.5 167 56.5c67.333 0 121.666 -16.667 162.999 -50s62 -78 62 -134
c0 -77.333 -38.333 -129.333 -115 -156v-2c49.333 -9.33301 87.333 -29.666 114 -60.999s40 -70.333 40 -117c0 -63.333 -23.667 -114.666 -71 -153.999c-46.667 -38.667 -108.667 -58 -186 -58z" />
    <glyph glyph-name="four" unicode="4" 
d="M467 712v-475h111v-54h-111v-183h-61v183h-345v57l360 472h46zM125 237h281v367h-2z" />
    <glyph glyph-name="five" unicode="5" 
d="M315 -16c-65.333 0 -118.5 17.667 -159.5 53s-65.167 83.333 -72.5 144h59c6.66699 -46 25.5 -81.833 56.5 -107.5s70.5 -38.5 118.5 -38.5c55.333 0 98.666 17 129.999 51s47 80.333 47 139c0 57.333 -15.5 102.833 -46.5 136.5s-73.167 50.5 -126.5 50.5
c-69.333 0 -121.333 -27.333 -156 -82l-64 2l68 380h350v-55h-307l-46 -264l2 -2c42.667 48 97.334 72 164.001 72c69.333 0 124 -22.333 164 -67c40 -45.333 60 -102 60 -170c0 -71.333 -21.333 -129.333 -64 -174c-43.333 -45.333 -102.333 -68 -177 -68z" />
    <glyph glyph-name="six" unicode="6" 
d="M337 457c66.667 0 120 -21.001 160 -63.001s60 -96.667 60 -164c0 -72 -21 -130 -63 -174s-97.667 -66 -167 -66c-78.667 0 -139 28.333 -181 85c-42.667 54.667 -64 142.334 -64 263.001c0 124 21.333 219.167 64 285.5s105 99.5 187 99.5c58 0 105.5 -16.333 142.5 -49
s57.833 -77 62.5 -133h-58c-4.66699 42 -20.167 74.333 -46.5 97s-60.5 34 -102.5 34c-127.333 0 -191 -110 -191 -330v-2c40 78 105.667 117 197 117zM328 40.999c50.667 0 91.333 16.832 122 50.499s46 78.834 46 135.501c0 54.667 -15 98.167 -45 130.5
s-71 48.5 -123 48.5c-49.333 0 -90 -15.167 -122 -45.5s-51 -70.833 -57 -121.5c4 -59.333 19 -105 45 -137c32 -40.667 76.667 -61 134 -61z" />
    <glyph glyph-name="seven" unicode="7" 
d="M255 0h-64.001c20.667 270.667 119.334 489.334 296.001 656.001h-410v56h485v-47c-186 -164.667 -288.333 -386.334 -307 -665.001z" />
    <glyph glyph-name="eight" unicode="8" 
d="M509 45c-48.667 -38 -111.671 -57 -189.004 -57s-140.333 19 -189 57c-48.667 36.667 -73 88 -73 154c0 47.333 13.333 87 40 119s64.334 53.667 113.001 65v1c-39.333 12 -69.666 31.833 -90.999 59.5s-32 60.834 -32 99.501c0 54.667 21 98.167 63 130.5
s98.333 48.5 169 48.5c70 0 126.167 -16.167 168.5 -48.5s63.5 -75.833 63.5 -130.5c0 -38 -10.667 -70.833 -32 -98.5s-51.666 -47.834 -90.999 -60.501v-1c48.667 -11.333 86.334 -33 113.001 -65s40 -71.667 40 -119c0 -66 -24.333 -117.333 -73 -154zM190.996 442
c31.333 -23.333 74.334 -35.001 129.001 -35.001s97.667 11.667 129 35c30.667 22.667 46 55 46 97c0 42.667 -15.333 75.334 -46 98.001s-73.667 34 -129 34c-54.667 0 -97.334 -11.333 -128.001 -34c-31.333 -23.333 -47 -56 -47 -98s15.333 -74.333 46 -97z
M173.997 82.999c36.667 -29.333 85.332 -44 145.999 -44s109.334 14.667 146.001 44c36 28.667 54 68 54 118c0 48.667 -17.667 86.667 -53 114s-84.333 41 -147 41c-63.333 0 -112.5 -13.667 -147.5 -41s-52.5 -65.333 -52.5 -114c0 -50 18 -89.333 54 -118z" />
    <glyph glyph-name="nine" unicode="9" 
d="M494 638c42.667 -54.667 64 -142.333 64 -263c0 -124 -21.333 -219.167 -64 -285.5s-105 -99.5 -187 -99.5c-58 0 -105.5 16.333 -142.5 49s-57.833 77 -62.5 133h58c4.66699 -42 20.167 -74.333 46.5 -97s60.5 -34 102.5 -34c127.333 0 191 110 191 330v2
c-41.333 -78 -107 -117 -197 -117c-66.667 0 -120 21 -160 63s-60 96.667 -60 164c0 72 21 130 63 174s97.667 66 167 66c78.667 0 139 -28.333 181 -85zM312 307.001c49.333 0 90.001 15.168 122.001 45.501s51 70.833 57 121.5c-4 59.333 -19 105 -45 137
c-32 40.667 -76.667 61 -134 61c-50.667 0 -91.334 -16.833 -122.001 -50.5s-46 -78.834 -46 -135.501c0 -54.667 15 -98.167 45 -130.5s71 -48.5 123 -48.5z" />
    <glyph glyph-name="colon" unicode=":" horiz-adv-x="263" 
d="M176 409h-89v79h89v-79zM176 0h-89v78h89v-78z" />
    <glyph glyph-name="semicolon" unicode=";" horiz-adv-x="278" 
d="M182 409h-89v79h89v-79zM107 -145h-8v34h9c27.333 0 41 14 41 42v73l-51 -5v77h87v-138c0 -55.333 -26 -83 -78 -83z" />
    <glyph glyph-name="less" unicode="&#x3c;" 
d="M54 335l532 218v-59l-474 -191l474 -190v-59l-532 217v64z" />
    <glyph glyph-name="equal" unicode="=" 
d="M585 393h-529v52h529v-52zM585 174h-529v52h529v-52z" />
    <glyph glyph-name="greater" unicode="&#x3e;" 
d="M54 494v59l532 -218v-64l-532 -217v59l475 190z" />
    <glyph glyph-name="question" unicode="?" horiz-adv-x="608" 
d="M315 172h-56.999v26c0 44.667 8.33301 80.334 25 107.001c15.333 26 46.333 52.667 93 80c69.333 39.333 104 88 104 146c0 45.333 -16 80.333 -48 105s-75.667 37 -131 37c-120 0 -182 -58 -186 -174h-58c3.33301 71.333 25.666 126.333 66.999 165s100.333 58 177 58
c72.667 0 130.167 -16.833 172.5 -50.5s63.5 -80.834 63.5 -141.501c0 -70.667 -36 -128.667 -108 -174l-39 -25c-30.667 -18.667 -50.667 -38 -60 -58c-10 -20 -15 -49.667 -15 -89v-12zM325.001 0h-76v75h76v-75z" />
    <glyph glyph-name="at" unicode="@" horiz-adv-x="1074" 
d="M542 725c134.667 0 241.332 -36.667 319.999 -110c78 -74 117 -170.667 117 -290c0 -83.333 -17.333 -150.333 -52 -201c-35.333 -51.333 -82 -77 -140 -77c-63.333 0 -100.333 30.333 -111 91c-30.667 -60.667 -81 -91 -151 -91c-59.333 0 -105.833 20.5 -139.5 61.5
s-50.5 96.5 -50.5 166.5c0 68 17.5 122.333 52.5 163s80.833 61 137.5 61c68 0 117.667 -28.667 149 -86l4 73h49v-327c0 -44.667 21 -67 63 -67c41.333 0 74.333 19.667 99 59s37 95 37 167c0 108 -34.333 194.333 -103 259s-163 97 -283 97c-122 0 -217 -35 -285 -105
c-68 -71.333 -102 -169.333 -102 -294c0 -126 34.333 -223.333 103 -292c68 -69.333 163.333 -104 286 -104c64.667 0 128 11.667 190 35v-54c-58 -20.667 -120.667 -31 -188 -31c-139.333 0 -248.666 39.333 -327.999 118c-80.667 78.667 -121 188 -121 328
c0 138 40 247.667 120 329c80 80.667 189 121 327 121zM530.998 90c38 0 69.167 12.499 93.5 37.499s40.5 59.167 48.5 102.5v92c-7.33301 41.333 -23.5 73.833 -48.5 97.5s-56.167 35.5 -93.5 35.5c-44 0 -78.5 -16.167 -103.5 -48.5s-37.5 -76.166 -37.5 -131.499
c0 -56.667 12.5 -101.667 37.5 -135s59.5 -50 103.5 -50z" />
    <glyph glyph-name="A" unicode="A" horiz-adv-x="716" 
d="M682 0h-67l-88 223h-339l-89 -223h-65l291 713h67zM343 610l-134 -334h297l-131 334l-16 50z" />
    <glyph glyph-name="B" unicode="B" horiz-adv-x="727" 
d="M503 378c98.667 -24 148 -84 148 -180c0 -61.333 -19.5 -109.666 -58.5 -144.999s-91.5 -53 -157.5 -53h-340v712h321c63.333 0 113 -15.833 149 -47.5s54 -73.834 54 -126.501c0 -38 -10 -71 -30 -99s-48.667 -48.333 -86 -61zM408 659l-253 0.000976562v-262h248
c48.667 0 86.5 11.833 113.5 35.5s40.5 56.167 40.5 97.5c0 39.333 -12.833 70.666 -38.5 93.999s-62.5 35 -110.5 35zM155 53.001l276 0.000976562c50 0 88.833 12.667 116.5 38s41.5 61 41.5 107c0 47.333 -15 83.666 -45 108.999s-72.333 38 -127 38h-262v-292z" />
    <glyph glyph-name="C" unicode="C" horiz-adv-x="734" 
d="M389 -15c-97.333 0 -174.668 34.666 -232.001 103.999s-86 158.666 -86 267.999c0 111.333 29 200.333 87 267c57.333 67.333 134 101 230 101c74.667 0 139.667 -21 195 -63c54 -42.667 86 -97.667 96 -165h-62c-10.667 52.667 -36.5 94.667 -77.5 126
s-90.833 47 -149.5 47c-78.667 0 -141 -28 -187 -84c-46.667 -55.333 -70 -131.666 -70 -228.999c0 -96 23 -172.667 69 -230c45.333 -58 108.333 -87 189 -87c64 0 117.167 19 159.5 57s66.833 89.333 73.5 154h60c-8.66699 -79.333 -39.667 -143.666 -93 -192.999
c-53.333 -48.667 -120.666 -73 -201.999 -73z" />
    <glyph glyph-name="D" unicode="D" horiz-adv-x="721" 
d="M95 712h246.999c102.667 0 180.834 -31 234.501 -93s80.5 -149.667 80.5 -263s-28.167 -201 -84.5 -263s-138.833 -93 -247.5 -93h-230v712zM154.999 53h168c181.333 0 272 101 272 303s-88 303 -264 303h-176v-606z" />
    <glyph glyph-name="E" unicode="E" horiz-adv-x="665" 
d="M155 343v-290h441v-53h-501v712h488v-53h-428v-263h397v-53h-397z" />
    <glyph glyph-name="F" unicode="F" horiz-adv-x="605" 
d="M576 712v-53h-421v-264h357v-54h-357v-341h-60v712h481z" />
    <glyph glyph-name="G" unicode="G" horiz-adv-x="813" 
d="M414 314l-0.00292969 53h304v-367h-46l-11 133c-51.333 -98 -137.666 -147 -258.999 -147c-100 0 -180 34 -240 102c-60.667 66.667 -91 156.667 -91 270c0 111.333 29.667 200.666 89 267.999c58.667 66.667 140.334 100 245.001 100c82 0 150 -19.667 204 -59
s87 -93.666 99 -162.999l-58 -4c-10 53.333 -36 95.333 -78 126s-96.667 46 -164 46c-86 0 -153.333 -28 -202 -84s-73 -133.333 -73 -232c0 -94.667 24 -171 72 -229c47.333 -58 113.333 -87 198 -87c70 0 127.333 19.833 172 59.5s72.334 95.167 83.001 166.5v48h-244z
" />
    <glyph glyph-name="H" unicode="H" horiz-adv-x="737" 
d="M581 405v307h61v-712h-61v352h-426v-352h-60v712h60v-307h426z" />
    <glyph glyph-name="I" unicode="I" horiz-adv-x="250" 
d="M155 0h-60v712h60v-712z" />
    <glyph glyph-name="J" unicode="J" horiz-adv-x="556" 
d="M259 -12c-64.667 0 -115 17.499 -151 52.499s-54 84.833 -54 149.5v50h61v-47c0 -100 48.333 -150 145 -150c93.333 0 140 50 140 150v519h61v-520c0 -67.333 -17.333 -118.166 -52 -152.499s-84.667 -51.5 -150 -51.5z" />
    <glyph glyph-name="K" unicode="K" horiz-adv-x="708" 
d="M674 0h-76l-291 383l-152 -145v-238h-60v712h60v-399l421 399h82l-308 -290z" />
    <glyph glyph-name="L" unicode="L" horiz-adv-x="602" 
d="M155 712v-659h398v-53h-458v712h60z" />
    <glyph glyph-name="M" unicode="M" horiz-adv-x="884" 
d="M464 118l242 594h83v-712h-56v551l2 88l-35 -87l-227 -552h-57l-268 640l2 -89v-551h-55v712h84l247 -594l19 -55z" />
    <glyph glyph-name="N" unicode="N" horiz-adv-x="739" 
d="M586 84v628h58v-712h-68l-424 626v-626h-57v712h65z" />
    <glyph glyph-name="O" unicode="O" horiz-adv-x="807" 
d="M403 -15c-98.667 0 -178.668 34.668 -240.001 104.001s-92 158.333 -92 267c0 108 30.667 196.667 92 266c60.667 68.667 140.667 103 240 103c100.667 0 181.334 -34.333 242.001 -103s91 -157.334 91 -266.001c0 -109.333 -30.333 -198.333 -91 -267
c-61.333 -69.333 -142 -104 -242 -104zM402.999 40.001c82 0 147.666 29.001 196.999 87.001c49.333 57.333 74 133.666 74 228.999c0 94.667 -24.667 170.667 -74 228c-50 57.333 -115.667 86 -197 86s-146.666 -28.667 -195.999 -86s-74 -133.333 -74 -228
s25 -171 75 -229c49.333 -58 114.333 -87 195 -87z" />
    <glyph glyph-name="P" unicode="P" horiz-adv-x="648" 
d="M95 712l284 -0.000976562c68.667 0 122.667 -17.333 162 -52s59 -83.667 59 -147c0 -65.333 -20 -115.666 -60 -150.999s-96 -53 -168 -53h-217v-309h-60v712zM155 361.999h218.999c52.667 0 93.334 13 122.001 39s43 63.333 43 112c0 47.333 -14.5 83.5 -43.5 108.5
s-68.833 37.5 -119.5 37.5h-221v-297z" />
    <glyph glyph-name="Q" unicode="Q" horiz-adv-x="797" 
d="M736 356c0 -119.333 -35.668 -213.666 -107.001 -282.999l106 -82l-31 -41l-112 92c-54 -38 -117 -57 -189 -57c-98.667 0 -178.667 34.667 -240 104s-92 158.333 -92 267c0 108 30.667 196.667 92 266c60.667 68.667 140.667 103 240 103
c100.667 0 181.334 -34.333 242.001 -103s91 -157.334 91 -266.001zM206.999 584c-49.333 -57.333 -74.001 -133.333 -74.001 -228s25 -171 75 -229c49.333 -58 114.333 -87 195 -87c54 0 101.333 13.333 142 40l-103 79l32 41l109 -90c60.667 56.667 91 138.667 91 246
c0 94.667 -24.667 170.667 -74 228c-50 57.333 -115.667 86 -197 86s-146.666 -28.667 -195.999 -86z" />
    <glyph glyph-name="R" unicode="R" horiz-adv-x="717" 
d="M608 212l24 -212.001h-61l-21 189c-5.33301 46.667 -19.5 80.167 -42.5 100.5s-61.167 30.5 -114.5 30.5h-238v-320h-60v712h321c64.667 0 116 -16.833 154 -50.5s57 -79.167 57 -136.5c0 -47.333 -12.5 -86.666 -37.5 -117.999s-59.833 -51.666 -104.5 -60.999
c72.667 -10.667 113.667 -55.334 123 -134.001zM155 373.999h236c54.667 0 97.334 12.833 128.001 38.5s46 61.5 46 107.5c0 44 -13.833 78.167 -41.5 102.5s-66.834 36.5 -117.501 36.5h-251v-285z" />
    <glyph glyph-name="S" unicode="S" horiz-adv-x="667" 
d="M341 -14c-175.333 0 -270.002 78.332 -284.002 234.999h58c10.667 -122.667 86.667 -184 228 -184c67.333 0 118.833 13.167 154.5 39.5s53.5 63.5 53.5 111.5c0 38 -12.333 68.333 -37 91s-64.667 39.667 -120 51l-120 24c-128 26 -192 86 -192 180
c0 58.667 22 105.334 66 140.001s104.667 52 182 52c76.667 0 137.834 -18 183.501 -54s70.834 -86.667 75.501 -152h-58c-4 50 -23.667 88.5 -59 115.5s-83.333 40.5 -144 40.5c-59.333 0 -105.5 -12.167 -138.5 -36.5s-49.5 -58.166 -49.5 -101.499
c0 -33.333 11.5 -60.333 34.5 -81s58.833 -36.334 107.5 -47.001l135 -27c128.667 -26.667 193 -90.667 193 -192c0 -62.667 -23.167 -112.5 -69.5 -149.5s-112.833 -55.5 -199.5 -55.5z" />
    <glyph glyph-name="T" unicode="T" horiz-adv-x="644" 
d="M43 712h558v-53h-249v-659h-61v659h-248v53z" />
    <glyph glyph-name="U" unicode="U" horiz-adv-x="728" 
d="M561 47c-47.333 -40.667 -113 -61 -197 -61s-149.667 20.333 -197 61c-48 40 -72 101 -72 183v482h60v-484c0 -125.333 69.667 -188 209 -188s209 62.667 209 188v484h60v-482c0 -82 -24 -143 -72 -183z" />
    <glyph glyph-name="V" unicode="V" horiz-adv-x="675" 
d="M376 167l201 545h64l-269 -714h-68l-270 714h67l202 -545l36 -105z" />
    <glyph glyph-name="W" unicode="W" horiz-adv-x="947" 
d="M709 217l142 495h62l-208 -714h-57l-177 646l-177 -646h-57l-203 714h62l138 -495l33 -136l33 136l137 495h67l137 -495l34 -136z" />
    <glyph glyph-name="X" unicode="X" horiz-adv-x="677" 
d="M624 712l-251 -340l270 -372h-76l-203 290l-24 38l-25 -38l-208 -290h-73l274 372l-251 340h76l185 -261l23 -33l22 33l187 261h74z" />
    <glyph glyph-name="Y" unicode="Y" horiz-adv-x="677" 
d="M584 712h69l-281 -421v-291h-61v290l-287 422h73l223 -337l22 -37l21 37z" />
    <glyph glyph-name="Z" unicode="Z" horiz-adv-x="677" 
d="M596 663l-459 -608h474v-55h-545v59l453 598h-427v55h504v-49z" />
    <glyph glyph-name="bracketleft" unicode="[" horiz-adv-x="324" 
d="M276 -204h-181v951h181v-52h-124v-847h124v-52z" />
    <glyph glyph-name="backslash" unicode="\" horiz-adv-x="452" 
d="M404 0h-60l-296 712h60z" />
    <glyph glyph-name="bracketright" unicode="]" horiz-adv-x="324" 
d="M229 -204h-181v52h124v847h-124v52h181v-951z" />
    <glyph glyph-name="asciicircum" unicode="^" 
d="M287 714h60l205 -516h-64l-140 366c-10 28 -20.333 60.667 -31 98c-7.33301 -25.333 -18 -58 -32 -98l-136 -366h-61z" />
    <glyph glyph-name="underscore" unicode="_" horiz-adv-x="500" 
d="M500 -141h-500v52h500v-52z" />
    <glyph glyph-name="grave" unicode="`" horiz-adv-x="500" 
d="M349 601h-54l-128 152h82z" />
    <glyph glyph-name="a" unicode="a" horiz-adv-x="574" 
d="M542 46l15.998 0.000976562v-46h-33c-33.333 0 -57.666 7.66699 -72.999 23s-23.666 40 -24.999 74c-16 -34 -41.333 -60.833 -76 -80.5s-75 -29.5 -121 -29.5c-54.667 0 -97.334 13.333 -128.001 40s-46 62.667 -46 108c0 87.333 56 138.666 168 153.999l130 17
c24.667 4 41.667 10.833 51 20.5s14 23.834 14 42.501v13c0 65.333 -46.333 98 -139 98c-46 0 -80.167 -8.66699 -102.5 -26s-35.5 -45.333 -39.5 -84h-60c8.66699 106.667 77.334 160 206.001 160c63.333 0 111.833 -13.333 145.5 -40s50.5 -64.334 50.5 -113.001v-260
c0 -26 4.5 -44.333 13.5 -55s25.167 -16 48.5 -16zM239.998 35.001c48.667 0 89.5 13.332 122.5 39.999s51.833 62.667 56.5 108v95c-9.33301 -6.66699 -23.333 -11.334 -42 -14.001l-143 -21c-79.333 -11.333 -119 -46.666 -119 -105.999c0 -31.333 11 -56.166 33 -74.499
s52.667 -27.5 92 -27.5z" />
    <glyph glyph-name="b" unicode="b" horiz-adv-x="598" 
d="M324 527c66.667 0 120 -23.668 160 -71.001c40 -46.667 60 -109.667 60 -189c0 -82 -20 -148.667 -60 -200c-40 -52 -94.333 -78 -163 -78c-41.333 0 -78 10.833 -110 32.5s-56 50.834 -72 87.501v-109h-53v712h60v-291c16 32.667 39.667 58.5 71 77.5s67 28.5 107 28.5z
M316 40.999c51.333 0 92.168 20.501 122.501 61.501s45.5 95.833 45.5 164.5c0 66 -14.833 117.167 -44.5 153.5s-70.834 54.5 -123.501 54.5c-52 0 -93.833 -18.833 -125.5 -56.5s-47.5 -89.834 -47.5 -156.501c0 -67.333 15.833 -121 47.5 -161s73.5 -60 125.5 -60z" />
    <glyph glyph-name="c" unicode="c" horiz-adv-x="550" 
d="M287 -13c-72 0 -128.832 23.834 -170.499 71.501s-62.5 113.5 -62.5 197.5c0 85.333 21 152.166 63 200.499s99.667 72.5 173 72.5c59.333 0 107.5 -16 144.5 -48s59.5 -75 67.5 -129h-57c-6.66699 39.333 -23.334 70.166 -50.001 92.499s-61.667 33.5 -105 33.5
c-57.333 0 -101 -19.167 -131 -57.5s-45 -92.5 -45 -162.5c0 -69.333 15.333 -123.333 46 -162s74 -58 130 -58c87.333 0 139 46 155 138h56c-8 -59.333 -30.5 -105.666 -67.5 -138.999s-85.833 -50 -146.5 -50z" />
    <glyph glyph-name="d" unicode="d" horiz-adv-x="598" 
d="M452 422l0.000976562 290.001h60v-712h-53v110c-16 -36.667 -40 -66 -72 -88s-68.667 -33 -110 -33c-68.667 0 -123 25.667 -163 77c-40 50.667 -60 116.667 -60 198c0 80 20.333 143.667 61 191c40 48 93.333 72 160 72c39.333 0 74.666 -9.33301 105.999 -28
s55 -44.334 71 -77.001zM282.001 41.001c52 0 93.833 20.001 125.5 60.001s47.5 93.667 47.5 161s-15.667 119.666 -47 156.999c-32 37.333 -74 56 -126 56s-93 -18.333 -123 -55c-30 -37.333 -45 -89.333 -45 -156c0 -68 15 -122.167 45 -162.5s71 -60.5 123 -60.5z" />
    <glyph glyph-name="e" unicode="e" horiz-adv-x="573" 
d="M520 276l-0.000976562 -26.001h-406c0 -66.667 16 -118.667 48 -156s76 -56 132 -56c84.667 0 139.334 39.333 164.001 118l55 -8c-14 -48.667 -40.333 -87.5 -79 -116.5s-85.667 -43.5 -141 -43.5c-74 0 -132.333 25 -175 75c-42.667 48.667 -64 114.334 -64 197.001
c0 81.333 21 146.333 63 195s99.333 73 172 73c70.667 0 127 -23 169 -69c41.333 -46.667 62 -107.667 62 -183zM289.999 477.999c-50.667 0 -91.5 -16.167 -122.5 -48.5s-48.5 -77.5 -52.5 -135.5h349c-4.66699 58 -22 103.167 -52 135.5s-70.667 48.5 -122 48.5z" />
    <glyph glyph-name="f" unicode="f" horiz-adv-x="340" 
d="M317 661l-52 0.000976562c-29.333 0 -50.5 -6.66699 -63.5 -20s-19.5 -36 -19.5 -68v-59l135 2v-47l-135 2v-471h-60v471l-90 -2v47l90 -2v51c0 51.333 11.5 88.666 34.5 111.999s58.833 35 107.5 35h53v-51z" />
    <glyph glyph-name="g" unicode="g" horiz-adv-x="601" 
d="M459 407l0.000976562 109h56v-510c0 -72 -20 -126.167 -60 -162.5s-97 -54.5 -171 -54.5c-60.667 0 -109.334 12.667 -146.001 38s-58 59.333 -64 102h58c15.333 -61.333 66.666 -92 153.999 -92c58 0 101 13.333 129 40s42 68 42 124v105
c-16 -35.333 -39.833 -63.666 -71.5 -84.999s-67.834 -32 -108.501 -32c-68.667 0 -123 25.667 -163 77c-40 50.667 -60 116.667 -60 198c0 80 20.333 143.667 61 191c40 48 93.333 72 160 72c42.667 0 80.334 -10.833 113.001 -32.5s56.334 -50.834 71.001 -87.501z
M282.001 41c52 0 93.833 20.001 125.5 60.001s47.5 93.667 47.5 161s-15.667 119.666 -47 156.999c-32 37.333 -74 56 -126 56s-93 -18.333 -123 -55c-30 -37.333 -45 -89.333 -45 -156c0 -68 15 -122.167 45 -162.5s71 -60.5 123 -60.5z" />
    <glyph glyph-name="h" unicode="h" horiz-adv-x="589" 
d="M325 529c56 0 99.666 -16 130.999 -48s47 -76.333 47 -133v-348h-60v337c0 92.667 -43.333 139 -130 139c-50.667 0 -91.167 -16.333 -121.5 -49s-45.5 -80.667 -45.5 -144v-283h-60v712h60v-288c34.667 70 94.334 105 179.001 105z" />
    <glyph glyph-name="i" unicode="i" horiz-adv-x="232" 
d="M148 631h-64v81h64v-81zM146 0h-60v516h60v-516z" />
    <glyph glyph-name="j" unicode="j" horiz-adv-x="232" 
d="M148 631h-64v81h64v-81zM6 -204l-25.001 0.000976562v51h24c28.667 0 49.334 6.33301 62.001 19s19 33.667 19 63v587h60v-579c0 -48.667 -11.333 -84.334 -34 -107.001s-58 -34 -106 -34z" />
    <glyph glyph-name="k" unicode="k" horiz-adv-x="559" 
d="M524 0h-71l-200 283l-107 -97v-186h-60v712h60v-463l287 267h77l-215 -196z" />
    <glyph glyph-name="l" unicode="l" horiz-adv-x="232" 
d="M146 0h-60v712h60v-712z" />
    <glyph glyph-name="m" unicode="m" horiz-adv-x="862" 
d="M618 529c51.333 0 90.499 -15.167 117.499 -45.5s40.5 -74.833 40.5 -133.5v-350h-60v349c0 84.667 -38 127 -114 127c-42 0 -76 -16 -102 -48s-39 -79.333 -39 -142v-286h-60v349c0 84.667 -38 127 -114 127c-41.333 0 -75.166 -16.5 -101.499 -49.5
s-39.5 -80.833 -39.5 -143.5v-283h-60v516h58l-3 -98c32 74 86 111 162 111c80.667 0 130.667 -37.667 150 -113c31.333 75.333 86.333 113 165 113z" />
    <glyph glyph-name="n" unicode="n" horiz-adv-x="589" 
d="M325 529c56 0 99.667 -16 131 -48s47 -76.333 47 -133v-348h-60v337c0 92.667 -43.333 139 -130 139c-50.667 0 -91.167 -16.333 -121.5 -49s-45.5 -80.667 -45.5 -144v-283h-60v516h56v-100c34 75.333 95 113 183 113z" />
    <glyph glyph-name="o" unicode="o" horiz-adv-x="591" 
d="M296 -13c-72.667 0 -131.001 24.999 -175.001 74.999c-44.667 48.667 -67 114 -67 196c0 83.333 22.333 149.333 67 198s103.334 73 176.001 73c72 0 130.333 -24.333 175 -73c44 -49.333 66 -114.666 66 -195.999c0 -82 -22.333 -147.667 -67 -197
c-44.667 -50.667 -103 -76 -175 -76zM295.999 37.999c56 0 100.333 20 133 60s49 94 49 162c0 67.333 -16.333 120.5 -49 159.5s-77 58.5 -133 58.5s-100.333 -19.833 -133 -59.5s-49 -93.167 -49 -160.5s16.5 -120.833 49.5 -160.5s77.167 -59.5 132.5 -59.5z" />
    <glyph glyph-name="p" unicode="p" horiz-adv-x="598" 
d="M324 527c66.667 0 120.001 -23.668 160.001 -71.001c40 -46.667 60 -109.667 60 -189c0 -82 -20 -148.667 -60 -200c-40 -52 -94.333 -78 -163 -78c-38.667 0 -73.334 9.33301 -104.001 28s-54.334 44.334 -71.001 77.001v-298h-60v720h53v-110
c14.667 36.667 38.334 66 71.001 88s70.667 33 114 33zM316.001 40.999c51.333 0 92.168 20.501 122.501 61.501s45.5 95.833 45.5 164.5c0 66 -14.833 117.167 -44.5 153.5s-70.834 54.5 -123.501 54.5c-52 0 -93.833 -18.833 -125.5 -56.5s-47.5 -89.834 -47.5 -156.501
c0 -67.333 15.833 -121 47.5 -161s73.5 -60 125.5 -60z" />
    <glyph glyph-name="q" unicode="q" horiz-adv-x="598" 
d="M459 407v109.001h53v-720h-60v299c-16.667 -32.667 -40.334 -58.5 -71.001 -77.5s-65.334 -28.5 -104.001 -28.5c-68.667 0 -123 25.667 -163 77c-40 50.667 -60 116.667 -60 198c0 80 20.333 143.667 61 191c40 48 93.333 72 160 72
c42.667 0 80.334 -10.833 113.001 -32.5s56.334 -50.834 71.001 -87.501zM282 41.001c52 0 93.833 20.001 125.5 60.001s47.5 93.667 47.5 161s-15.667 119.666 -47 156.999c-32 37.333 -74 56 -126 56s-93 -18.333 -123 -55c-30 -37.333 -45 -89.333 -45 -156
c0 -68 15 -122.167 45 -162.5s71 -60.5 123 -60.5z" />
    <glyph glyph-name="r" unicode="r" horiz-adv-x="370" 
d="M319 530c11.333 0 22.001 -1 32.001 -3v-59c-14 2 -27.667 3 -41 3c-47.333 0 -86.333 -16.333 -117 -49s-46.334 -78 -47.001 -136v-286h-60v516h56v-115c32 86 91 129 177 129z" />
    <glyph glyph-name="s" unicode="s" horiz-adv-x="516" 
d="M262 -13c-132 0 -202.334 57.333 -211.001 172h57c8 -81.333 60 -122 156 -122c47.333 0 83.5 8.83301 108.5 26.5s37.5 42.5 37.5 74.5c0 50.667 -34.333 82 -103 94l-94 17c-50 9.33301 -87.167 24.833 -111.5 46.5s-36.5 50.834 -36.5 87.501
c0 44.667 16.5 79.667 49.5 105s78.833 38 137.5 38s105.834 -13.5 141.501 -40.5s56.167 -65.5 61.5 -115.5h-59c-10.667 72 -59 108 -145 108c-40 0 -71.667 -8 -95 -24s-35 -38 -35 -66c0 -24 8.5 -42.833 25.5 -56.5s43.833 -23.5 80.5 -29.5l92 -18
c99.333 -19.333 149 -66.333 149 -141c0 -48.667 -18.167 -86.834 -54.5 -114.501s-86.833 -41.5 -151.5 -41.5z" />
    <glyph glyph-name="t" unicode="t" horiz-adv-x="341" 
d="M311 469l-130 2v-353c0 -24 5 -41.167 15 -51.5s26.667 -15.5 50 -15.5h64v-51h-80c-72.667 0 -109 37 -109 111v360l-89 -2v47l89 -2v155h60v-155l130 2v-47z" />
    <glyph glyph-name="u" unicode="u" horiz-adv-x="589" 
d="M443 233l-0.000976562 283h60v-516h-57v100c-34 -75.333 -95 -113 -183 -113c-56 0 -99.5 15.833 -130.5 47.5s-46.5 76.167 -46.5 133.5v348h60v-337c0 -92.667 43 -139 129 -139c50.667 0 91.334 16.333 122.001 49s46 80.667 46 144z" />
    <glyph glyph-name="v" unicode="v" horiz-adv-x="530" 
d="M300 150l136 366h61l-199 -516h-60l-205 516h65l139 -366l32 -98z" />
    <glyph glyph-name="w" unicode="w" horiz-adv-x="768" 
d="M565 163l108 353h62l-168 -516h-60l-100 364l-22 100l-23 -100l-103 -364h-61l-165 516h65l106 -353l26 -100l24 100l99 353h64l100 -353l23 -98z" />
    <glyph glyph-name="x" unicode="x" horiz-adv-x="558" 
d="M311 273l214 -273h-74l-172 232l-173 -232h-73l215 273l-191 243h73l149 -201l148 201h73z" />
    <glyph glyph-name="y" unicode="y" horiz-adv-x="541" 
d="M273 52l173.001 464h62l-244 -625c-14.667 -36 -32 -60.833 -52 -74.5s-48.667 -20.5 -86 -20.5h-44v51h39c28 0 48.667 4.83301 62 14.5s25.666 28.5 36.999 56.5l29 74l-216 524h65l166 -417z" />
    <glyph glyph-name="z" unicode="z" horiz-adv-x="527" 
d="M456 478l-331 -429h348v-49h-419v43l328 424h-315v49h389v-38z" />
    <glyph glyph-name="braceleft" unicode="{" horiz-adv-x="378" 
d="M330 -205l-68 0.00195312c-36 0 -62.667 8.83301 -80 26.5s-26 45.167 -26 82.5v236c0 37.333 -8.33301 64.166 -25 80.499s-44.667 24.5 -84 24.5v53c39.333 0 67.333 8.16699 84 24.5s25 43.166 25 80.499v235c0 37.333 8.66699 64.833 26 82.5s44 26.5 80 26.5h68v-52
h-51c-23.333 0 -40.166 -5.33301 -50.499 -16s-15.5 -28 -15.5 -52v-223c0 -76 -31.667 -120 -95 -132v-1c63.333 -12 95 -56 95 -132v-224c0 -24 5.16699 -41.333 15.5 -52s27.166 -16 50.499 -16h51v-52z" />
    <glyph glyph-name="bar" unicode="|" horiz-adv-x="250" 
d="M155 -204h-60v951h60v-951z" />
    <glyph glyph-name="braceright" unicode="}" horiz-adv-x="378" 
d="M115 -205l-68 -0.00195312v52h51c23.333 0 40.166 5.33301 50.499 16s15.5 28 15.5 52v224c0 76 31.667 120 95 132v1c-63.333 12 -95 56 -95 132v223c0 24.667 -5.16699 42.167 -15.5 52.5s-27.166 15.5 -50.499 15.5h-51v52h68c36.667 0 63.5 -8.83301 80.5 -26.5
s25.5 -45.167 25.5 -82.5v-235c0 -37.333 8.33301 -64.166 25 -80.499s44.667 -24.5 84 -24.5v-53c-39.333 0 -67.333 -8.16699 -84 -24.5s-25 -43.166 -25 -80.499v-236c0 -37.333 -8.5 -64.833 -25.5 -82.5s-43.833 -26.5 -80.5 -26.5z" />
    <glyph glyph-name="asciitilde" unicode="~" 
d="M122 246l-53.001 -0.000976562c0 56.667 12.167 100.167 36.5 130.5s56.833 45.5 97.5 45.5c20 0 39.333 -4.16699 58 -12.5s34.834 -18.666 48.501 -30.999s27.167 -24.5 40.5 -36.5s27.5 -22.167 42.5 -30.5s30.167 -12.5 45.5 -12.5c24.667 0 44.167 10.5 58.5 31.5
s21.5 51.5 21.5 91.5h53c0 -56 -12.167 -99.333 -36.5 -130s-56.833 -46 -97.5 -46c-22.667 0 -45.5 6 -68.5 18s-42.167 26.667 -57.5 44c-38.667 41.333 -75 62 -109 62c-24.667 0 -44.167 -10.667 -58.5 -32s-21.5 -52 -21.5 -92z" />
    <glyph glyph-name="uni00A0" unicode="&#xa0;" horiz-adv-x="282" 
 />
    <glyph glyph-name="exclamdown" unicode="&#xa1;" horiz-adv-x="266" 
d="M171 441h-76v75h76v-75zM163 -196h-61v205l17 339h28l16 -339v-205z" />
    <glyph glyph-name="cent" unicode="&#xa2;" 
d="M332 38c87.333 0 139.001 46.0029 155.001 138.003h57c-8 -54.667 -28 -98.334 -60 -131.001s-74 -51.667 -126 -57v-132h-52v132c-66 5.33301 -117.5 31.5 -154.5 78.5s-55.5 110.167 -55.5 189.5c0 80 18.5 143.833 55.5 191.5s88.5 74.5 154.5 80.5v138h52v-138
c52.667 -4.66699 95.167 -22.834 127.5 -54.501s51.833 -72.167 58.5 -121.5h-57c-6.66699 39.333 -23.334 70.166 -50.001 92.499s-61.667 33.5 -105 33.5c-57.333 0 -101 -19.167 -131 -57.5s-45 -92.5 -45 -162.5c0 -69.333 15.333 -123.333 46 -162s74 -58 130 -58z" />
    <glyph glyph-name="sterling" unicode="&#xa3;" 
d="M210 53l372.001 -0.00195312v-53h-523v53h10c54.667 0 100.667 15.667 138 47s56 69 56 113c0 34 -12 67.333 -36 100l-168 -3v50l131 -2c-26.667 32 -45.834 60.5 -57.501 85.5s-17.5 52.167 -17.5 81.5c0 56.667 20 104.334 60 143.001c39.333 38 94.333 57 165 57
c68.667 0 123.667 -18.5 165 -55.5s65 -86.167 71 -147.5h-59c-7.33301 50.667 -26.833 88.334 -58.5 113.001s-71.167 37 -118.5 37c-51.333 0 -91.666 -14 -120.999 -42s-44 -65 -44 -111c0 -25.333 5.66699 -49.833 17 -73.5s32.666 -53.167 63.999 -88.5l235 3v-50
l-201 3c19.333 -32.667 29 -64.667 29 -96c0 -34 -9.66699 -65.333 -29 -94s-46 -52 -80 -70z" />
    <glyph glyph-name="currency" unicode="&#xa4;" 
d="M567 360c0 -62.667 -17.998 -116.333 -53.998 -161l100 -97l-35 -35l-97 99c-43.333 -36.667 -97 -55 -161 -55s-117.667 18.333 -161 55l-97 -99l-35 35l100 97c-36 45.333 -54 99 -54 161c0 61.333 18 114.666 54 159.999l-100 97l35 35l98 -99
c45.333 36 98.666 54 159.999 54s114.666 -18 159.999 -54l98 99l35 -35l-100 -97c36 -45.333 54 -98.666 54 -159.999zM181.002 217.001c34.667 -36.667 80.999 -54.999 138.999 -54.999c57.333 0 104 18.333 140 55c35.333 37.333 53 84.666 53 141.999
c0 58 -17.667 105.667 -53 143c-36 36 -82.667 54 -140 54s-103.666 -18 -138.999 -54c-36 -37.333 -54 -85 -54 -143s18 -105.333 54 -142z" />
    <glyph glyph-name="yen" unicode="&#xa5;" 
d="M565 712h70l-248 -369h195v-53h-229v-101h229v-52h-229v-137h-60v137h-229v52h229v101h-229v53h195l-254 369h74l223 -333l22 -36l21 36z" />
    <glyph glyph-name="brokenbar" unicode="&#xa6;" horiz-adv-x="250" 
d="M155 411h-60v336h60v-336zM155 -204h-60v336h60v-336z" />
    <glyph glyph-name="section" unicode="&#xa7;" horiz-adv-x="629" 
d="M557 286c0 -68 -34.002 -114.665 -102.002 -139.998c28 -26.667 42 -61.667 42 -105c0 -46.667 -17.333 -83.834 -52 -111.501s-81 -41.5 -139 -41.5c-59.333 0 -106.166 14.5 -140.499 43.5s-53.5 69.833 -57.5 122.5h57c6 -77.333 53.333 -116 142 -116
c42.667 0 75.667 9 99 27s35 43 35 75c0 54.667 -37 91.667 -111 111l-105 28c-102.667 26.667 -154 78.334 -154 155.001c0 67.333 34.333 114.333 103 141c-28.667 28 -43 62.667 -43 104c0 47.333 17.333 84.666 52 111.999s81.334 41 140.001 41
c60 0 107 -14.333 141 -43s52.667 -69.334 56 -122.001h-56c-6.66699 76.667 -54 115 -142 115c-42.667 0 -75.667 -9 -99 -27s-35 -43 -35 -75c0 -54 36.667 -90.667 110 -110l105 -29c102.667 -28 154 -79.667 154 -155zM408.998 176.002
c62.667 14.667 94 49.665 94 104.998c0 54.667 -40.333 92.334 -121 113.001l-114 32c-20 5.33301 -36.333 11.333 -49 18c-62 -16 -93 -51 -93 -105c0 -55.333 39.667 -92.666 119 -111.999l115 -33c20 -5.33301 36.333 -11.333 49 -18z" />
    <glyph glyph-name="dieresis" unicode="&#xa8;" horiz-adv-x="500" 
d="M182 630h-68v82h68v-82zM386 630h-68v82h68v-82z" />
    <glyph glyph-name="copyright" unicode="&#xa9;" horiz-adv-x="875" 
d="M700 92c-69.333 -70 -156.999 -105 -262.999 -105c-106.667 0 -194.334 35 -263.001 105c-68.667 68.667 -103 156.667 -103 264c0 108 34.333 196.333 103 265c69.333 69.333 157 104 263 104s193.667 -34.667 263 -104c68.667 -68.667 103 -157 103 -265
c0 -107.333 -34.333 -195.333 -103 -264zM207.001 121c59.333 -61.333 136.001 -92 230.001 -92s170.667 30.667 230 92s89 139.666 89 234.999c0 96 -29.667 174.667 -89 236c-58.667 60.667 -135.334 91 -230.001 91c-94 0 -170.667 -30.667 -230 -92
c-60 -61.333 -90 -139.666 -90 -234.999c0 -96 30 -174.333 90 -235zM437.002 172c-48.667 0 -87.001 16.5 -115.001 49.5s-42 78.5 -42 136.5s14 103.167 42 135.5s66.667 48.5 116 48.5c40 0 72.5 -9.5 97.5 -28.5s40.833 -45.833 47.5 -80.5l-43 -7
c-12 49.333 -46 74 -102 74c-36 0 -63.833 -12 -83.5 -36s-29.5 -59.333 -29.5 -106s9.83301 -82.167 29.5 -106.5s47.167 -36.5 82.5 -36.5c56.667 0 91.334 25.333 104.001 76l43 -7c-8.66699 -36 -25.667 -63.667 -51 -83s-57.333 -29 -96 -29z" />
    <glyph glyph-name="ordfeminine" unicode="&#xaa;" horiz-adv-x="488" 
d="M247 725c103.333 0 154.999 -43.001 154.999 -129.001v-224h-42l-5 59c-34 -44.667 -82.333 -67 -145 -67c-38.667 0 -69 9.33301 -91 28s-33 43.667 -33 75c0 30 9.83301 53.833 29.5 71.5s48.167 27.834 85.5 30.501l151 12v22c0 52.667 -34.667 79 -104 79
c-57.333 0 -92.333 -17.333 -105 -52l-45 16c20.667 52.667 70.334 79 149.001 79zM219.999 406.999c37.333 0 68.333 9.83301 93 29.5s37.667 43.167 39 70.5v36l-132 -10c-54.667 -4 -82 -25.333 -82 -64c0 -41.333 27.333 -62 82 -62z" />
    <glyph glyph-name="guillemotleft" unicode="&#xab;" horiz-adv-x="702" 
d="M336 58v-68l-250 234v66l250 234v-68l-211 -199zM616 58v-68l-250 234v66l250 234v-68l-211 -199z" />
    <glyph glyph-name="logicalnot" unicode="&#xac;" 
d="M564 117h-52v213h-436v52h488v-265z" />
    <glyph glyph-name="uni00AD" unicode="&#xad;" horiz-adv-x="378" 
d="M329 222h-280v55h280v-55z" />
    <glyph glyph-name="registered" unicode="&#xae;" horiz-adv-x="632" 
d="M142 654c46.667 46 104.667 69 174 69s127.333 -23 174 -69s70 -102 70 -168s-23.333 -122 -70 -168s-104.667 -69 -174 -69s-127.333 23 -174 69c-47.333 46 -71 102 -71 168s23.667 122 71 168zM167 341c40.667 -39.333 90.334 -58.999 149.001 -58.999
s108.667 19.667 150 59c40 39.333 60 87.666 60 144.999s-20 106 -60 146c-41.333 39.333 -91.333 59 -150 59s-108.334 -19.667 -149.001 -59c-40.667 -40 -61 -88.667 -61 -146c0 -58 20.333 -106.333 61 -145zM414 434.001l3 -42.001c1.33301 -13.333 5.33301 -25 12 -35
h-32c-6 6.66699 -9.33301 18.334 -10 35.001l-3 35c-1.33301 16 -5.5 27.333 -12.5 34s-18.833 10 -35.5 10h-82v-114h-31v265h109c28 0 49.667 -6.33301 65 -19s23 -30.667 23 -54c0 -32 -14.333 -53 -43 -63c22.667 -6.66699 35 -24 37 -52zM254 499h81
c36 0 54 15.667 54 47c0 32 -19 48 -57 48h-78v-95z" />
    <glyph glyph-name="overscore" unicode="&#xaf;" horiz-adv-x="500" 
d="M403 634h-306v47h306v-47z" />
    <glyph glyph-name="degree" unicode="&#xb0;" horiz-adv-x="444" 
d="M343 437c-32 -32 -72.333 -48 -121 -48c-49.333 0 -89.333 16 -120 48c-32 31.333 -48 71.333 -48 120s16 89 48 121c31.333 31.333 71.333 47 120 47c48 0 88.333 -15.667 121 -47c31.333 -32.667 47 -73 47 -121c0 -48.667 -15.667 -88.667 -47 -120zM135 470
c23.333 -23.333 52.333 -35 87 -35s63.667 11.667 87 35c22.667 22.667 34 51.667 34 87c0 36 -11.333 65.333 -34 88s-51.667 34 -87 34s-64.333 -11.333 -87 -34s-34 -52 -34 -88c0 -35.333 11.333 -64.333 34 -87z" />
    <glyph glyph-name="plusminus" unicode="&#xb1;" 
d="M346 575v-179h249v-52h-249v-178h-52v178h-248v52h248v179h52zM585 14h-529v52h529v-52z" />
    <glyph glyph-name="two.sups" unicode="&#xb2;" horiz-adv-x="449" 
d="M386 372l-322 0.000976562c0 82 40.333 142.333 121 181l73 35c50 24 75 54.667 75 92c0 24.667 -9.16699 44.5 -27.5 59.5s-44.166 22.5 -77.499 22.5c-68 0 -103 -33.667 -105 -101h-53c0.666992 47.333 14.667 83.666 42 108.999s66 38 116 38
c48 0 86.167 -11.667 114.5 -35s42.5 -54.333 42.5 -93c0 -28.667 -8.16699 -53.5 -24.5 -74.5s-42.833 -40.167 -79.5 -57.5l-54 -25c-33.333 -16.667 -57.833 -33 -73.5 -49s-24.834 -34.667 -27.501 -56h260v-46z" />
    <glyph glyph-name="three.sups" unicode="&#xb3;" horiz-adv-x="437" 
d="M220 360c-52 0 -93.333 12.167 -124 36.5s-46 57.833 -46 100.5h53c0.666992 -62 40 -93 118 -93c76 0 114 28.333 114 85c0 25.333 -9.5 45.166 -28.5 59.499s-46.167 21.5 -81.5 21.5h-36v46h36c29.333 0 51.833 6.5 67.5 19.5s23.5 30.833 23.5 53.5
c0 24 -9 42.5 -27 55.5s-43 19.5 -75 19.5c-32.667 0 -58.167 -7.16699 -76.5 -21.5s-27.833 -34.833 -28.5 -61.5h-52c0 39.333 13.833 70.333 41.5 93s65.834 34 114.501 34c47.333 0 85.166 -10.333 113.499 -31s42.5 -48.667 42.5 -84c0 -24 -6.5 -44.5 -19.5 -61.5
s-30.833 -28.5 -53.5 -34.5v-1c28 -6.66699 50.167 -19.667 66.5 -39s24.5 -42.666 24.5 -69.999c0 -38 -15.167 -68.667 -45.5 -92s-70.833 -35 -121.5 -35z" />
    <glyph glyph-name="acute" unicode="&#xb4;" horiz-adv-x="500" 
d="M214 601h-55l101 152h81z" />
    <glyph glyph-name="uni00B5" unicode="&#xb5;" horiz-adv-x="589" 
d="M146 -204h-60.002v720h60v-337c0 -44.667 11 -79 33 -103s54 -36 96 -36c50.667 0 91.334 16.333 122.001 49s46 80.667 46 144v283h60v-516h-58l3 102c-34 -76.667 -94 -115 -180 -115c-61.333 0 -105.666 22.667 -132.999 68l-2 -2l13 -152v-105z" />
    <glyph glyph-name="paragraph" unicode="&#xb6;" horiz-adv-x="595" 
d="M305 -103l-52 -0.00195312v461c-66 0 -116.667 15.333 -152 46s-53 74.334 -53 131.001s17.667 100.334 53 131.001s86 46 152 46h247v-815h-52v762h-143v-762z" />
    <glyph glyph-name="middot" unicode="&#xb7;" horiz-adv-x="344" 
d="M214 313h-84v78h84v-78z" />
    <glyph glyph-name="cedilla" unicode="&#xb8;" horiz-adv-x="500" 
d="M210 -232h-34.999v38h31c52.667 0 79 16 79 48c0 27.333 -18.333 41 -55 41h-42l-19 32l46 73h38l-41 -65h27c30 0 53.167 -6.83301 69.5 -20.5s24.5 -33.167 24.5 -58.5c0 -27.333 -10.833 -48.833 -32.5 -64.5s-51.834 -23.5 -90.501 -23.5z" />
    <glyph glyph-name="one.sups" unicode="&#xb9;" horiz-adv-x="304" 
d="M218 372h-50.999v297h-124v41h66c39.333 0 60.666 15 63.999 45l1 44h44v-427z" />
    <glyph glyph-name="ordmasculine" unicode="&#xba;" horiz-adv-x="458" 
d="M230 364c-52 0 -94.332 17 -126.999 51c-32.667 32.667 -49 75.667 -49 129c0 54 16.333 97.667 49 131c33.333 33.333 75.666 50 126.999 50c50.667 0 92.667 -16.667 126 -50c32.667 -33.333 49 -77 49 -131c0 -53.333 -16.333 -96.333 -49 -129
c-33.333 -34 -75.333 -51 -126 -51zM230.001 407c37.333 0 67.167 12.333 89.5 37s33.5 58 33.5 100c0 43.333 -11 77.166 -33 101.499s-52 36.5 -90 36.5c-38.667 0 -69.167 -12.167 -91.5 -36.5s-33.5 -58.166 -33.5 -101.499c0 -42 11.333 -75.333 34 -100s53 -37 91 -37
z" />
    <glyph glyph-name="guillemotright" unicode="&#xbb;" horiz-adv-x="702" 
d="M336 224l-250 -234v68l211 199l-211 199v68l250 -234v-66zM616 224l-250 -234v68l211 199l-211 199v68l250 -234v-66z" />
    <glyph glyph-name="onequarter" unicode="&#xbc;" horiz-adv-x="1055" 
d="M269 321h-51v297h-123v41h66c39.333 0 60.333 15 63 45l2 44h43v-427zM300 -15h-61l448 742h60zM885 0h-51v107l-230 -1v45l227 276h54v-280l75 1v-42l-75 1v-107zM831 365l-179 -217l182 -1v218h-3z" />
    <glyph glyph-name="onehalf" unicode="&#xbd;" horiz-adv-x="1084" 
d="M269 321h-51v297h-123v41h66c39.333 0 60.333 15 63 45l2 44h43v-427zM300 -15h-61l448 742h60zM988 0h-321c0 82 40.333 142.333 121 181l73 35c49.333 22.667 74 53.334 74 92.001c0 24.667 -9 44.5 -27 59.5s-43.667 22.5 -77 22.5c-68 0 -103 -33.667 -105 -101h-53
c0.666992 47.333 14.667 83.666 42 108.999s66 38 116 38c48 0 86.167 -11.667 114.5 -35s42.5 -54.333 42.5 -93c0 -28.667 -8.16699 -53.5 -24.5 -74.5s-42.833 -40.167 -79.5 -57.5l-54 -25c-34 -16 -58.667 -32 -74 -48s-24.333 -35 -27 -57h259v-46z" />
    <glyph glyph-name="threequarters" unicode="&#xbe;" horiz-adv-x="1137" 
d="M256 309c-52 0 -93.333 12.167 -124 36.5s-46 57.833 -46 100.5h53c0.666992 -62 40 -93 118 -93c76 0 114 28.333 114 85c0 25.333 -9.5 45.166 -28.5 59.499s-46.167 21.5 -81.5 21.5h-36v46h36c29.333 0 51.833 6.5 67.5 19.5s23.5 30.833 23.5 53.5
c0 24 -9 42.5 -27 55.5s-43 19.5 -75 19.5c-32.667 0 -58.167 -7.16699 -76.5 -21.5s-27.833 -34.833 -28.5 -61.5h-52c0 39.333 13.833 70.333 41.5 93s65.834 34 114.501 34c47.333 0 85.166 -10.333 113.499 -31s42.5 -48.667 42.5 -84c0 -24 -6.5 -44.5 -19.5 -61.5
s-30.833 -28.5 -53.5 -34.5v-1c28 -6.66699 50.167 -19.667 66.5 -39s24.5 -42.666 24.5 -69.999c0 -38 -15.167 -68.667 -45.5 -92s-70.833 -35 -121.5 -35zM390 -15h-61l448 742h60zM975 0h-51v107l-229 -1v45l226 276h54v-280l76 1v-42l-76 1v-107zM921 365l-179 -217
l182 -1v218h-3z" />
    <glyph glyph-name="questiondown" unicode="&#xbf;" horiz-adv-x="608" 
d="M359 441h-76v75h76v-75zM307 -206c-72.667 0 -130.002 16.8311 -172.002 50.498s-63 80.834 -63 141.501c0 72 35.667 130 107 174l40 25c30 18.667 50 38.334 60 59.001c9.33301 20 14 49.333 14 88v12h57v-26c0 -44 -8 -79.333 -24 -106
c-17.333 -27.333 -48.666 -54.333 -93.999 -81c-69.333 -39.333 -104 -88 -104 -146c0 -45.333 16 -80.333 48 -105s75.667 -37 131 -37c116 0 178 58 186 174h58c-3.33301 -71.333 -25.666 -126.333 -66.999 -165s-100.333 -58 -177 -58z" />
    <glyph glyph-name="Agrave" unicode="&#xc0;" horiz-adv-x="716" 
d="M306 949l100 -152h-54l-128 152h82zM682 0h-67l-88 223h-339l-89 -223h-65l291 713h67zM343 610l-134 -334h297l-131 334l-16 50z" />
    <glyph glyph-name="Aacute" unicode="&#xc1;" horiz-adv-x="716" 
d="M406 949h81l-128 -152h-54zM682 0h-67l-88 223h-339l-89 -223h-65l291 713h67zM343 610l-134 -334h297l-131 334l-16 50z" />
    <glyph glyph-name="Acircumflex" unicode="&#xc2;" horiz-adv-x="716" 
d="M453 791l-95 121l-95 -121h-63l127 158h62l127 -158h-63zM682 0h-67l-88 223h-339l-89 -223h-65l291 713h67zM343 610l-134 -334h297l-131 334l-16 50z" />
    <glyph glyph-name="Atilde" unicode="&#xc3;" horiz-adv-x="716" 
d="M275 913c-36 0 -55.333 -35.332 -58 -105.999h-47c2 101.333 37 152 105 152c19.333 0 37.333 -5.16699 54 -15.5s29.667 -22.5 39 -36.5c22 -35.333 46.333 -53 73 -53c18.667 0 32.667 8.16699 42 24.5s14.666 43.166 15.999 80.499h47c-2 -101.333 -37 -152 -105 -152
c-19.333 0 -37.166 5.16699 -53.499 15.5s-28.833 22.833 -37.5 37.5c-22 35.333 -47 53 -75 53zM682 0.000976562h-67l-88 223h-339l-89 -223h-65l291 713h67zM343 610.001l-134 -334h297l-131 334l-16 50z" />
    <glyph glyph-name="Adieresis" unicode="&#xc4;" horiz-adv-x="716" 
d="M222 893h68v-83h-68v83zM426 893h68v-83h-68v83zM682 0h-67l-88 223h-339l-89 -223h-65l291 713h67zM343 610l-134 -334h297l-131 334l-16 50z" />
    <glyph glyph-name="Aring" unicode="&#xc5;" horiz-adv-x="716" 
d="M682 0h-67l-88 223h-339l-89 -223h-65l278 680c-24 8.66699 -43.167 23.334 -57.5 44.001s-21.5 44.667 -21.5 72c0 36 11.833 65.833 35.5 89.5s53.5 35.5 89.5 35.5s65.833 -11.833 89.5 -35.5s35.5 -53.5 35.5 -89.5c0 -26.667 -7 -50.334 -21 -71.001
s-33 -35.667 -57 -45zM276 796c0 -24.667 7.66699 -44.5 23 -59.5s35 -22.5 59 -22.5s43.667 7.5 59 22.5s23 34.833 23 59.5c0 25.333 -7.66699 45.5 -23 60.5s-35 22.5 -59 22.5s-43.667 -7.5 -59 -22.5s-23 -35.167 -23 -60.5zM343 610l-134 -334h297l-131 334l-16 50z
" />
    <glyph glyph-name="AE" unicode="&#xc6;" horiz-adv-x="1135" 
d="M626 343v-290h440v-53h-501v210h-336l-131 -210h-64l443 712h576v-53h-427v-263h397v-53h-397zM510 662l-250 -402h305v402h-55z" />
    <glyph glyph-name="Ccedilla" unicode="&#xc7;" horiz-adv-x="734" 
d="M624 251h60c-8.66699 -78.667 -39 -142.334 -91 -191.001c-53.333 -49.333 -119 -74.333 -197 -75l-36 -57h27c30 0 53.167 -6.83301 69.5 -20.5s24.5 -33.167 24.5 -58.5c0 -27.333 -10.833 -48.833 -32.5 -64.5s-51.834 -23.5 -90.501 -23.5h-35v38h31
c52.667 0 79 16 79 48c0 27.333 -18.333 41 -55 41h-42l-19 32l42 66c-89.333 7.33301 -159.666 45 -210.999 113c-51.333 68.667 -77 154.667 -77 258c0 111.333 29 200.333 87 267c57.333 67.333 134 101 230 101c74.667 0 139.667 -21 195 -63
c54 -42.667 86 -97.667 96 -165h-62c-10.667 52.667 -36.5 94.667 -77.5 126s-90.833 47 -149.5 47c-78.667 0 -141 -28 -187 -84c-46.667 -55.333 -70 -131.666 -70 -228.999c0 -96 23 -172.667 69 -230c45.333 -58 108.333 -87 189 -87c64 0 117.167 19 159.5 57
s66.833 89.333 73.5 154z" />
    <glyph glyph-name="Egrave" unicode="&#xc8;" horiz-adv-x="665" 
d="M296 949l100 -152h-54l-128 152h82zM155 343v-290h441v-53h-501v712h488v-53h-428v-263h397v-53h-397z" />
    <glyph glyph-name="Eacute" unicode="&#xc9;" horiz-adv-x="665" 
d="M396 949h81l-128 -152h-54zM155 343v-290h441v-53h-501v712h488v-53h-428v-263h397v-53h-397z" />
    <glyph glyph-name="Ecircumflex" unicode="&#xca;" horiz-adv-x="665" 
d="M443 791l-95 121l-95 -121h-63l127 158h62l127 -158h-63zM155 343v-290h441v-53h-501v712h488v-53h-428v-263h397v-53h-397z" />
    <glyph glyph-name="Edieresis" unicode="&#xcb;" horiz-adv-x="665" 
d="M212 893h68v-83h-68v83zM416 893h68v-83h-68v83zM155 343v-290h441v-53h-501v712h488v-53h-428v-263h397v-53h-397z" />
    <glyph glyph-name="Igrave" unicode="&#xcc;" horiz-adv-x="250" 
d="M173 797h-54l-128 152h82zM155 0h-60v712h60v-712z" />
    <glyph glyph-name="Iacute" unicode="&#xcd;" horiz-adv-x="250" 
d="M126 797h-54l101 152h81zM155 0h-60v712h60v-712z" />
    <glyph glyph-name="Icircumflex" unicode="&#xce;" horiz-adv-x="250" 
d="M30 791h-63l127 158h62l127 -158h-63l-95 121zM155 0h-60v712h60v-712z" />
    <glyph glyph-name="Idieresis" unicode="&#xcf;" horiz-adv-x="250" 
d="M57 810h-68v83h68v-83zM261 810h-68v83h68v-83zM155 0h-60v712h60v-712z" />
    <glyph glyph-name="Eth" unicode="&#xd0;" horiz-adv-x="807" 
d="M180 712h247.001c103.333 0 181.666 -31 234.999 -93s80 -149.667 80 -263s-28 -201 -84 -263s-138.333 -93 -247 -93h-231v337l-148 -3v54l148 -4v328zM241.001 53h168c181.333 0 272 101 272 303s-88.333 303 -265 303h-175v-275l206 4v-54l-206 3v-284z" />
    <glyph glyph-name="Ntilde" unicode="&#xd1;" horiz-adv-x="739" 
d="M286 913c-36 0 -55.333 -35.332 -58 -105.999h-47c2 101.333 37 152 105 152c19.333 0 37.333 -5.16699 54 -15.5s29.667 -22.5 39 -36.5c22 -35.333 46.333 -53 73 -53c18.667 0 32.667 8.16699 42 24.5s14.666 43.166 15.999 80.499h47c-2 -101.333 -37 -152 -105 -152
c-19.333 0 -37.166 5.16699 -53.499 15.5s-28.833 22.833 -37.5 37.5c-22 35.333 -47 53 -75 53zM586 84.001v628h58v-712h-68l-424 626v-626h-57v712h65z" />
    <glyph glyph-name="Ograve" unicode="&#xd2;" horiz-adv-x="807" 
d="M450 797h-54l-128 152h82zM403 -15c-98.667 0 -178.668 34.668 -240.001 104.001s-92 158.333 -92 267c0 108 30.667 196.667 92 266c60.667 68.667 140.667 103 240 103c100.667 0 181.334 -34.333 242.001 -103s91 -157.334 91 -266.001
c0 -109.333 -30.333 -198.333 -91 -267c-61.333 -69.333 -142 -104 -242 -104zM402.999 40.001c82 0 147.666 29.001 196.999 87.001c49.333 57.333 74 133.666 74 228.999c0 94.667 -24.667 170.667 -74 228c-50 57.333 -115.667 86 -197 86s-146.666 -28.667 -195.999 -86
s-74 -133.333 -74 -228s25 -171 75 -229c49.333 -58 114.333 -87 195 -87z" />
    <glyph glyph-name="Oacute" unicode="&#xd3;" horiz-adv-x="807" 
d="M403 797h-54l101 152h81zM403 -15c-98.667 0 -178.668 34.668 -240.001 104.001s-92 158.333 -92 267c0 108 30.667 196.667 92 266c60.667 68.667 140.667 103 240 103c100.667 0 181.334 -34.333 242.001 -103s91 -157.334 91 -266.001
c0 -109.333 -30.333 -198.333 -91 -267c-61.333 -69.333 -142 -104 -242 -104zM402.999 40.001c82 0 147.666 29.001 196.999 87.001c49.333 57.333 74 133.666 74 228.999c0 94.667 -24.667 170.667 -74 228c-50 57.333 -115.667 86 -197 86s-146.666 -28.667 -195.999 -86
s-74 -133.333 -74 -228s25 -171 75 -229c49.333 -58 114.333 -87 195 -87z" />
    <glyph glyph-name="Ocircumflex" unicode="&#xd4;" horiz-adv-x="807" 
d="M307 791h-63l127 158h62l127 -158h-63l-95 121zM403 -15c-98.667 0 -178.668 34.668 -240.001 104.001s-92 158.333 -92 267c0 108 30.667 196.667 92 266c60.667 68.667 140.667 103 240 103c100.667 0 181.334 -34.333 242.001 -103s91 -157.334 91 -266.001
c0 -109.333 -30.333 -198.333 -91 -267c-61.333 -69.333 -142 -104 -242 -104zM402.999 40.001c82 0 147.666 29.001 196.999 87.001c49.333 57.333 74 133.666 74 228.999c0 94.667 -24.667 170.667 -74 228c-50 57.333 -115.667 86 -197 86s-146.666 -28.667 -195.999 -86
s-74 -133.333 -74 -228s25 -171 75 -229c49.333 -58 114.333 -87 195 -87z" />
    <glyph glyph-name="Otilde" unicode="&#xd5;" horiz-adv-x="807" 
d="M261 807l-47 0.000976562c2 101.333 37 152 105 152c19.333 0 37.333 -5.16699 54 -15.5s29.667 -22.5 39 -36.5c22 -35.333 46.333 -53 73 -53c18.667 0 32.667 8.16699 42 24.5s14.666 43.166 15.999 80.499h47c-2 -101.333 -37 -152 -105 -152
c-19.333 0 -37.166 5.16699 -53.499 15.5s-28.833 22.833 -37.5 37.5c-22 35.333 -47 53 -75 53c-36 0 -55.333 -35.333 -58 -106zM403 -14.999c-98.667 0 -178.668 34.668 -240.001 104.001s-92 158.333 -92 267c0 108 30.667 196.667 92 266
c60.667 68.667 140.667 103 240 103c100.667 0 181.334 -34.333 242.001 -103s91 -157.334 91 -266.001c0 -109.333 -30.333 -198.333 -91 -267c-61.333 -69.333 -142 -104 -242 -104zM402.999 40.002c82 0 147.666 29.001 196.999 87.001
c49.333 57.333 74 133.666 74 228.999c0 94.667 -24.667 170.667 -74 228c-50 57.333 -115.667 86 -197 86s-146.666 -28.667 -195.999 -86s-74 -133.333 -74 -228s25 -171 75 -229c49.333 -58 114.333 -87 195 -87z" />
    <glyph glyph-name="Odieresis" unicode="&#xd6;" horiz-adv-x="807" 
d="M334 810h-68v83h68v-83zM538 810h-68v83h68v-83zM403 -15c-98.667 0 -178.668 34.668 -240.001 104.001s-92 158.333 -92 267c0 108 30.667 196.667 92 266c60.667 68.667 140.667 103 240 103c100.667 0 181.334 -34.333 242.001 -103s91 -157.334 91 -266.001
c0 -109.333 -30.333 -198.333 -91 -267c-61.333 -69.333 -142 -104 -242 -104zM402.999 40.001c82 0 147.666 29.001 196.999 87.001c49.333 57.333 74 133.666 74 228.999c0 94.667 -24.667 170.667 -74 228c-50 57.333 -115.667 86 -197 86s-146.666 -28.667 -195.999 -86
s-74 -133.333 -74 -228s25 -171 75 -229c49.333 -58 114.333 -87 195 -87z" />
    <glyph glyph-name="multiply" unicode="&#xd7;" 
d="M320 275l-213 -213l-35 35l213 213l-213 212l35 35l213 -213l212 213l36 -34l-213 -213l213 -214l-36 -34z" />
    <glyph glyph-name="Oslash" unicode="&#xd8;" horiz-adv-x="807" 
d="M731 691l-73 -84.999c52 -66.667 78 -150 78 -250c0 -109.333 -30.333 -198.333 -91 -267c-61.333 -69.333 -142 -104 -242 -104c-85.333 0 -157.333 26.333 -216 79l-64 -73l-34 29l67 77c-56.667 67.333 -85 153.666 -85 258.999c0 108 30.667 196.667 92 266
c60.667 68.667 140.667 103 240 103c90 0 164.667 -28.333 224 -85l70 80zM133 356.001c0 -85.333 20.666 -156.667 61.999 -214l394 454c-49.333 49.333 -111.333 74 -186 74c-81.333 0 -146.666 -28.667 -195.999 -86s-74 -133.333 -74 -228zM402.999 40
c82 0 147.668 29.001 197.001 87.001c49.333 57.333 74 133.666 74 228.999c0 81.333 -18.667 149.333 -56 204l-393 -452c49.333 -45.333 108.666 -68 177.999 -68z" />
    <glyph glyph-name="Ugrave" unicode="&#xd9;" horiz-adv-x="728" 
d="M412 797h-54l-128 152h82zM561 47c-47.333 -40.667 -113 -61 -197 -61s-149.667 20.333 -197 61c-48 40 -72 101 -72 183v482h60v-484c0 -125.333 69.667 -188 209 -188s209 62.667 209 188v484h60v-482c0 -82 -24 -143 -72 -183z" />
    <glyph glyph-name="Uacute" unicode="&#xda;" horiz-adv-x="728" 
d="M365 797h-54l101 152h81zM561 47c-47.333 -40.667 -113 -61 -197 -61s-149.667 20.333 -197 61c-48 40 -72 101 -72 183v482h60v-484c0 -125.333 69.667 -188 209 -188s209 62.667 209 188v484h60v-482c0 -82 -24 -143 -72 -183z" />
    <glyph glyph-name="Ucircumflex" unicode="&#xdb;" horiz-adv-x="728" 
d="M269 791h-63l127 158h62l127 -158h-63l-95 121zM561 47c-47.333 -40.667 -113 -61 -197 -61s-149.667 20.333 -197 61c-48 40 -72 101 -72 183v482h60v-484c0 -125.333 69.667 -188 209 -188s209 62.667 209 188v484h60v-482c0 -82 -24 -143 -72 -183z" />
    <glyph glyph-name="Udieresis" unicode="&#xdc;" horiz-adv-x="728" 
d="M296 810h-68v83h68v-83zM500 810h-68v83h68v-83zM561 47c-47.333 -40.667 -113 -61 -197 -61s-149.667 20.333 -197 61c-48 40 -72 101 -72 183v482h60v-484c0 -125.333 69.667 -188 209 -188s209 62.667 209 188v484h60v-482c0 -82 -24 -143 -72 -183z" />
    <glyph glyph-name="Yacute" unicode="&#xdd;" horiz-adv-x="677" 
d="M386 949h81l-128 -152h-54zM584 712h69l-281 -421v-291h-61v290l-287 422h73l223 -337l22 -37l21 37z" />
    <glyph glyph-name="Thorn" unicode="&#xde;" horiz-adv-x="648" 
d="M155 573h224c68.667 0 122.667 -17.333 162 -52s59 -83.667 59 -147c0 -64 -20 -114 -60 -150s-96 -54 -168 -54h-217v-170h-60v712h60v-139zM155 223h219.001c53.333 0 94.166 13 122.499 39s42.5 63 42.5 111c0 46.667 -14.333 82.667 -43 108s-68.667 38 -120 38h-221
v-296z" />
    <glyph glyph-name="germandbls" unicode="&#xdf;" horiz-adv-x="601" 
d="M377 394c113.333 -21.333 170.001 -83.998 170.001 -187.998c0 -65.333 -21.167 -116 -63.5 -152s-100.833 -54 -175.5 -54h-66v51h71c56 0 99 13.5 129 40.5s45 65.167 45 114.5c0 104 -62.667 156 -188 156h-57v51h49c49.333 0 88 11.5 116 34.5s42 55.167 42 96.5
c0 40.667 -13.333 72.5 -40 95.5s-64 34.5 -112 34.5c-49.333 0 -86.833 -12.333 -112.5 -37s-38.5 -60.334 -38.5 -107.001v-530h-60v518c0 67.333 18.167 118.666 54.5 153.999s89.166 53 158.499 53c66.667 0 118.5 -15.833 155.5 -47.5s55.5 -74.167 55.5 -127.5
c0 -40 -11.333 -73.5 -34 -100.5s-55.667 -45.5 -99 -55.5z" />
    <glyph glyph-name="agrave" unicode="&#xe0;" horiz-adv-x="574" 
d="M232 753l100 -152h-54l-128 152h82zM542 46l15.998 0.000976562v-46h-33c-33.333 0 -57.666 7.66699 -72.999 23s-23.666 40 -24.999 74c-16 -34 -41.333 -60.833 -76 -80.5s-75 -29.5 -121 -29.5c-54.667 0 -97.334 13.333 -128.001 40s-46 62.667 -46 108
c0 87.333 56 138.666 168 153.999l130 17c24.667 4 41.667 10.833 51 20.5s14 23.834 14 42.501v13c0 65.333 -46.333 98 -139 98c-46 0 -80.167 -8.66699 -102.5 -26s-35.5 -45.333 -39.5 -84h-60c8.66699 106.667 77.334 160 206.001 160
c63.333 0 111.833 -13.333 145.5 -40s50.5 -64.334 50.5 -113.001v-260c0 -26 4.5 -44.333 13.5 -55s25.167 -16 48.5 -16zM239.998 35.001c48.667 0 89.5 13.332 122.5 39.999s51.833 62.667 56.5 108v95c-9.33301 -6.66699 -23.333 -11.334 -42 -14.001l-143 -21
c-79.333 -11.333 -119 -46.666 -119 -105.999c0 -31.333 11 -56.166 33 -74.499s52.667 -27.5 92 -27.5z" />
    <glyph glyph-name="aacute" unicode="&#xe1;" horiz-adv-x="574" 
d="M332 753h81l-128 -152h-54zM542 46l15.998 0.000976562v-46h-33c-33.333 0 -57.666 7.66699 -72.999 23s-23.666 40 -24.999 74c-16 -34 -41.333 -60.833 -76 -80.5s-75 -29.5 -121 -29.5c-54.667 0 -97.334 13.333 -128.001 40s-46 62.667 -46 108
c0 87.333 56 138.666 168 153.999l130 17c24.667 4 41.667 10.833 51 20.5s14 23.834 14 42.501v13c0 65.333 -46.333 98 -139 98c-46 0 -80.167 -8.66699 -102.5 -26s-35.5 -45.333 -39.5 -84h-60c8.66699 106.667 77.334 160 206.001 160
c63.333 0 111.833 -13.333 145.5 -40s50.5 -64.334 50.5 -113.001v-260c0 -26 4.5 -44.333 13.5 -55s25.167 -16 48.5 -16zM239.998 35.001c48.667 0 89.5 13.332 122.5 39.999s51.833 62.667 56.5 108v95c-9.33301 -6.66699 -23.333 -11.334 -42 -14.001l-143 -21
c-79.333 -11.333 -119 -46.666 -119 -105.999c0 -31.333 11 -56.166 33 -74.499s52.667 -27.5 92 -27.5z" />
    <glyph glyph-name="acircumflex" unicode="&#xe2;" horiz-adv-x="574" 
d="M379 595l-95 121l-95 -121h-63l127 158h62l127 -158h-63zM542 46l15.998 0.000976562v-46h-33c-33.333 0 -57.666 7.66699 -72.999 23s-23.666 40 -24.999 74c-16 -34 -41.333 -60.833 -76 -80.5s-75 -29.5 -121 -29.5c-54.667 0 -97.334 13.333 -128.001 40
s-46 62.667 -46 108c0 87.333 56 138.666 168 153.999l130 17c24.667 4 41.667 10.833 51 20.5s14 23.834 14 42.501v13c0 65.333 -46.333 98 -139 98c-46 0 -80.167 -8.66699 -102.5 -26s-35.5 -45.333 -39.5 -84h-60c8.66699 106.667 77.334 160 206.001 160
c63.333 0 111.833 -13.333 145.5 -40s50.5 -64.334 50.5 -113.001v-260c0 -26 4.5 -44.333 13.5 -55s25.167 -16 48.5 -16zM239.998 35.001c48.667 0 89.5 13.332 122.5 39.999s51.833 62.667 56.5 108v95c-9.33301 -6.66699 -23.333 -11.334 -42 -14.001l-143 -21
c-79.333 -11.333 -119 -46.666 -119 -105.999c0 -31.333 11 -56.166 33 -74.499s52.667 -27.5 92 -27.5z" />
    <glyph glyph-name="atilde" unicode="&#xe3;" horiz-adv-x="574" 
d="M201 717c-36 0 -55.333 -35.332 -58 -105.999h-47c2 101.333 37 152 105 152c19.333 0 37.333 -5.16699 54 -15.5s29.667 -22.5 39 -36.5c22 -35.333 46.333 -53 73 -53c18.667 0 32.667 8.16699 42 24.5s14.666 43.166 15.999 80.499h47c-2 -101.333 -37 -152 -105 -152
c-19.333 0 -37.166 5.16699 -53.499 15.5s-28.833 22.833 -37.5 37.5c-22 35.333 -47 53 -75 53zM542 46.001l15.998 0.000976562v-46h-33c-33.333 0 -57.666 7.66699 -72.999 23s-23.666 40 -24.999 74c-16 -34 -41.333 -60.833 -76 -80.5s-75 -29.5 -121 -29.5
c-54.667 0 -97.334 13.333 -128.001 40s-46 62.667 -46 108c0 87.333 56 138.666 168 153.999l130 17c24.667 4 41.667 10.833 51 20.5s14 23.834 14 42.501v13c0 65.333 -46.333 98 -139 98c-46 0 -80.167 -8.66699 -102.5 -26s-35.5 -45.333 -39.5 -84h-60
c8.66699 106.667 77.334 160 206.001 160c63.333 0 111.833 -13.333 145.5 -40s50.5 -64.334 50.5 -113.001v-260c0 -26 4.5 -44.333 13.5 -55s25.167 -16 48.5 -16zM239.998 35.002c48.667 0 89.5 13.332 122.5 39.999s51.833 62.667 56.5 108v95
c-9.33301 -6.66699 -23.333 -11.334 -42 -14.001l-143 -21c-79.333 -11.333 -119 -46.666 -119 -105.999c0 -31.333 11 -56.166 33 -74.499s52.667 -27.5 92 -27.5z" />
    <glyph glyph-name="adieresis" unicode="&#xe4;" horiz-adv-x="574" 
d="M148 712h68v-82h-68v82zM352 712h68v-82h-68v82zM542 46l15.998 0.000976562v-46h-33c-33.333 0 -57.666 7.66699 -72.999 23s-23.666 40 -24.999 74c-16 -34 -41.333 -60.833 -76 -80.5s-75 -29.5 -121 -29.5c-54.667 0 -97.334 13.333 -128.001 40s-46 62.667 -46 108
c0 87.333 56 138.666 168 153.999l130 17c24.667 4 41.667 10.833 51 20.5s14 23.834 14 42.501v13c0 65.333 -46.333 98 -139 98c-46 0 -80.167 -8.66699 -102.5 -26s-35.5 -45.333 -39.5 -84h-60c8.66699 106.667 77.334 160 206.001 160
c63.333 0 111.833 -13.333 145.5 -40s50.5 -64.334 50.5 -113.001v-260c0 -26 4.5 -44.333 13.5 -55s25.167 -16 48.5 -16zM239.998 35.001c48.667 0 89.5 13.332 122.5 39.999s51.833 62.667 56.5 108v95c-9.33301 -6.66699 -23.333 -11.334 -42 -14.001l-143 -21
c-79.333 -11.333 -119 -46.666 -119 -105.999c0 -31.333 11 -56.166 33 -74.499s52.667 -27.5 92 -27.5z" />
    <glyph glyph-name="aring" unicode="&#xe5;" horiz-adv-x="574" 
d="M374 627c-24 -24 -54 -36 -90 -36s-65.667 12 -89 36c-24 23.333 -36 52.666 -36 87.999c0 36 11.833 65.833 35.5 89.5s53.5 35.5 89.5 35.5s65.833 -11.833 89.5 -35.5s35.5 -53.5 35.5 -89.5c0 -35.333 -11.667 -64.666 -35 -87.999zM343 776
c-15.333 14.667 -35 22 -59 22s-43.667 -7.33301 -59 -22c-15.333 -15.333 -23 -35.666 -23 -60.999c0 -24.667 7.66699 -44.5 23 -59.5s35 -22.5 59 -22.5s43.667 7.5 59 22.5s23 34.833 23 59.5c0 25.333 -7.66699 45.666 -23 60.999zM542 46l15.998 0.000976562v-46h-33
c-33.333 0 -57.666 7.66699 -72.999 23s-23.666 40 -24.999 74c-16 -34 -41.333 -60.833 -76 -80.5s-75 -29.5 -121 -29.5c-54.667 0 -97.334 13.333 -128.001 40s-46 62.667 -46 108c0 87.333 56 138.666 168 153.999l130 17c24.667 4 41.667 10.833 51 20.5
s14 23.834 14 42.501v13c0 65.333 -46.333 98 -139 98c-46 0 -80.167 -8.66699 -102.5 -26s-35.5 -45.333 -39.5 -84h-60c8.66699 106.667 77.334 160 206.001 160c63.333 0 111.833 -13.333 145.5 -40s50.5 -64.334 50.5 -113.001v-260c0 -26 4.5 -44.333 13.5 -55
s25.167 -16 48.5 -16zM239.998 35.001c48.667 0 89.5 13.332 122.5 39.999s51.833 62.667 56.5 108v95c-9.33301 -6.66699 -23.333 -11.334 -42 -14.001l-143 -21c-79.333 -11.333 -119 -46.666 -119 -105.999c0 -31.333 11 -56.166 33 -74.499s52.667 -27.5 92 -27.5z" />
    <glyph glyph-name="ae" unicode="&#xe6;" horiz-adv-x="934" 
d="M881 276l-0.000976562 -26.001h-406c0 -66.667 16 -118.667 48 -156s76 -56 132 -56c82.667 0 137.334 39.333 164.001 118l54 -8c-14 -48.667 -40.333 -87.5 -79 -116.5s-85.667 -43.5 -141 -43.5c-48 0 -89.667 11.167 -125 33.5s-62 54.5 -80 96.5
c-37.333 -87.333 -107.666 -131 -210.999 -131c-56 0 -100.167 14 -132.5 42s-48.5 65.333 -48.5 112s16.167 83.834 48.5 111.501s78.833 41.5 139.5 41.5h174v71c0 36.667 -12 65 -36 85s-59.667 30 -107 30c-44 0 -76.833 -8.83301 -98.5 -26.5
s-34.834 -45.5 -39.501 -83.5h-59c8.66699 106.667 75.667 160 201 160c99.333 0 160.333 -34 183 -102c40 66.667 102.667 100 188 100c70.667 0 127 -23 169 -69c41.333 -46.667 62 -107.667 62 -183zM650.999 477.999c-50.667 0 -91.5 -16.167 -122.5 -48.5
s-48.5 -77.5 -52.5 -135.5h348c-4 58 -21 103.167 -51 135.5s-70.667 48.5 -122 48.5zM241.999 34.999c51.333 0 93.332 15.332 125.999 45.999s49.334 72.334 50.001 125.001v44l-178 -5c-40.667 -0.666992 -71.667 -10.167 -93 -28.5s-32 -43.5 -32 -75.5
c0 -32.667 11.333 -58.5 34 -77.5s53.667 -28.5 93 -28.5z" />
    <glyph glyph-name="ccedilla" unicode="&#xe7;" horiz-adv-x="550" 
d="M290 38c87.333 0 139.001 46.002 155.001 138.002h56c-7.33301 -56.667 -28.166 -101.667 -62.499 -135s-79.5 -51.333 -135.5 -54l-37 -58h27c30 0 53.167 -6.83301 69.5 -20.5s24.5 -33.167 24.5 -58.5c0 -27.333 -10.833 -48.833 -32.5 -64.5
s-51.834 -23.5 -90.501 -23.5h-35v38h31c52.667 0 79 16 79 48c0 27.333 -18.333 41 -55 41h-42l-19 32l42 67c-66 4.66699 -117.667 30.5 -155 77.5s-56 110.5 -56 190.5c0 85.333 21 152.166 63 200.499s99.667 72.5 173 72.5c59.333 0 107.5 -16 144.5 -48
s59.5 -75 67.5 -129h-57c-6.66699 39.333 -23.334 70.166 -50.001 92.499s-61.667 33.5 -105 33.5c-57.333 0 -101 -19.167 -131 -57.5s-45 -92.5 -45 -162.5c0 -69.333 15.333 -123.333 46 -162s74 -58 130 -58z" />
    <glyph glyph-name="egrave" unicode="&#xe8;" horiz-adv-x="573" 
d="M237 753l100 -152h-54l-128 152h82zM520 276l-0.000976562 -26.001h-406c0 -66.667 16 -118.667 48 -156s76 -56 132 -56c84.667 0 139.334 39.333 164.001 118l55 -8c-14 -48.667 -40.333 -87.5 -79 -116.5s-85.667 -43.5 -141 -43.5c-74 0 -132.333 25 -175 75
c-42.667 48.667 -64 114.334 -64 197.001c0 81.333 21 146.333 63 195s99.333 73 172 73c70.667 0 127 -23 169 -69c41.333 -46.667 62 -107.667 62 -183zM289.999 477.999c-50.667 0 -91.5 -16.167 -122.5 -48.5s-48.5 -77.5 -52.5 -135.5h349
c-4.66699 58 -22 103.167 -52 135.5s-70.667 48.5 -122 48.5z" />
    <glyph glyph-name="eacute" unicode="&#xe9;" horiz-adv-x="573" 
d="M337 753h81l-128 -152h-54zM520 276l-0.000976562 -26.001h-406c0 -66.667 16 -118.667 48 -156s76 -56 132 -56c84.667 0 139.334 39.333 164.001 118l55 -8c-14 -48.667 -40.333 -87.5 -79 -116.5s-85.667 -43.5 -141 -43.5c-74 0 -132.333 25 -175 75
c-42.667 48.667 -64 114.334 -64 197.001c0 81.333 21 146.333 63 195s99.333 73 172 73c70.667 0 127 -23 169 -69c41.333 -46.667 62 -107.667 62 -183zM289.999 477.999c-50.667 0 -91.5 -16.167 -122.5 -48.5s-48.5 -77.5 -52.5 -135.5h349
c-4.66699 58 -22 103.167 -52 135.5s-70.667 48.5 -122 48.5z" />
    <glyph glyph-name="ecircumflex" unicode="&#xea;" horiz-adv-x="573" 
d="M384 595l-95 121l-95 -121h-63l127 158h62l127 -158h-63zM520 276l-0.000976562 -26.001h-406c0 -66.667 16 -118.667 48 -156s76 -56 132 -56c84.667 0 139.334 39.333 164.001 118l55 -8c-14 -48.667 -40.333 -87.5 -79 -116.5s-85.667 -43.5 -141 -43.5
c-74 0 -132.333 25 -175 75c-42.667 48.667 -64 114.334 -64 197.001c0 81.333 21 146.333 63 195s99.333 73 172 73c70.667 0 127 -23 169 -69c41.333 -46.667 62 -107.667 62 -183zM289.999 477.999c-50.667 0 -91.5 -16.167 -122.5 -48.5s-48.5 -77.5 -52.5 -135.5h349
c-4.66699 58 -22 103.167 -52 135.5s-70.667 48.5 -122 48.5z" />
    <glyph glyph-name="edieresis" unicode="&#xeb;" horiz-adv-x="573" 
d="M153 712h68v-82h-68v82zM357 712h68v-82h-68v82zM520 276l-0.000976562 -26.001h-406c0 -66.667 16 -118.667 48 -156s76 -56 132 -56c84.667 0 139.334 39.333 164.001 118l55 -8c-14 -48.667 -40.333 -87.5 -79 -116.5s-85.667 -43.5 -141 -43.5
c-74 0 -132.333 25 -175 75c-42.667 48.667 -64 114.334 -64 197.001c0 81.333 21 146.333 63 195s99.333 73 172 73c70.667 0 127 -23 169 -69c41.333 -46.667 62 -107.667 62 -183zM289.999 477.999c-50.667 0 -91.5 -16.167 -122.5 -48.5s-48.5 -77.5 -52.5 -135.5h349
c-4.66699 58 -22 103.167 -52 135.5s-70.667 48.5 -122 48.5z" />
    <glyph glyph-name="igrave" unicode="&#xec;" horiz-adv-x="232" 
d="M164 601h-54l-128 152h82zM146 0h-60v516h60v-516z" />
    <glyph glyph-name="iacute" unicode="&#xed;" horiz-adv-x="232" 
d="M117 601h-54l101 152h81zM146 0h-60v516h60v-516z" />
    <glyph glyph-name="icircumflex" unicode="&#xee;" horiz-adv-x="232" 
d="M21 595h-63l127 158h62l127 -158h-63l-95 121zM146 0h-60v516h60v-516z" />
    <glyph glyph-name="idieresis" unicode="&#xef;" horiz-adv-x="232" 
d="M61 630h-68v82h68v-82zM239 630h-68v82h68v-82zM146 0h-60v516h60v-516z" />
    <glyph glyph-name="eth" unicode="&#xf0;" horiz-adv-x="568" 
d="M458 709l-128 -87.002c123.333 -101.333 185 -223.666 185 -366.999c0 -83.333 -20.5 -148.666 -61.5 -195.999s-97.5 -71 -169.5 -71c-70 0 -125.667 21.667 -167 65c-42 43.333 -63 99.333 -63 168c0 67.333 20 123.333 60 168c40 44 93.333 66 160 66
c77.333 0 134.666 -28.667 171.999 -86c-21.333 85.333 -72.666 160.333 -153.999 225l-98 -77l-30 34l96 68c-34.667 24.667 -73.667 47.667 -117 69l24 37c49.333 -24 93 -49.667 131 -77l128 100zM456 252.998l0.000976562 10.999c-6 43.333 -25.167 77.5 -57.5 102.5
s-71.166 37.5 -116.499 37.5c-52.667 0 -93.834 -16.667 -123.501 -50s-44.5 -76.666 -44.5 -129.999s15.333 -97.333 46 -132c31.333 -35.333 73 -53 125 -53c53.333 0 95.166 18.5 125.499 55.5s45.5 89.833 45.5 158.5z" />
    <glyph glyph-name="ntilde" unicode="&#xf1;" horiz-adv-x="589" 
d="M218 717c-36 0 -55.333 -35.332 -58 -105.999h-47c2 101.333 37 152 105 152c19.333 0 37.333 -5.16699 54 -15.5s29.667 -22.5 39 -36.5c22 -35.333 46.333 -53 73 -53c18.667 0 32.667 8.16699 42 24.5s14.666 43.166 15.999 80.499h47c-2 -101.333 -37 -152 -105 -152
c-19.333 0 -37.166 5.16699 -53.499 15.5s-28.833 22.833 -37.5 37.5c-22 35.333 -47 53 -75 53zM325 529.001c56 0 99.667 -16 131 -48s47 -76.333 47 -133v-348h-60v337c0 92.667 -43.333 139 -130 139c-50.667 0 -91.167 -16.333 -121.5 -49s-45.5 -80.667 -45.5 -144
v-283h-60v516h56v-100c34 75.333 95 113 183 113z" />
    <glyph glyph-name="ograve" unicode="&#xf2;" horiz-adv-x="591" 
d="M345 601h-54l-128 152h82zM296 -13c-72.667 0 -131.001 24.999 -175.001 74.999c-44.667 48.667 -67 114 -67 196c0 83.333 22.333 149.333 67 198s103.334 73 176.001 73c72 0 130.333 -24.333 175 -73c44 -49.333 66 -114.666 66 -195.999
c0 -82 -22.333 -147.667 -67 -197c-44.667 -50.667 -103 -76 -175 -76zM295.999 37.999c56 0 100.333 20 133 60s49 94 49 162c0 67.333 -16.333 120.5 -49 159.5s-77 58.5 -133 58.5s-100.333 -19.833 -133 -59.5s-49 -93.167 -49 -160.5s16.5 -120.833 49.5 -160.5
s77.167 -59.5 132.5 -59.5z" />
    <glyph glyph-name="oacute" unicode="&#xf3;" horiz-adv-x="591" 
d="M298 601h-54l101 152h81zM296 -13c-72.667 0 -131.001 24.999 -175.001 74.999c-44.667 48.667 -67 114 -67 196c0 83.333 22.333 149.333 67 198s103.334 73 176.001 73c72 0 130.333 -24.333 175 -73c44 -49.333 66 -114.666 66 -195.999
c0 -82 -22.333 -147.667 -67 -197c-44.667 -50.667 -103 -76 -175 -76zM295.999 37.999c56 0 100.333 20 133 60s49 94 49 162c0 67.333 -16.333 120.5 -49 159.5s-77 58.5 -133 58.5s-100.333 -19.833 -133 -59.5s-49 -93.167 -49 -160.5s16.5 -120.833 49.5 -160.5
s77.167 -59.5 132.5 -59.5z" />
    <glyph glyph-name="ocircumflex" unicode="&#xf4;" horiz-adv-x="591" 
d="M202 595h-63l127 158h62l127 -158h-63l-95 121zM296 -13c-72.667 0 -131.001 24.999 -175.001 74.999c-44.667 48.667 -67 114 -67 196c0 83.333 22.333 149.333 67 198s103.334 73 176.001 73c72 0 130.333 -24.333 175 -73c44 -49.333 66 -114.666 66 -195.999
c0 -82 -22.333 -147.667 -67 -197c-44.667 -50.667 -103 -76 -175 -76zM295.999 37.999c56 0 100.333 20 133 60s49 94 49 162c0 67.333 -16.333 120.5 -49 159.5s-77 58.5 -133 58.5s-100.333 -19.833 -133 -59.5s-49 -93.167 -49 -160.5s16.5 -120.833 49.5 -160.5
s77.167 -59.5 132.5 -59.5z" />
    <glyph glyph-name="otilde" unicode="&#xf5;" horiz-adv-x="591" 
d="M156 611l-47 0.000976562c2 101.333 37 152 105 152c19.333 0 37.333 -5.16699 54 -15.5s29.667 -22.5 39 -36.5c22 -35.333 46.333 -53 73 -53c18.667 0 32.667 8.16699 42 24.5s14.666 43.166 15.999 80.499h47c-2 -101.333 -37 -152 -105 -152
c-19.333 0 -37.166 5.16699 -53.499 15.5s-28.833 22.833 -37.5 37.5c-22 35.333 -47 53 -75 53c-36 0 -55.333 -35.333 -58 -106zM296 -12.999c-72.667 0 -131.001 24.999 -175.001 74.999c-44.667 48.667 -67 114 -67 196c0 83.333 22.333 149.333 67 198
s103.334 73 176.001 73c72 0 130.333 -24.333 175 -73c44 -49.333 66 -114.666 66 -195.999c0 -82 -22.333 -147.667 -67 -197c-44.667 -50.667 -103 -76 -175 -76zM295.999 38c56 0 100.333 20 133 60s49 94 49 162c0 67.333 -16.333 120.5 -49 159.5s-77 58.5 -133 58.5
s-100.333 -19.833 -133 -59.5s-49 -93.167 -49 -160.5s16.5 -120.833 49.5 -160.5s77.167 -59.5 132.5 -59.5z" />
    <glyph glyph-name="odieresis" unicode="&#xf6;" horiz-adv-x="591" 
d="M229 630h-68v82h68v-82zM433 630h-68v82h68v-82zM296 -13c-72.667 0 -131.001 24.999 -175.001 74.999c-44.667 48.667 -67 114 -67 196c0 83.333 22.333 149.333 67 198s103.334 73 176.001 73c72 0 130.333 -24.333 175 -73c44 -49.333 66 -114.666 66 -195.999
c0 -82 -22.333 -147.667 -67 -197c-44.667 -50.667 -103 -76 -175 -76zM295.999 37.999c56 0 100.333 20 133 60s49 94 49 162c0 67.333 -16.333 120.5 -49 159.5s-77 58.5 -133 58.5s-100.333 -19.833 -133 -59.5s-49 -93.167 -49 -160.5s16.5 -120.833 49.5 -160.5
s77.167 -59.5 132.5 -59.5z" />
    <glyph glyph-name="divide" unicode="&#xf7;" 
d="M364 450h-87v84h87v-84zM597 280h-554v58h554v-58zM364 84h-87v84h87v-84z" />
    <glyph glyph-name="oslash" unicode="&#xf8;" horiz-adv-x="591" 
d="M528 502l-48.001 -57.001c38.667 -47.333 58 -109 58 -185c0 -82 -22.333 -147.667 -67 -197c-44.667 -50.667 -103 -76 -175 -76c-62 0 -113.667 18.333 -155 55l-46 -55l-34 27l50 59c-38 48.667 -57 110.334 -57 185.001c0 83.333 22.333 149.333 67 198
s103.334 73 176.001 73c60.667 0 111.667 -17.667 153 -53l45 53zM113.999 257.999c0 -56 11.667 -102.667 35 -140l266 316c-31.333 29.333 -71 44 -119 44c-56 0 -100.333 -19.833 -133 -59.5s-49 -93.167 -49 -160.5zM295.999 37.999c56 0 100.333 20 133 60
s49 94 49 162c0 56.667 -11.667 103.667 -35 141l-267 -317c31.333 -30.667 71.333 -46 120 -46z" />
    <glyph glyph-name="ugrave" unicode="&#xf9;" horiz-adv-x="589" 
d="M242 753l100 -152h-54l-128 152h82zM443 233l-0.000976562 283h60v-516h-57v100c-34 -75.333 -95 -113 -183 -113c-56 0 -99.5 15.833 -130.5 47.5s-46.5 76.167 -46.5 133.5v348h60v-337c0 -92.667 43 -139 129 -139c50.667 0 91.334 16.333 122.001 49
s46 80.667 46 144z" />
    <glyph glyph-name="uacute" unicode="&#xfa;" horiz-adv-x="589" 
d="M342 753h81l-128 -152h-54zM443 233l-0.000976562 283h60v-516h-57v100c-34 -75.333 -95 -113 -183 -113c-56 0 -99.5 15.833 -130.5 47.5s-46.5 76.167 -46.5 133.5v348h60v-337c0 -92.667 43 -139 129 -139c50.667 0 91.334 16.333 122.001 49s46 80.667 46 144z" />
    <glyph glyph-name="ucircumflex" unicode="&#xfb;" horiz-adv-x="589" 
d="M390 595l-95 121l-95 -121h-63l127 158h62l127 -158h-63zM443 233l-0.000976562 283h60v-516h-57v100c-34 -75.333 -95 -113 -183 -113c-56 0 -99.5 15.833 -130.5 47.5s-46.5 76.167 -46.5 133.5v348h60v-337c0 -92.667 43 -139 129 -139
c50.667 0 91.334 16.333 122.001 49s46 80.667 46 144z" />
    <glyph glyph-name="udieresis" unicode="&#xfc;" horiz-adv-x="589" 
d="M159 712h68v-82h-68v82zM363 712h68v-82h-68v82zM443 233l-0.000976562 283h60v-516h-57v100c-34 -75.333 -95 -113 -183 -113c-56 0 -99.5 15.833 -130.5 47.5s-46.5 76.167 -46.5 133.5v348h60v-337c0 -92.667 43 -139 129 -139c50.667 0 91.334 16.333 122.001 49
s46 80.667 46 144z" />
    <glyph glyph-name="yacute" unicode="&#xfd;" horiz-adv-x="541" 
d="M319 753h81l-128 -152h-54zM273 52l173.001 464h62l-244 -625c-14.667 -36 -32 -60.833 -52 -74.5s-48.667 -20.5 -86 -20.5h-44v51h39c28 0 48.667 4.83301 62 14.5s25.666 28.5 36.999 56.5l29 74l-216 524h65l166 -417z" />
    <glyph glyph-name="thorn" unicode="&#xfe;" horiz-adv-x="598" 
d="M324 527c66.667 0 120.002 -23.668 160.002 -71.001c40 -46.667 60 -109.667 60 -189c0 -82 -20 -148.667 -60 -200c-40 -52 -94.333 -78 -163 -78c-38.667 0 -73.334 9.33301 -104.001 28s-54.334 44.334 -71.001 77.001v-298h-60v916h60v-291
c16 32.667 39.667 58.5 71 77.5s67 28.5 107 28.5zM316.002 40.999c51.333 0 92.168 20.501 122.501 61.501s45.5 95.833 45.5 164.5c0 66 -14.833 117.167 -44.5 153.5s-70.834 54.5 -123.501 54.5c-52 0 -93.833 -18.833 -125.5 -56.5s-47.5 -89.834 -47.5 -156.501
c0 -67.333 15.833 -121 47.5 -161s73.5 -60 125.5 -60z" />
    <glyph glyph-name="ydieresis" unicode="&#xff;" horiz-adv-x="541" 
d="M135 712h68v-82h-68v82zM339 712h68v-82h-68v82zM273 52l173.001 464h62l-244 -625c-14.667 -36 -32 -60.833 -52 -74.5s-48.667 -20.5 -86 -20.5h-44v51h39c28 0 48.667 4.83301 62 14.5s25.666 28.5 36.999 56.5l29 74l-216 524h65l166 -417z" />
    <glyph glyph-name="Amacron" unicode="&#x100;" horiz-adv-x="716" 
d="M205 877h306v-47h-306v47zM682 0h-67l-88 223h-339l-89 -223h-65l291 713h67zM343 610l-134 -334h297l-131 334l-16 50z" />
    <glyph glyph-name="amacron" unicode="&#x101;" horiz-adv-x="574" 
d="M131 681h306v-47h-306v47zM542 46l15.998 0.000976562v-46h-33c-33.333 0 -57.666 7.66699 -72.999 23s-23.666 40 -24.999 74c-16 -34 -41.333 -60.833 -76 -80.5s-75 -29.5 -121 -29.5c-54.667 0 -97.334 13.333 -128.001 40s-46 62.667 -46 108
c0 87.333 56 138.666 168 153.999l130 17c24.667 4 41.667 10.833 51 20.5s14 23.834 14 42.501v13c0 65.333 -46.333 98 -139 98c-46 0 -80.167 -8.66699 -102.5 -26s-35.5 -45.333 -39.5 -84h-60c8.66699 106.667 77.334 160 206.001 160
c63.333 0 111.833 -13.333 145.5 -40s50.5 -64.334 50.5 -113.001v-260c0 -26 4.5 -44.333 13.5 -55s25.167 -16 48.5 -16zM239.998 35.001c48.667 0 89.5 13.332 122.5 39.999s51.833 62.667 56.5 108v95c-9.33301 -6.66699 -23.333 -11.334 -42 -14.001l-143 -21
c-79.333 -11.333 -119 -46.666 -119 -105.999c0 -31.333 11 -56.166 33 -74.499s52.667 -27.5 92 -27.5z" />
    <glyph glyph-name="Abreve" unicode="&#x102;" horiz-adv-x="716" 
d="M357 795c-102.667 0 -155.331 44.333 -157.998 133h41c3.33301 -61.333 42.666 -92 117.999 -92s114.666 30.667 117.999 92h41c-2.66699 -88.667 -56 -133 -160 -133zM682.003 0h-67l-88 223h-339l-89 -223h-65l291 713h67zM343.003 610l-134 -334h297l-131 334l-16 50z
" />
    <glyph glyph-name="abreve" unicode="&#x103;" horiz-adv-x="574" 
d="M283 599c-102 0 -154.668 44.667 -158.001 134h41c2.66699 -62 42 -93 118 -93s115.333 31 118 93h41c-3.33301 -89.333 -56.666 -134 -159.999 -134zM541.999 46l15.998 0.000976562v-46h-33c-33.333 0 -57.666 7.66699 -72.999 23s-23.666 40 -24.999 74
c-16 -34 -41.333 -60.833 -76 -80.5s-75 -29.5 -121 -29.5c-54.667 0 -97.334 13.333 -128.001 40s-46 62.667 -46 108c0 87.333 56 138.666 168 153.999l130 17c24.667 4 41.667 10.833 51 20.5s14 23.834 14 42.501v13c0 65.333 -46.333 98 -139 98
c-46 0 -80.167 -8.66699 -102.5 -26s-35.5 -45.333 -39.5 -84h-60c8.66699 106.667 77.334 160 206.001 160c63.333 0 111.833 -13.333 145.5 -40s50.5 -64.334 50.5 -113.001v-260c0 -26 4.5 -44.333 13.5 -55s25.167 -16 48.5 -16zM239.997 35.001
c48.667 0 89.5 13.332 122.5 39.999s51.833 62.667 56.5 108v95c-9.33301 -6.66699 -23.333 -11.334 -42 -14.001l-143 -21c-79.333 -11.333 -119 -46.666 -119 -105.999c0 -31.333 11 -56.166 33 -74.499s52.667 -27.5 92 -27.5z" />
    <glyph glyph-name="Aogonek" unicode="&#x104;" horiz-adv-x="716" 
d="M562 -106c0 -34 23.667 -51 71 -51h34v-44h-47c-37.333 0 -65.5 7.5 -84.5 22.5s-28.5 35.833 -28.5 62.5c0 40 25 72.333 75 97l36 19h-3l-88 223h-339l-89 -223h-65l291 713h67l290 -713l-70 -41c-33.333 -19.333 -50 -41 -50 -65zM343 610l-134 -334h297l-131 334
l-16 50z" />
    <glyph glyph-name="aogonek" unicode="&#x105;" horiz-adv-x="574" 
d="M558 0l-70 -40.999c-33.333 -19.333 -50 -41 -50 -65c0 -34 23.333 -51 70 -51h35v-44h-48c-36.667 0 -64.5 7.5 -83.5 22.5s-28.5 35.833 -28.5 62.5c0 39.333 24.667 71.666 74 96.999l40 21c-45.333 8 -68.666 39.667 -69.999 95c-16 -34 -41.333 -60.833 -76 -80.5
s-75 -29.5 -121 -29.5c-54.667 0 -97.334 13.333 -128.001 40s-46 62.667 -46 108c0 87.333 56 138.666 168 153.999l130 17c24.667 4 41.667 10.833 51 20.5s14 23.834 14 42.501v14c0 64.667 -46.333 97 -139 97c-46 0 -80.167 -8.66699 -102.5 -26s-35.5 -45 -39.5 -83
h-60c9.33301 106 78 159 206 159c63.333 0 111.833 -13.167 145.5 -39.5s50.5 -63.833 50.5 -112.5v-261c0 -26 4.5 -44.333 13.5 -55s25.167 -16 48.5 -16h16v-46zM240 35.001c48.667 0 89.5 13.332 122.5 39.999s51.833 62.667 56.5 108v95
c-9.33301 -6.66699 -23.333 -11.334 -42 -14.001l-143 -21c-79.333 -11.333 -119 -46.666 -119 -105.999c0 -31.333 11 -56.166 33 -74.499s52.667 -27.5 92 -27.5z" />
    <glyph glyph-name="Cacute" unicode="&#x106;" horiz-adv-x="734" 
d="M388 797h-54l101 152h81zM389 -15c-97.333 0 -174.668 34.666 -232.001 103.999s-86 158.666 -86 267.999c0 111.333 29 200.333 87 267c57.333 67.333 134 101 230 101c74.667 0 139.667 -21 195 -63c54 -42.667 86 -97.667 96 -165h-62
c-10.667 52.667 -36.5 94.667 -77.5 126s-90.833 47 -149.5 47c-78.667 0 -141 -28 -187 -84c-46.667 -55.333 -70 -131.666 -70 -228.999c0 -96 23 -172.667 69 -230c45.333 -58 108.333 -87 189 -87c64 0 117.167 19 159.5 57s66.833 89.333 73.5 154h60
c-8.66699 -79.333 -39.667 -143.666 -93 -192.999c-53.333 -48.667 -120.666 -73 -201.999 -73z" />
    <glyph glyph-name="cacute" unicode="&#x107;" horiz-adv-x="550" 
d="M289 601h-54l101 152h81zM287 -13c-72 0 -128.832 23.834 -170.499 71.501s-62.5 113.5 -62.5 197.5c0 85.333 21 152.166 63 200.499s99.667 72.5 173 72.5c59.333 0 107.5 -16 144.5 -48s59.5 -75 67.5 -129h-57c-6.66699 39.333 -23.334 70.166 -50.001 92.499
s-61.667 33.5 -105 33.5c-57.333 0 -101 -19.167 -131 -57.5s-45 -92.5 -45 -162.5c0 -69.333 15.333 -123.333 46 -162s74 -58 130 -58c87.333 0 139 46 155 138h56c-8 -59.333 -30.5 -105.666 -67.5 -138.999s-85.833 -50 -146.5 -50z" />
    <glyph glyph-name="Ccircumflex" unicode="&#x108;" horiz-adv-x="734" 
d="M293 791h-63l127 158h62l127 -158h-63l-95 121zM389 -15c-97.333 0 -174.668 34.666 -232.001 103.999s-86 158.666 -86 267.999c0 111.333 29 200.333 87 267c57.333 67.333 134 101 230 101c74.667 0 139.667 -21 195 -63c54 -42.667 86 -97.667 96 -165h-62
c-10.667 52.667 -36.5 94.667 -77.5 126s-90.833 47 -149.5 47c-78.667 0 -141 -28 -187 -84c-46.667 -55.333 -70 -131.666 -70 -228.999c0 -96 23 -172.667 69 -230c45.333 -58 108.333 -87 189 -87c64 0 117.167 19 159.5 57s66.833 89.333 73.5 154h60
c-8.66699 -79.333 -39.667 -143.666 -93 -192.999c-53.333 -48.667 -120.666 -73 -201.999 -73z" />
    <glyph glyph-name="ccircumflex" unicode="&#x109;" horiz-adv-x="550" 
d="M194 595h-63l127 158h62l127 -158h-63l-95 121zM287 -13c-72 0 -128.832 23.834 -170.499 71.501s-62.5 113.5 -62.5 197.5c0 85.333 21 152.166 63 200.499s99.667 72.5 173 72.5c59.333 0 107.5 -16 144.5 -48s59.5 -75 67.5 -129h-57
c-6.66699 39.333 -23.334 70.166 -50.001 92.499s-61.667 33.5 -105 33.5c-57.333 0 -101 -19.167 -131 -57.5s-45 -92.5 -45 -162.5c0 -69.333 15.333 -123.333 46 -162s74 -58 130 -58c87.333 0 139 46 155 138h56c-8 -59.333 -30.5 -105.666 -67.5 -138.999
s-85.833 -50 -146.5 -50z" />
    <glyph glyph-name="Cdotaccent" unicode="&#x10a;" horiz-adv-x="734" 
d="M422 810h-68v83h68v-83zM389 -15c-97.333 0 -174.668 34.666 -232.001 103.999s-86 158.666 -86 267.999c0 111.333 29 200.333 87 267c57.333 67.333 134 101 230 101c74.667 0 139.667 -21 195 -63c54 -42.667 86 -97.667 96 -165h-62
c-10.667 52.667 -36.5 94.667 -77.5 126s-90.833 47 -149.5 47c-78.667 0 -141 -28 -187 -84c-46.667 -55.333 -70 -131.666 -70 -228.999c0 -96 23 -172.667 69 -230c45.333 -58 108.333 -87 189 -87c64 0 117.167 19 159.5 57s66.833 89.333 73.5 154h60
c-8.66699 -79.333 -39.667 -143.666 -93 -192.999c-53.333 -48.667 -120.666 -73 -201.999 -73z" />
    <glyph glyph-name="cdotaccent" unicode="&#x10b;" horiz-adv-x="550" 
d="M323 630h-68v82h68v-82zM287 -13c-72 0 -128.832 23.834 -170.499 71.501s-62.5 113.5 -62.5 197.5c0 85.333 21 152.166 63 200.499s99.667 72.5 173 72.5c59.333 0 107.5 -16 144.5 -48s59.5 -75 67.5 -129h-57c-6.66699 39.333 -23.334 70.166 -50.001 92.499
s-61.667 33.5 -105 33.5c-57.333 0 -101 -19.167 -131 -57.5s-45 -92.5 -45 -162.5c0 -69.333 15.333 -123.333 46 -162s74 -58 130 -58c87.333 0 139 46 155 138h56c-8 -59.333 -30.5 -105.666 -67.5 -138.999s-85.833 -50 -146.5 -50z" />
    <glyph glyph-name="Ccaron" unicode="&#x10c;" horiz-adv-x="734" 
d="M419 798h-62l-127 158h63l95 -120l95 120h63zM389 -15c-97.333 0 -174.668 34.666 -232.001 103.999s-86 158.666 -86 267.999c0 111.333 29 200.333 87 267c57.333 67.333 134 101 230 101c74.667 0 139.667 -21 195 -63c54 -42.667 86 -97.667 96 -165h-62
c-10.667 52.667 -36.5 94.667 -77.5 126s-90.833 47 -149.5 47c-78.667 0 -141 -28 -187 -84c-46.667 -55.333 -70 -131.666 -70 -228.999c0 -96 23 -172.667 69 -230c45.333 -58 108.333 -87 189 -87c64 0 117.167 19 159.5 57s66.833 89.333 73.5 154h60
c-8.66699 -79.333 -39.667 -143.666 -93 -192.999c-53.333 -48.667 -120.666 -73 -201.999 -73z" />
    <glyph glyph-name="ccaron" unicode="&#x10d;" horiz-adv-x="550" 
d="M320 595h-62l-127 157h63l95 -120l95 120h63zM287 -13c-72 0 -128.832 23.834 -170.499 71.501s-62.5 113.5 -62.5 197.5c0 85.333 21 152.166 63 200.499s99.667 72.5 173 72.5c59.333 0 107.5 -16 144.5 -48s59.5 -75 67.5 -129h-57
c-6.66699 39.333 -23.334 70.166 -50.001 92.499s-61.667 33.5 -105 33.5c-57.333 0 -101 -19.167 -131 -57.5s-45 -92.5 -45 -162.5c0 -69.333 15.333 -123.333 46 -162s74 -58 130 -58c87.333 0 139 46 155 138h56c-8 -59.333 -30.5 -105.666 -67.5 -138.999
s-85.833 -50 -146.5 -50z" />
    <glyph glyph-name="Dcaron" unicode="&#x10e;" horiz-adv-x="721" 
d="M509 956l-127 -158h-62l-127 158h63l95 -120l95 120h63zM95 712h246.999c102.667 0 180.834 -31 234.501 -93s80.5 -149.667 80.5 -263s-28.167 -201 -84.5 -263s-138.833 -93 -247.5 -93h-230v712zM154.999 53h168c181.333 0 272 101 272 303s-88 303 -264 303h-176
v-606z" />
    <glyph glyph-name="dcaron" unicode="&#x10f;" horiz-adv-x="754" 
d="M452 422l0.000976562 290.001h60v-712h-53v110c-16 -36.667 -40 -66 -72 -88s-68.667 -33 -110 -33c-68.667 0 -123 25.667 -163 77c-40 50.667 -60 116.667 -60 198c0 80 20.333 143.667 61 191c40 48 93.333 72 160 72c39.333 0 74.666 -9.33301 105.999 -28
s55 -44.334 71 -77.001zM627.001 514.001l56 198h71l-81 -198h-46zM282.001 41.001c52 0 93.833 20.001 125.5 60.001s47.5 93.667 47.5 161s-15.667 119.666 -47 156.999c-32 37.333 -74 56 -126 56s-93 -18.333 -123 -55c-30 -37.333 -45 -89.333 -45 -156
c0 -68 15 -122.167 45 -162.5s71 -60.5 123 -60.5z" />
    <glyph glyph-name="Dcroat" unicode="&#x110;" horiz-adv-x="807" 
d="M180 712h247.001c103.333 0 181.666 -31 234.999 -93s80 -149.667 80 -263s-28 -201 -84 -263s-138.333 -93 -247 -93h-231v337l-148 -3v54l148 -4v328zM241.001 53h168c181.333 0 272 101 272 303s-88.333 303 -265 303h-175v-275l206 4v-54l-206 3v-284z" />
    <glyph glyph-name="dslash" unicode="&#x111;" horiz-adv-x="643" 
d="M512 650l121.001 2.00098v-47l-121 2v-607h-53v110c-16 -36.667 -40 -66 -72 -88s-68.667 -33 -110 -33c-68.667 0 -123 25.667 -163 77c-40 50.667 -60 116.667 -60 198c0 80 20.333 143.667 61 191c40 48 93.333 72 160 72c39.333 0 74.666 -9.33301 105.999 -28
s55 -44.334 71 -77.001v186l-168 -3v47l168 -3v63h60v-62zM282.001 41.001c52 0 93.833 20.001 125.5 60.001s47.5 93.667 47.5 161s-15.667 119.666 -47 156.999c-32 37.333 -74 56 -126 56s-93 -18.333 -123 -55c-30 -37.333 -45 -89.333 -45 -156
c0 -68 15 -122.167 45 -162.5s71 -60.5 123 -60.5z" />
    <glyph glyph-name="Emacron" unicode="&#x112;" horiz-adv-x="665" 
d="M195 877h306v-47h-306v47zM155 343v-290h441v-53h-501v712h488v-53h-428v-263h397v-53h-397z" />
    <glyph glyph-name="emacron" unicode="&#x113;" horiz-adv-x="573" 
d="M136 681h306v-47h-306v47zM520 276l-0.000976562 -26.001h-406c0 -66.667 16 -118.667 48 -156s76 -56 132 -56c84.667 0 139.334 39.333 164.001 118l55 -8c-14 -48.667 -40.333 -87.5 -79 -116.5s-85.667 -43.5 -141 -43.5c-74 0 -132.333 25 -175 75
c-42.667 48.667 -64 114.334 -64 197.001c0 81.333 21 146.333 63 195s99.333 73 172 73c70.667 0 127 -23 169 -69c41.333 -46.667 62 -107.667 62 -183zM289.999 477.999c-50.667 0 -91.5 -16.167 -122.5 -48.5s-48.5 -77.5 -52.5 -135.5h349
c-4.66699 58 -22 103.167 -52 135.5s-70.667 48.5 -122 48.5z" />
    <glyph glyph-name="Ebreve" unicode="&#x114;" horiz-adv-x="665" 
d="M347 795c-102.667 0 -155.331 44.333 -157.998 133h41c3.33301 -61.333 42.666 -92 117.999 -92s114.666 30.667 117.999 92h41c-2.66699 -88.667 -56 -133 -160 -133zM155.003 343v-290h441v-53h-501v712h488v-53h-428v-263h397v-53h-397z" />
    <glyph glyph-name="ebreve" unicode="&#x115;" horiz-adv-x="573" 
d="M288 599c-102 0 -154.666 44.667 -157.999 134h41c3.33301 -62 42.666 -93 117.999 -93s114.666 31 117.999 93h41c-3.33301 -89.333 -56.666 -134 -159.999 -134zM520.001 276l-0.000976562 -26.001h-406c0 -66.667 16 -118.667 48 -156s76 -56 132 -56
c84.667 0 139.334 39.333 164.001 118l55 -8c-14 -48.667 -40.333 -87.5 -79 -116.5s-85.667 -43.5 -141 -43.5c-74 0 -132.333 25 -175 75c-42.667 48.667 -64 114.334 -64 197.001c0 81.333 21 146.333 63 195s99.333 73 172 73c70.667 0 127 -23 169 -69
c41.333 -46.667 62 -107.667 62 -183zM290 477.999c-50.667 0 -91.5 -16.167 -122.5 -48.5s-48.5 -77.5 -52.5 -135.5h349c-4.66699 58 -22 103.167 -52 135.5s-70.667 48.5 -122 48.5z" />
    <glyph glyph-name="Edotaccent" unicode="&#x116;" horiz-adv-x="665" 
d="M314 893h68v-83h-68v83zM155 343v-290h441v-53h-501v712h488v-53h-428v-263h397v-53h-397z" />
    <glyph glyph-name="edotaccent" unicode="&#x117;" horiz-adv-x="573" 
d="M255 712h68v-82h-68v82zM520 276l-0.000976562 -26.001h-406c0 -66.667 16 -118.667 48 -156s76 -56 132 -56c84.667 0 139.334 39.333 164.001 118l55 -8c-14 -48.667 -40.333 -87.5 -79 -116.5s-85.667 -43.5 -141 -43.5c-74 0 -132.333 25 -175 75
c-42.667 48.667 -64 114.334 -64 197.001c0 81.333 21 146.333 63 195s99.333 73 172 73c70.667 0 127 -23 169 -69c41.333 -46.667 62 -107.667 62 -183zM289.999 477.999c-50.667 0 -91.5 -16.167 -122.5 -48.5s-48.5 -77.5 -52.5 -135.5h349
c-4.66699 58 -22 103.167 -52 135.5s-70.667 48.5 -122 48.5z" />
    <glyph glyph-name="Eogonek" unicode="&#x118;" horiz-adv-x="665" 
d="M596 0l-70 -41c-33.333 -19.333 -50 -41 -50 -65c0 -34 23.667 -51 71 -51h34v-44h-47c-37.333 0 -65.5 7.5 -84.5 22.5s-28.5 35.833 -28.5 62.5c0 40 25 72.333 75 97l36 19h-437v712h488v-53h-428v-263h397v-53h-397v-290h441v-53z" />
    <glyph glyph-name="eogonek" unicode="&#x119;" horiz-adv-x="573" 
d="M520 276l-0.00195312 -26h-406c0 -66.667 16 -118.667 48 -156s76 -56 132 -56c84.667 0 139.334 39.333 164.001 118l55 -8c-19.333 -64 -56.666 -109.667 -111.999 -137l-66 -38c-33.333 -19.333 -50 -41 -50 -65c0 -34 23.667 -51 71 -51h34v-44h-47
c-37.333 0 -65.5 7.5 -84.5 22.5s-28.5 35.833 -28.5 62.5c0 36 20.667 66 62 90c-73.333 0 -131.333 25 -174 75c-42.667 49.333 -64 115 -64 197c0 81.333 21 146.333 63 195s99.333 73 172 73c70.667 0 127 -23 169 -69c41.333 -46.667 62 -107.667 62 -183zM289.998 478
c-50.667 0 -91.5 -16.167 -122.5 -48.5s-48.5 -77.5 -52.5 -135.5h349c-4.66699 58 -22 103.167 -52 135.5s-70.667 48.5 -122 48.5z" />
    <glyph glyph-name="Ecaron" unicode="&#x11a;" horiz-adv-x="665" 
d="M506 956l-127 -158h-62l-127 158h63l95 -120l95 120h63zM155 343v-290h441v-53h-501v712h488v-53h-428v-263h397v-53h-397z" />
    <glyph glyph-name="ecaron" unicode="&#x11b;" horiz-adv-x="573" 
d="M447 752l-127 -157h-62l-127 157h63l95 -120l95 120h63zM520 276l-0.000976562 -26.001h-406c0 -66.667 16 -118.667 48 -156s76 -56 132 -56c84.667 0 139.334 39.333 164.001 118l55 -8c-14 -48.667 -40.333 -87.5 -79 -116.5s-85.667 -43.5 -141 -43.5
c-74 0 -132.333 25 -175 75c-42.667 48.667 -64 114.334 -64 197.001c0 81.333 21 146.333 63 195s99.333 73 172 73c70.667 0 127 -23 169 -69c41.333 -46.667 62 -107.667 62 -183zM289.999 477.999c-50.667 0 -91.5 -16.167 -122.5 -48.5s-48.5 -77.5 -52.5 -135.5h349
c-4.66699 58 -22 103.167 -52 135.5s-70.667 48.5 -122 48.5z" />
    <glyph glyph-name="Gcircumflex" unicode="&#x11c;" horiz-adv-x="813" 
d="M500 791l-95 121l-95 -121h-63l127 158h62l127 -158h-63zM414 314l-0.00292969 53h304v-367h-46l-11 133c-51.333 -98 -137.666 -147 -258.999 -147c-100 0 -180 34 -240 102c-60.667 66.667 -91 156.667 -91 270c0 111.333 29.667 200.666 89 267.999
c58.667 66.667 140.334 100 245.001 100c82 0 150 -19.667 204 -59s87 -93.666 99 -162.999l-58 -4c-10 53.333 -36 95.333 -78 126s-96.667 46 -164 46c-86 0 -153.333 -28 -202 -84s-73 -133.333 -73 -232c0 -94.667 24 -171 72 -229c47.333 -58 113.333 -87 198 -87
c70 0 127.333 19.833 172 59.5s72.334 95.167 83.001 166.5v48h-244z" />
    <glyph glyph-name="gcircumflex" unicode="&#x11d;" horiz-adv-x="601" 
d="M371 595l-95 121l-95 -121h-63l127 158h62l127 -158h-63zM459 407l0.000976562 109h56v-510c0 -72 -20 -126.167 -60 -162.5s-97 -54.5 -171 -54.5c-60.667 0 -109.334 12.667 -146.001 38s-58 59.333 -64 102h58c15.333 -61.333 66.666 -92 153.999 -92
c58 0 101 13.333 129 40s42 68 42 124v105c-16 -35.333 -39.833 -63.666 -71.5 -84.999s-67.834 -32 -108.501 -32c-68.667 0 -123 25.667 -163 77c-40 50.667 -60 116.667 -60 198c0 80 20.333 143.667 61 191c40 48 93.333 72 160 72
c42.667 0 80.334 -10.833 113.001 -32.5s56.334 -50.834 71.001 -87.501zM282.001 41c52 0 93.833 20.001 125.5 60.001s47.5 93.667 47.5 161s-15.667 119.666 -47 156.999c-32 37.333 -74 56 -126 56s-93 -18.333 -123 -55c-30 -37.333 -45 -89.333 -45 -156
c0 -68 15 -122.167 45 -162.5s71 -60.5 123 -60.5z" />
    <glyph glyph-name="Gbreve" unicode="&#x11e;" horiz-adv-x="813" 
d="M404 795c-102.667 0 -155.331 44.333 -157.998 133h41c3.33301 -61.333 42.666 -92 117.999 -92s114.666 30.667 117.999 92h41c-2.66699 -88.667 -56 -133 -160 -133zM414.003 314l-0.00292969 53h304v-367h-46l-11 133c-51.333 -98 -137.666 -147 -258.999 -147
c-100 0 -180 34 -240 102c-60.667 66.667 -91 156.667 -91 270c0 111.333 29.667 200.666 89 267.999c58.667 66.667 140.334 100 245.001 100c82 0 150 -19.667 204 -59s87 -93.666 99 -162.999l-58 -4c-10 53.333 -36 95.333 -78 126s-96.667 46 -164 46
c-86 0 -153.333 -28 -202 -84s-73 -133.333 -73 -232c0 -94.667 24 -171 72 -229c47.333 -58 113.333 -87 198 -87c70 0 127.333 19.833 172 59.5s72.334 95.167 83.001 166.5v48h-244z" />
    <glyph glyph-name="gbreve" unicode="&#x11f;" horiz-adv-x="601" 
d="M275 599c-102 0 -154.668 44.667 -158.001 134h41c2.66699 -62 42 -93 118 -93s115.333 31 118 93h41c-3.33301 -89.333 -56.666 -134 -159.999 -134zM458.999 407l0.000976562 109h56v-510c0 -72 -20 -126.167 -60 -162.5s-97 -54.5 -171 -54.5
c-60.667 0 -109.334 12.667 -146.001 38s-58 59.333 -64 102h58c15.333 -61.333 66.666 -92 153.999 -92c58 0 101 13.333 129 40s42 68 42 124v105c-16 -35.333 -39.833 -63.666 -71.5 -84.999s-67.834 -32 -108.501 -32c-68.667 0 -123 25.667 -163 77
c-40 50.667 -60 116.667 -60 198c0 80 20.333 143.667 61 191c40 48 93.333 72 160 72c42.667 0 80.334 -10.833 113.001 -32.5s56.334 -50.834 71.001 -87.501zM282 41c52 0 93.833 20.001 125.5 60.001s47.5 93.667 47.5 161s-15.667 119.666 -47 156.999
c-32 37.333 -74 56 -126 56s-93 -18.333 -123 -55c-30 -37.333 -45 -89.333 -45 -156c0 -68 15 -122.167 45 -162.5s71 -60.5 123 -60.5z" />
    <glyph glyph-name="Gdotaccent" unicode="&#x120;" horiz-adv-x="813" 
d="M371 893h68v-83h-68v83zM414 314l-0.00292969 53h304v-367h-46l-11 133c-51.333 -98 -137.666 -147 -258.999 -147c-100 0 -180 34 -240 102c-60.667 66.667 -91 156.667 -91 270c0 111.333 29.667 200.666 89 267.999c58.667 66.667 140.334 100 245.001 100
c82 0 150 -19.667 204 -59s87 -93.666 99 -162.999l-58 -4c-10 53.333 -36 95.333 -78 126s-96.667 46 -164 46c-86 0 -153.333 -28 -202 -84s-73 -133.333 -73 -232c0 -94.667 24 -171 72 -229c47.333 -58 113.333 -87 198 -87c70 0 127.333 19.833 172 59.5
s72.334 95.167 83.001 166.5v48h-244z" />
    <glyph glyph-name="gdotaccent" unicode="&#x121;" horiz-adv-x="601" 
d="M242 712h68v-82h-68v82zM459 407l0.000976562 109h56v-510c0 -72 -20 -126.167 -60 -162.5s-97 -54.5 -171 -54.5c-60.667 0 -109.334 12.667 -146.001 38s-58 59.333 -64 102h58c15.333 -61.333 66.666 -92 153.999 -92c58 0 101 13.333 129 40s42 68 42 124v105
c-16 -35.333 -39.833 -63.666 -71.5 -84.999s-67.834 -32 -108.501 -32c-68.667 0 -123 25.667 -163 77c-40 50.667 -60 116.667 -60 198c0 80 20.333 143.667 61 191c40 48 93.333 72 160 72c42.667 0 80.334 -10.833 113.001 -32.5s56.334 -50.834 71.001 -87.501z
M282.001 41c52 0 93.833 20.001 125.5 60.001s47.5 93.667 47.5 161s-15.667 119.666 -47 156.999c-32 37.333 -74 56 -126 56s-93 -18.333 -123 -55c-30 -37.333 -45 -89.333 -45 -156c0 -68 15 -122.167 45 -162.5s71 -60.5 123 -60.5z" />
    <glyph glyph-name="uni0122" unicode="&#x122;" horiz-adv-x="813" 
d="M414 314l-0.00292969 53h304v-367h-46l-11 133c-51.333 -98 -137.666 -147 -258.999 -147c-100 0 -180 34 -240 102c-60.667 66.667 -91 156.667 -91 270c0 111.333 29.667 200.666 89 267.999c58.667 66.667 140.334 100 245.001 100c82 0 150 -19.667 204 -59
s87 -93.666 99 -162.999l-58 -4c-10 53.333 -36 95.333 -78 126s-96.667 46 -164 46c-86 0 -153.333 -28 -202 -84s-73 -133.333 -73 -232c0 -94.667 24 -171 72 -229c47.333 -58 113.333 -87 198 -87c70 0 127.333 19.833 172 59.5s72.334 95.167 83.001 166.5v48h-244z
M417.997 -130l-54 -4v60h82v-98c0 -40 -19.333 -60 -58 -60h-24v28h24c20 0 30 9.33301 30 28v46z" />
    <glyph glyph-name="uni0123" unicode="&#x123;" horiz-adv-x="601" 
d="M273 687l52 5v-61h-81v93c0 40.667 19 61 57 61h24v-28h-24c-18.667 0 -28 -9.33301 -28 -28v-42zM459 407l0.000976562 109h56v-510c0 -72 -20 -126.167 -60 -162.5s-97 -54.5 -171 -54.5c-60.667 0 -109.334 12.667 -146.001 38s-58 59.333 -64 102h58
c15.333 -61.333 66.666 -92 153.999 -92c58 0 101 13.333 129 40s42 68 42 124v105c-16 -35.333 -39.833 -63.666 -71.5 -84.999s-67.834 -32 -108.501 -32c-68.667 0 -123 25.667 -163 77c-40 50.667 -60 116.667 -60 198c0 80 20.333 143.667 61 191
c40 48 93.333 72 160 72c42.667 0 80.334 -10.833 113.001 -32.5s56.334 -50.834 71.001 -87.501zM282.001 41c52 0 93.833 20.001 125.5 60.001s47.5 93.667 47.5 161s-15.667 119.666 -47 156.999c-32 37.333 -74 56 -126 56s-93 -18.333 -123 -55
c-30 -37.333 -45 -89.333 -45 -156c0 -68 15 -122.167 45 -162.5s71 -60.5 123 -60.5z" />
    <glyph glyph-name="Hcircumflex" unicode="&#x124;" horiz-adv-x="737" 
d="M464 791l-95 121l-95 -121h-63l127 158h62l127 -158h-63zM581 405v307h61v-712h-61v352h-426v-352h-60v712h60v-307h426z" />
    <glyph glyph-name="hcircumflex" unicode="&#x125;" horiz-adv-x="589" 
d="M274 791h-63l-95 121l-95 -121h-63l127 158h62zM325 529c56 0 99.666 -16 130.999 -48s47 -76.333 47 -133v-348h-60v337c0 92.667 -43.333 139 -130 139c-50.667 0 -91.167 -16.333 -121.5 -49s-45.5 -80.667 -45.5 -144v-283h-60v712h60v-288
c34.667 70 94.334 105 179.001 105z" />
    <glyph glyph-name="Hbar" unicode="&#x126;" horiz-adv-x="737" 
d="M581 575v137h61v-712h-61v332h-426v-332h-60v712h60v-137h426zM155 522v-136h426v136h-426z" />
    <glyph glyph-name="hbar" unicode="&#x127;" horiz-adv-x="636" 
d="M372 529c56 0 99.667 -16 131 -48s47 -76.333 47 -133v-348h-60v337c0 92.667 -43.333 139 -130 139c-50 0 -90.333 -16.333 -121 -49s-46 -80.667 -46 -144v-283h-60v607l-123 -2v47l123 -2v62h60v-63l169 3v-47l-169 3v-183c35.333 69.333 95 104 179 104z" />
    <glyph glyph-name="Itilde" unicode="&#x128;" horiz-adv-x="250" 
d="M-16 807l-47 0.000976562c2 101.333 37 152 105 152c19.333 0 37.333 -5.16699 54 -15.5s29.667 -22.5 39 -36.5c22 -35.333 46.333 -53 73 -53c18.667 0 32.667 8.16699 42 24.5s14.666 43.166 15.999 80.499h47c-2 -101.333 -37 -152 -105 -152
c-19.333 0 -37.166 5.16699 -53.499 15.5s-28.833 22.833 -37.5 37.5c-22 35.333 -47 53 -75 53c-36 0 -55.333 -35.333 -58 -106zM155 0.000976562h-60v712h60v-712z" />
    <glyph glyph-name="itilde" unicode="&#x129;" horiz-adv-x="232" 
d="M-25 611l-47 0.000976562c2 101.333 37 152 105 152c19.333 0 37.333 -5.16699 54 -15.5s29.667 -22.5 39 -36.5c22 -35.333 46.333 -53 73 -53c18.667 0 32.667 8.16699 42 24.5s14.666 43.166 15.999 80.499h47c-2 -101.333 -37 -152 -105 -152
c-19.333 0 -37.166 5.16699 -53.499 15.5s-28.833 22.833 -37.5 37.5c-22 35.333 -47 53 -75 53c-36 0 -55.333 -35.333 -58 -106zM146 0.000976562h-60v516h60v-516z" />
    <glyph glyph-name="Imacron" unicode="&#x12a;" horiz-adv-x="250" 
d="M278 830h-306v47h306v-47zM155 0h-60v712h60v-712z" />
    <glyph glyph-name="imacron" unicode="&#x12b;" horiz-adv-x="232" 
d="M269 634h-306v47h306v-47zM146 0h-60v516h60v-516z" />
    <glyph glyph-name="Ibreve" unicode="&#x12c;" horiz-adv-x="250" 
d="M124 795c-102.667 0 -155.331 44.333 -157.998 133h41c3.33301 -61.333 42.666 -92 117.999 -92s114.666 30.667 117.999 92h41c-2.66699 -88.667 -56 -133 -160 -133zM155.003 0h-60v712h60v-712z" />
    <glyph glyph-name="ibreve" unicode="&#x12d;" horiz-adv-x="232" 
d="M115 599c-102 0 -154.668 44.667 -158.001 134h41c2.66699 -62 42 -93 118 -93s115.333 31 118 93h41c-3.33301 -89.333 -56.666 -134 -159.999 -134zM145.999 0h-60v516h60v-516z" />
    <glyph glyph-name="Iogonek" unicode="&#x12e;" horiz-adv-x="250" 
d="M155 0l-52 -45c-17.333 -14.667 -28.833 -26 -34.5 -34s-8.5 -17.667 -8.5 -29c0 -32.667 21.667 -49 65 -49h30v-44h-37c-37.333 0 -65.5 7.33301 -84.5 22s-28.5 35 -28.5 61c0 18.667 5.16699 34.667 15.5 48s29.5 31 57.5 53l22 17h-5v712h60v-712z" />
    <glyph glyph-name="iogonek" unicode="&#x12f;" horiz-adv-x="232" 
d="M82 630v82h68v-82h-68zM91 0h-5v516h60v-516l-52 -45c-17.333 -14.667 -28.833 -26 -34.5 -34s-8.5 -17.667 -8.5 -29c0 -32.667 21.667 -49 65 -49h30v-44h-37c-37.333 0 -65.5 7.33301 -84.5 22s-28.5 35 -28.5 61c0 18.667 5.16699 34.667 15.5 48s29.5 31 57.5 53z
" />
    <glyph glyph-name="Idot" unicode="&#x130;" horiz-adv-x="250" 
d="M159 810h-68v83h68v-83zM155 0h-60v712h60v-712z" />
    <glyph glyph-name="dotlessi" unicode="&#x131;" horiz-adv-x="232" 
d="M146 0h-60v516h60v-516z" />
    <glyph glyph-name="IJ" unicode="&#x132;" horiz-adv-x="799" 
d="M155 0h-60v712h60v-712zM502 -12c-64.667 0 -115 17.499 -151 52.499s-54 84.833 -54 149.5v50h61v-47c0 -100 48.333 -150 145 -150c93.333 0 140 50 140 150v519h61v-520c0 -67.333 -17.333 -118.166 -52 -152.499s-84.667 -51.5 -150 -51.5z" />
    <glyph glyph-name="ij" unicode="&#x133;" horiz-adv-x="464" 
d="M148 631h-64v81h64v-81zM380 631h-64v81h64v-81zM146 0h-60v516h60v-516zM238 -204l-25.001 0.000976562v51h24c28.667 0 49.334 6.33301 62.001 19s19 33.667 19 63v587h60v-579c0 -48.667 -11.333 -84.334 -34 -107.001s-58 -34 -106 -34z" />
    <glyph glyph-name="Jcircumflex" unicode="&#x134;" horiz-adv-x="556" 
d="M336 791h-63l127 158h62l127 -158h-63l-95 121zM259 -12c-64.667 0 -115 17.499 -151 52.499s-54 84.833 -54 149.5v50h61v-47c0 -100 48.333 -150 145 -150c93.333 0 140 50 140 150v519h61v-520c0 -67.333 -17.333 -118.166 -52 -152.499s-84.667 -51.5 -150 -51.5z
" />
    <glyph glyph-name="jcircumflex" unicode="&#x135;" horiz-adv-x="232" 
d="M22 595h-63l127 158h62l127 -158h-63l-95 121zM6 -204l-25.001 0.000976562v51h24c28.667 0 49.334 6.33301 62.001 19s19 33.667 19 63v587h60v-579c0 -48.667 -11.333 -84.334 -34 -107.001s-58 -34 -106 -34z" />
    <glyph glyph-name="uni0136" unicode="&#x136;" horiz-adv-x="708" 
d="M658 712l-308 -290l324 -422h-76l-291 383l-152 -145v-238h-60v712h60v-399l421 399h82zM367 -130l-53 -4v60h81v-98c0 -40 -19 -60 -57 -60h-24v28h23c20 0 30 9.33301 30 28v46z" />
    <glyph glyph-name="uni0137" unicode="&#x137;" horiz-adv-x="559" 
d="M510 516l-215 -196l229 -320h-71l-200 283l-107 -97v-186h-60v712h60v-463l287 267h77zM293 -130l-53 -4v60h81v-98c0 -40 -19 -60 -57 -60h-24v28h23c20 0 30 9.33301 30 28v46z" />
    <glyph glyph-name="kgreenlandic" unicode="&#x138;" horiz-adv-x="559" 
d="M524 0h-71l-201 272l-106 -98v-174h-60v516h60v-278l287 278h77l-216 -207z" />
    <glyph glyph-name="Lacute" unicode="&#x139;" horiz-adv-x="602" 
d="M191 949h81l-128 -152h-54zM155 712v-659h398v-53h-458v712h60z" />
    <glyph glyph-name="lacute" unicode="&#x13a;" horiz-adv-x="232" 
d="M117 797h-54l101 152h81zM146 0h-60v712h60v-712z" />
    <glyph glyph-name="uni013B" unicode="&#x13b;" horiz-adv-x="602" 
d="M155 712v-659h398v-53h-458v712h60zM340 -130l-53 -4v60h81v-98c0 -40 -19 -60 -57 -60h-24v28h23c20 0 30 9.33301 30 28v46z" />
    <glyph glyph-name="uni013C" unicode="&#x13c;" horiz-adv-x="232" 
d="M86 712h60v-712h-60v712zM76 -134v60h81v-98c0 -40 -19 -60 -57 -60h-24v28h23c20 0 30 9.33301 30 28v46z" />
    <glyph glyph-name="Lcaron" unicode="&#x13d;" horiz-adv-x="602" 
d="M155 712v-659h398v-53h-458v712h60zM388 712h70l-80 -198h-46z" />
    <glyph glyph-name="lcaron" unicode="&#x13e;" horiz-adv-x="370" 
d="M146 0h-60v712h60v-712zM290 514h-47l56 198h71z" />
    <glyph glyph-name="Ldot" unicode="&#x13f;" horiz-adv-x="602" 
d="M155 712v-659h398v-53h-458v712h60zM317 409h84v-78h-84v78z" />
    <glyph glyph-name="ldot" unicode="&#x140;" horiz-adv-x="327" 
d="M146 0h-60v712h60v-712zM300 316h-83v78h83v-78z" />
    <glyph glyph-name="Lslash" unicode="&#x141;" horiz-adv-x="716" 
d="M269 323v-270h398v-53h-458v293l-155 -78v56l155 74v367h60v-338l274 139v-56z" />
    <glyph glyph-name="lslash" unicode="&#x142;" horiz-adv-x="372" 
d="M216 419l102 58v-60l-102 -50v-367h-60v335l-102 -58v60l102 50v325h60v-293z" />
    <glyph glyph-name="Nacute" unicode="&#x143;" horiz-adv-x="739" 
d="M417 949h81l-128 -152h-54zM586 84v628h58v-712h-68l-424 626v-626h-57v712h65z" />
    <glyph glyph-name="nacute" unicode="&#x144;" horiz-adv-x="589" 
d="M348 753h81l-128 -152h-54zM325 529c56 0 99.667 -16 131 -48s47 -76.333 47 -133v-348h-60v337c0 92.667 -43.333 139 -130 139c-50.667 0 -91.167 -16.333 -121.5 -49s-45.5 -80.667 -45.5 -144v-283h-60v516h56v-100c34 75.333 95 113 183 113z" />
    <glyph glyph-name="uni0145" unicode="&#x145;" horiz-adv-x="739" 
d="M586 84v628h58v-712h-68l-424 626v-626h-57v712h65zM386 -130l-53 -4v60h81v-98c0 -40 -19 -60 -57 -60h-24v28h23c20 0 30 9.33301 30 28v46z" />
    <glyph glyph-name="uni0146" unicode="&#x146;" horiz-adv-x="589" 
d="M325 529c56 0 99.667 -16 131 -48s47 -76.333 47 -133v-348h-60v337c0 92.667 -43.333 139 -130 139c-50.667 0 -91.167 -16.333 -121.5 -49s-45.5 -80.667 -45.5 -144v-283h-60v516h56v-100c34 75.333 95 113 183 113zM303 -130l-53 -4v60h81v-98c0 -40 -19 -60 -57 -60
h-24v28h23c20 0 30 9.33301 30 28v46z" />
    <glyph glyph-name="Ncaron" unicode="&#x147;" horiz-adv-x="739" 
d="M527 956l-127 -158h-62l-127 158h63l95 -120l95 120h63zM586 84v628h58v-712h-68l-424 626v-626h-57v712h65z" />
    <glyph glyph-name="ncaron" unicode="&#x148;" horiz-adv-x="589" 
d="M459 752l-127 -157h-62l-127 157h63l95 -120l95 120h63zM325 529c56 0 99.667 -16 131 -48s47 -76.333 47 -133v-348h-60v337c0 92.667 -43.333 139 -130 139c-50.667 0 -91.167 -16.333 -121.5 -49s-45.5 -80.667 -45.5 -144v-283h-60v516h56v-100
c34 75.333 95 113 183 113z" />
    <glyph glyph-name="napostrophe" unicode="&#x149;" horiz-adv-x="771" 
d="M94 640l-51 -5v77h87v-138c0 -55.333 -25.667 -83 -77 -83h-9v34h9c27.333 0 41 14 41 42v73zM508 529c56 0 99.501 -15.833 130.501 -47.5s46.5 -76.167 46.5 -133.5v-348h-60v337c0 92.667 -43 139 -129 139c-50.667 0 -91.334 -16.333 -122.001 -49
s-46 -80.667 -46 -144v-283h-60v516h57v-100c34 75.333 95 113 183 113z" />
    <glyph glyph-name="Eng" unicode="&#x14a;" horiz-adv-x="739" 
d="M586 97l0.000976562 615.001h58v-775c0 -48.667 -11 -84.334 -33 -107.001s-57 -34 -105 -34h-31v51h30c29.333 0 50.166 6.33301 62.499 19s18.5 33.667 18.5 63v74l-434 625v-628h-57v712h65z" />
    <glyph glyph-name="eng" unicode="&#x14b;" horiz-adv-x="589" 
d="M325 529c56 0 99.666 -15.999 130.999 -47.999s47 -76.333 47 -133v-411c0 -48.667 -11.333 -84.334 -34 -107.001s-58 -34 -106 -34h-25v51h24c28.667 0 49.334 6.33301 62.001 19s19 33.667 19 63v408c0 92.667 -43.333 139 -130 139
c-50.667 0 -91.167 -16.333 -121.5 -49s-45.5 -80.667 -45.5 -144v-283h-60v516h56v-100c34 75.333 95 113 183 113z" />
    <glyph glyph-name="Omacron" unicode="&#x14c;" horiz-adv-x="807" 
d="M555 830h-306v47h306v-47zM403 -15c-98.667 0 -178.668 34.668 -240.001 104.001s-92 158.333 -92 267c0 108 30.667 196.667 92 266c60.667 68.667 140.667 103 240 103c100.667 0 181.334 -34.333 242.001 -103s91 -157.334 91 -266.001
c0 -109.333 -30.333 -198.333 -91 -267c-61.333 -69.333 -142 -104 -242 -104zM402.999 40.001c82 0 147.666 29.001 196.999 87.001c49.333 57.333 74 133.666 74 228.999c0 94.667 -24.667 170.667 -74 228c-50 57.333 -115.667 86 -197 86s-146.666 -28.667 -195.999 -86
s-74 -133.333 -74 -228s25 -171 75 -229c49.333 -58 114.333 -87 195 -87z" />
    <glyph glyph-name="omacron" unicode="&#x14d;" horiz-adv-x="591" 
d="M450 634h-306v47h306v-47zM296 -13c-72.667 0 -131.001 24.999 -175.001 74.999c-44.667 48.667 -67 114 -67 196c0 83.333 22.333 149.333 67 198s103.334 73 176.001 73c72 0 130.333 -24.333 175 -73c44 -49.333 66 -114.666 66 -195.999
c0 -82 -22.333 -147.667 -67 -197c-44.667 -50.667 -103 -76 -175 -76zM295.999 37.999c56 0 100.333 20 133 60s49 94 49 162c0 67.333 -16.333 120.5 -49 159.5s-77 58.5 -133 58.5s-100.333 -19.833 -133 -59.5s-49 -93.167 -49 -160.5s16.5 -120.833 49.5 -160.5
s77.167 -59.5 132.5 -59.5z" />
    <glyph glyph-name="Obreve" unicode="&#x14e;" horiz-adv-x="807" 
d="M401 795c-102.667 0 -155.331 44.333 -157.998 133h41c3.33301 -61.333 42.666 -92 117.999 -92s114.666 30.667 117.999 92h41c-2.66699 -88.667 -56 -133 -160 -133zM403.003 -15c-98.667 0 -178.668 34.668 -240.001 104.001s-92 158.333 -92 267
c0 108 30.667 196.667 92 266c60.667 68.667 140.667 103 240 103c100.667 0 181.334 -34.333 242.001 -103s91 -157.334 91 -266.001c0 -109.333 -30.333 -198.333 -91 -267c-61.333 -69.333 -142 -104 -242 -104zM403.002 40.001c82 0 147.666 29.001 196.999 87.001
c49.333 57.333 74 133.666 74 228.999c0 94.667 -24.667 170.667 -74 228c-50 57.333 -115.667 86 -197 86s-146.666 -28.667 -195.999 -86s-74 -133.333 -74 -228s25 -171 75 -229c49.333 -58 114.333 -87 195 -87z" />
    <glyph glyph-name="obreve" unicode="&#x14f;" horiz-adv-x="591" 
d="M296 599c-102 0 -154.667 44.667 -158 134h41c3.33301 -62 42.666 -93 117.999 -93c76 0 115.333 31 118 93h41c-3.33301 -89.333 -56.666 -134 -159.999 -134zM296 -13c-72.667 0 -131.001 24.999 -175.001 74.999c-44.667 48.667 -67 114 -67 196
c0 83.333 22.333 149.333 67 198s103.334 73 176.001 73c72 0 130.333 -24.333 175 -73c44 -49.333 66 -114.666 66 -195.999c0 -82 -22.333 -147.667 -67 -197c-44.667 -50.667 -103 -76 -175 -76zM295.999 37.999c56 0 100.333 20 133 60s49 94 49 162
c0 67.333 -16.333 120.5 -49 159.5s-77 58.5 -133 58.5s-100.333 -19.833 -133 -59.5s-49 -93.167 -49 -160.5s16.5 -120.833 49.5 -160.5s77.167 -59.5 132.5 -59.5z" />
    <glyph glyph-name="Ohungarumlaut" unicode="&#x150;" horiz-adv-x="807" 
d="M318 790h-53l99 163h70zM500 790h-53l106 163h71zM403 -15c-98.667 0 -178.668 34.668 -240.001 104.001s-92 158.333 -92 267c0 108 30.667 196.667 92 266c60.667 68.667 140.667 103 240 103c100.667 0 181.334 -34.333 242.001 -103s91 -157.334 91 -266.001
c0 -109.333 -30.333 -198.333 -91 -267c-61.333 -69.333 -142 -104 -242 -104zM402.999 40.001c82 0 147.666 29.001 196.999 87.001c49.333 57.333 74 133.666 74 228.999c0 94.667 -24.667 170.667 -74 228c-50 57.333 -115.667 86 -197 86s-146.666 -28.667 -195.999 -86
s-74 -133.333 -74 -228s25 -171 75 -229c49.333 -58 114.333 -87 195 -87z" />
    <glyph glyph-name="ohungarumlaut" unicode="&#x151;" horiz-adv-x="591" 
d="M213 594h-53l99 163h70zM395 594h-53l106 163h71zM296 -13c-72.667 0 -131.001 24.999 -175.001 74.999c-44.667 48.667 -67 114 -67 196c0 83.333 22.333 149.333 67 198s103.334 73 176.001 73c72 0 130.333 -24.333 175 -73c44 -49.333 66 -114.666 66 -195.999
c0 -82 -22.333 -147.667 -67 -197c-44.667 -50.667 -103 -76 -175 -76zM295.999 37.999c56 0 100.333 20 133 60s49 94 49 162c0 67.333 -16.333 120.5 -49 159.5s-77 58.5 -133 58.5s-100.333 -19.833 -133 -59.5s-49 -93.167 -49 -160.5s16.5 -120.833 49.5 -160.5
s77.167 -59.5 132.5 -59.5z" />
    <glyph glyph-name="OE" unicode="&#x152;" horiz-adv-x="1244" 
d="M734 343l-0.000976562 -290.001h441v-53h-501v151c-26 -52.667 -62.167 -93.5 -108.5 -122.5s-100.5 -43.5 -162.5 -43.5c-99.333 0 -179.666 34.667 -240.999 104c-60.667 68.667 -91 157.667 -91 267c0 108.667 30.333 197.334 91 266.001s141 103 241 103
c62 0 116.333 -14 163 -42s82.667 -68 108 -120v149h488v-53h-428v-263h397v-53h-397zM403.999 39.999c82 0 147.332 28.333 195.999 85c49.333 57.333 74 134.333 74 231c0 96 -24.667 172.667 -74 230c-48.667 56 -114.334 84 -197.001 84
c-81.333 0 -146.666 -28.667 -195.999 -86s-74 -133.333 -74 -228c0 -94 24.667 -170.333 74 -229c48.667 -58 114.334 -87 197.001 -87z" />
    <glyph glyph-name="oe" unicode="&#x153;" horiz-adv-x="997" 
d="M944 276l0.000976562 -26.001h-406c0 -66.667 16 -118.667 48 -156s76 -56 132 -56c81.333 0 135.666 38.667 162.999 116l55 -6c-14 -48.667 -40.333 -87.5 -79 -116.5s-85.667 -43.5 -141 -43.5c-48 0 -90.167 11.333 -126.5 34s-63.833 54.334 -82.5 95.001
c-20 -40.667 -48.333 -72.5 -85 -95.5s-78.667 -34.5 -126 -34.5c-72.667 0 -131 25 -175 75c-44.667 48.667 -67 114 -67 196c0 83.333 22.333 149.333 67 198s103.334 73 176.001 73c47.333 0 89.166 -11 125.499 -33s64.5 -53 84.5 -93c41.333 83.333 110 125 206 125
c70.667 0 127 -23 169 -69c41.333 -46.667 62 -107.667 62 -183zM296.001 37.999c56 0 100.333 20 133 60s49 94 49 162c0 67.333 -16.333 120.5 -49 159.5s-77 58.5 -133 58.5s-100.333 -19.833 -133 -59.5s-49 -93.167 -49 -160.5s16.5 -120.833 49.5 -160.5
s77.167 -59.5 132.5 -59.5zM714.001 477.999c-50.667 0 -91.5 -16.167 -122.5 -48.5s-48.5 -77.5 -52.5 -135.5h348c-4 58 -21 103.167 -51 135.5s-70.667 48.5 -122 48.5z" />
    <glyph glyph-name="Racute" unicode="&#x154;" horiz-adv-x="717" 
d="M400 949h81l-128 -152h-54zM608 212l24 -212.001h-61l-21 189c-5.33301 46.667 -19.5 80.167 -42.5 100.5s-61.167 30.5 -114.5 30.5h-238v-320h-60v712h321c64.667 0 116 -16.833 154 -50.5s57 -79.167 57 -136.5c0 -47.333 -12.5 -86.666 -37.5 -117.999
s-59.833 -51.666 -104.5 -60.999c72.667 -10.667 113.667 -55.334 123 -134.001zM155 373.999h236c54.667 0 97.334 12.833 128.001 38.5s46 61.5 46 107.5c0 44 -13.833 78.167 -41.5 102.5s-66.834 36.5 -117.501 36.5h-251v-285z" />
    <glyph glyph-name="racute" unicode="&#x155;" horiz-adv-x="370" 
d="M270 753h81l-128 -152h-54zM142 516l0.000976562 -115c32 86 91 129 177 129c11.333 0 22 -1 32 -3v-59c-14 2 -27.667 3 -41 3c-47.333 0 -86.333 -16.333 -117 -49s-46.334 -78 -47.001 -136v-286h-60v516h56z" />
    <glyph glyph-name="uni0156" unicode="&#x156;" horiz-adv-x="717" 
d="M608 212l24 -212.001h-61l-21 189c-5.33301 46.667 -19.5 80.167 -42.5 100.5s-61.167 30.5 -114.5 30.5h-238v-320h-60v712h321c64.667 0 116 -16.833 154 -50.5s57 -79.167 57 -136.5c0 -47.333 -12.5 -86.666 -37.5 -117.999s-59.833 -51.666 -104.5 -60.999
c72.667 -10.667 113.667 -55.334 123 -134.001zM155 373.999h236c54.667 0 97.334 12.833 128.001 38.5s46 61.5 46 107.5c0 44 -13.833 78.167 -41.5 102.5s-66.834 36.5 -117.501 36.5h-251v-285zM378 -130.001l-53 -4v60h81v-98c0 -40 -19 -60 -57 -60h-24v28h23
c20 0 30 9.33301 30 28v46z" />
    <glyph glyph-name="uni0157" unicode="&#x157;" horiz-adv-x="370" 
d="M319 530c11.333 0 22.001 -1 32.001 -3v-59c-14 2 -27.667 3 -41 3c-47.333 0 -86.333 -16.333 -117 -49s-46.334 -78 -47.001 -136v-286h-60v516h56v-115c32 86 91 129 177 129zM129.001 -130l-53 -4v60h81v-98c0 -40 -19 -60 -57 -60h-24v28h23c20 0 30 9.33301 30 28
v46z" />
    <glyph glyph-name="Rcaron" unicode="&#x158;" horiz-adv-x="717" 
d="M511 956l-127 -158h-62l-127 158h63l95 -120l95 120h63zM608 212l24 -212.001h-61l-21 189c-5.33301 46.667 -19.5 80.167 -42.5 100.5s-61.167 30.5 -114.5 30.5h-238v-320h-60v712h321c64.667 0 116 -16.833 154 -50.5s57 -79.167 57 -136.5
c0 -47.333 -12.5 -86.666 -37.5 -117.999s-59.833 -51.666 -104.5 -60.999c72.667 -10.667 113.667 -55.334 123 -134.001zM155 373.999h236c54.667 0 97.334 12.833 128.001 38.5s46 61.5 46 107.5c0 44 -13.833 78.167 -41.5 102.5s-66.834 36.5 -117.501 36.5h-251v-285z
" />
    <glyph glyph-name="rcaron" unicode="&#x159;" horiz-adv-x="370" 
d="M381 752l-127 -157h-62l-127 157h63l95 -120l95 120h63zM142 516l0.000976562 -115c32 86 91 129 177 129c11.333 0 22 -1 32 -3v-59c-14 2 -27.667 3 -41 3c-47.333 0 -86.333 -16.333 -117 -49s-46.334 -78 -47.001 -136v-286h-60v516h56z" />
    <glyph glyph-name="Sacute" unicode="&#x15a;" horiz-adv-x="667" 
d="M330 797h-54l101 152h81zM341 -14c-175.333 0 -270.002 78.332 -284.002 234.999h58c10.667 -122.667 86.667 -184 228 -184c67.333 0 118.833 13.167 154.5 39.5s53.5 63.5 53.5 111.5c0 38 -12.333 68.333 -37 91s-64.667 39.667 -120 51l-120 24
c-128 26 -192 86 -192 180c0 58.667 22 105.334 66 140.001s104.667 52 182 52c76.667 0 137.834 -18 183.501 -54s70.834 -86.667 75.501 -152h-58c-4 50 -23.667 88.5 -59 115.5s-83.333 40.5 -144 40.5c-59.333 0 -105.5 -12.167 -138.5 -36.5
s-49.5 -58.166 -49.5 -101.499c0 -33.333 11.5 -60.333 34.5 -81s58.833 -36.334 107.5 -47.001l135 -27c128.667 -26.667 193 -90.667 193 -192c0 -62.667 -23.167 -112.5 -69.5 -149.5s-112.833 -55.5 -199.5 -55.5z" />
    <glyph glyph-name="sacute" unicode="&#x15b;" horiz-adv-x="516" 
d="M255 601h-54l101 152h81zM262 -13c-132 0 -202.334 57.333 -211.001 172h57c8 -81.333 60 -122 156 -122c47.333 0 83.5 8.83301 108.5 26.5s37.5 42.5 37.5 74.5c0 50.667 -34.333 82 -103 94l-94 17c-50 9.33301 -87.167 24.833 -111.5 46.5s-36.5 50.834 -36.5 87.501
c0 44.667 16.5 79.667 49.5 105s78.833 38 137.5 38s105.834 -13.5 141.501 -40.5s56.167 -65.5 61.5 -115.5h-59c-10.667 72 -59 108 -145 108c-40 0 -71.667 -8 -95 -24s-35 -38 -35 -66c0 -24 8.5 -42.833 25.5 -56.5s43.833 -23.5 80.5 -29.5l92 -18
c99.333 -19.333 149 -66.333 149 -141c0 -48.667 -18.167 -86.834 -54.5 -114.501s-86.833 -41.5 -151.5 -41.5z" />
    <glyph glyph-name="Scircumflex" unicode="&#x15c;" horiz-adv-x="667" 
d="M235 791h-63l127 158h62l127 -158h-63l-95 121zM341 -14c-175.333 0 -270.002 78.332 -284.002 234.999h58c10.667 -122.667 86.667 -184 228 -184c67.333 0 118.833 13.167 154.5 39.5s53.5 63.5 53.5 111.5c0 38 -12.333 68.333 -37 91s-64.667 39.667 -120 51l-120 24
c-128 26 -192 86 -192 180c0 58.667 22 105.334 66 140.001s104.667 52 182 52c76.667 0 137.834 -18 183.501 -54s70.834 -86.667 75.501 -152h-58c-4 50 -23.667 88.5 -59 115.5s-83.333 40.5 -144 40.5c-59.333 0 -105.5 -12.167 -138.5 -36.5
s-49.5 -58.166 -49.5 -101.499c0 -33.333 11.5 -60.333 34.5 -81s58.833 -36.334 107.5 -47.001l135 -27c128.667 -26.667 193 -90.667 193 -192c0 -62.667 -23.167 -112.5 -69.5 -149.5s-112.833 -55.5 -199.5 -55.5z" />
    <glyph glyph-name="scircumflex" unicode="&#x15d;" horiz-adv-x="516" 
d="M159 595h-63l127 158h62l127 -158h-63l-95 121zM262 -13c-132 0 -202.334 57.333 -211.001 172h57c8 -81.333 60 -122 156 -122c47.333 0 83.5 8.83301 108.5 26.5s37.5 42.5 37.5 74.5c0 50.667 -34.333 82 -103 94l-94 17c-50 9.33301 -87.167 24.833 -111.5 46.5
s-36.5 50.834 -36.5 87.501c0 44.667 16.5 79.667 49.5 105s78.833 38 137.5 38s105.834 -13.5 141.501 -40.5s56.167 -65.5 61.5 -115.5h-59c-10.667 72 -59 108 -145 108c-40 0 -71.667 -8 -95 -24s-35 -38 -35 -66c0 -24 8.5 -42.833 25.5 -56.5s43.833 -23.5 80.5 -29.5
l92 -18c99.333 -19.333 149 -66.333 149 -141c0 -48.667 -18.167 -86.834 -54.5 -114.501s-86.833 -41.5 -151.5 -41.5z" />
    <glyph glyph-name="Scedilla" unicode="&#x15e;" horiz-adv-x="667" 
d="M610 191c0 -60.667 -21.501 -109.333 -64.501 -146s-105.5 -56.334 -187.5 -59.001l-37 -58h27c30 0 53.167 -6.83301 69.5 -20.5s24.5 -33.167 24.5 -58.5c0 -27.333 -10.833 -48.833 -32.5 -64.5s-51.834 -23.5 -90.501 -23.5h-35v38h31c52.667 0 79 16 79 48
c0 27.333 -18.333 41 -55 41h-42l-19 32l42 66c-162 6.66699 -249.667 85 -263 235h58c10.667 -122.667 86.667 -184 228 -184c67.333 0 118.833 13.167 154.5 39.5s53.5 63.5 53.5 111.5c0 38 -12.333 68.333 -37 91s-64.667 39.667 -120 51l-120 24
c-128 26 -192 86 -192 180c0 58.667 22 105.334 66 140.001s104.667 52 182 52c76.667 0 137.834 -18 183.501 -54s70.834 -86.667 75.501 -152h-58c-4 50 -23.667 88.5 -59 115.5s-83.333 40.5 -144 40.5c-59.333 0 -105.5 -12.167 -138.5 -36.5
s-49.5 -58.166 -49.5 -101.499c0 -33.333 11.5 -60.333 34.5 -81s58.833 -36.334 107.5 -47.001l135 -27c128.667 -26.667 193 -90.667 193 -192z" />
    <glyph glyph-name="scedilla" unicode="&#x15f;" horiz-adv-x="516" 
d="M468 143c0 -46.667 -16.668 -83.668 -50.001 -111.001s-79.666 -42.333 -138.999 -45l-37 -58h27c30 0 53.167 -6.83301 69.5 -20.5s24.5 -33.167 24.5 -58.5c0 -27.333 -10.833 -48.833 -32.5 -64.5s-51.834 -23.5 -90.501 -23.5h-35v38h31c52.667 0 79 16 79 48
c0 27.333 -18.333 41 -55 41h-42l-19 32l42 67c-118.667 6 -182 63 -190 171h57c8 -81.333 60 -122 156 -122c47.333 0 83.5 8.83301 108.5 26.5s37.5 42.5 37.5 74.5c0 50.667 -34.333 82 -103 94l-94 17c-50 9.33301 -87.167 24.833 -111.5 46.5
s-36.5 50.834 -36.5 87.501c0 44.667 16.5 79.667 49.5 105s78.833 38 137.5 38s105.834 -13.5 141.501 -40.5s56.167 -65.5 61.5 -115.5h-59c-10.667 72 -59 108 -145 108c-40 0 -71.667 -8 -95 -24s-35 -38 -35 -66c0 -24 8.5 -42.833 25.5 -56.5s43.833 -23.5 80.5 -29.5
l92 -18c99.333 -19.333 149 -66.333 149 -141z" />
    <glyph glyph-name="Scaron" unicode="&#x160;" horiz-adv-x="667" 
d="M361 798h-62l-127 158h63l95 -120l95 120h63zM341 -14c-175.333 0 -270.002 78.332 -284.002 234.999h58c10.667 -122.667 86.667 -184 228 -184c67.333 0 118.833 13.167 154.5 39.5s53.5 63.5 53.5 111.5c0 38 -12.333 68.333 -37 91s-64.667 39.667 -120 51l-120 24
c-128 26 -192 86 -192 180c0 58.667 22 105.334 66 140.001s104.667 52 182 52c76.667 0 137.834 -18 183.501 -54s70.834 -86.667 75.501 -152h-58c-4 50 -23.667 88.5 -59 115.5s-83.333 40.5 -144 40.5c-59.333 0 -105.5 -12.167 -138.5 -36.5
s-49.5 -58.166 -49.5 -101.499c0 -33.333 11.5 -60.333 34.5 -81s58.833 -36.334 107.5 -47.001l135 -27c128.667 -26.667 193 -90.667 193 -192c0 -62.667 -23.167 -112.5 -69.5 -149.5s-112.833 -55.5 -199.5 -55.5z" />
    <glyph glyph-name="scaron" unicode="&#x161;" horiz-adv-x="516" 
d="M285 595h-62l-127 157h63l95 -120l95 120h63zM262 -13c-132 0 -202.334 57.333 -211.001 172h57c8 -81.333 60 -122 156 -122c47.333 0 83.5 8.83301 108.5 26.5s37.5 42.5 37.5 74.5c0 50.667 -34.333 82 -103 94l-94 17c-50 9.33301 -87.167 24.833 -111.5 46.5
s-36.5 50.834 -36.5 87.501c0 44.667 16.5 79.667 49.5 105s78.833 38 137.5 38s105.834 -13.5 141.501 -40.5s56.167 -65.5 61.5 -115.5h-59c-10.667 72 -59 108 -145 108c-40 0 -71.667 -8 -95 -24s-35 -38 -35 -66c0 -24 8.5 -42.833 25.5 -56.5s43.833 -23.5 80.5 -29.5
l92 -18c99.333 -19.333 149 -66.333 149 -141c0 -48.667 -18.167 -86.834 -54.5 -114.501s-86.833 -41.5 -151.5 -41.5z" />
    <glyph glyph-name="uni0162" unicode="&#x162;" horiz-adv-x="644" 
d="M352 659l0.000976562 -659h-10l-40 -65h26c30 0 53.167 -6.83301 69.5 -20.5s24.5 -33.167 24.5 -58.5c0 -27.333 -10.833 -48.833 -32.5 -64.5s-51.834 -23.5 -90.501 -23.5h-35v38h31c53.333 0 80 16 80 48c0 27.333 -18.333 41 -55 41h-43l-19 32l46 73h-13v659h-248
v53h558v-53h-249z" />
    <glyph glyph-name="uni0163" unicode="&#x163;" horiz-adv-x="341" 
d="M311 469l-129.999 2v-353c0 -24 5 -41.167 15 -51.5s26.667 -15.5 50 -15.5h64v-51h-80h-11l-36 -57h27c30 0 53.167 -6.83301 69.5 -20.5s24.5 -33.167 24.5 -58.5c0 -27.333 -10.833 -48.833 -32.5 -64.5s-51.834 -23.5 -90.501 -23.5h-35v37h31
c52.667 0 79 16.333 79 49c0 26.667 -18.333 40 -55 40h-42l-19 33l45 71c-42.667 12.667 -64 47.667 -64 105v360l-89 -2v47l89 -2v155h60v-155l130 2v-47z" />
    <glyph glyph-name="Tcaron" unicode="&#x164;" horiz-adv-x="644" 
d="M480 956l-127 -158h-62l-127 158h63l95 -120l95 120h63zM43 712h558v-53h-249v-659h-61v659h-248v53z" />
    <glyph glyph-name="tcaron" unicode="&#x165;" horiz-adv-x="341" 
d="M311 792h71l-81 -198h-46zM181 669v-155l130 2v-47l-130 2v-353c0 -24 5 -41.167 15 -51.5s26.667 -15.5 50 -15.5h64v-51h-80c-72.667 0 -109 37 -109 111v360l-89 -2v47l89 -2v155h60z" />
    <glyph glyph-name="Tbar" unicode="&#x166;" horiz-adv-x="644" 
d="M601 712v-53h-249v-272l230 3v-53l-230 3v-340h-61v340l-229 -3v53l229 -3v272h-248v53h558z" />
    <glyph glyph-name="tbar" unicode="&#x167;" horiz-adv-x="339" 
d="M309 516v-47l-131 2v-177l131 2v-47l-131 3l1 -32v-102c0 -24 5 -41.167 15 -51.5s26.667 -15.5 50 -15.5h64v-51h-80c-72.667 0 -109 37 -109 111v109l1 32l-90 -3v47l91 -2v177l-91 -2v47l90 -2l-1 22v133h60v-133l-1 -22z" />
    <glyph glyph-name="Utilde" unicode="&#x168;" horiz-adv-x="728" 
d="M223 807l-47 0.000976562c2 101.333 37 152 105 152c19.333 0 37.333 -5.16699 54 -15.5s29.667 -22.5 39 -36.5c22 -35.333 46.333 -53 73 -53c18.667 0 32.667 8.16699 42 24.5s14.666 43.166 15.999 80.499h47c-2 -101.333 -37 -152 -105 -152
c-19.333 0 -37.166 5.16699 -53.499 15.5s-28.833 22.833 -37.5 37.5c-22 35.333 -47 53 -75 53c-36 0 -55.333 -35.333 -58 -106zM561 47.001c-47.333 -40.667 -113 -61 -197 -61s-149.667 20.333 -197 61c-48 40 -72 101 -72 183v482h60v-484
c0 -125.333 69.667 -188 209 -188s209 62.667 209 188v484h60v-482c0 -82 -24 -143 -72 -183z" />
    <glyph glyph-name="utilde" unicode="&#x169;" horiz-adv-x="589" 
d="M212 717c-36 0 -55.333 -35.332 -58 -105.999h-47c2 101.333 37 152 105 152c19.333 0 37.333 -5.16699 54 -15.5s29.667 -22.5 39 -36.5c22 -35.333 46.333 -53 73 -53c18.667 0 32.667 8.16699 42 24.5s14.666 43.166 15.999 80.499h47c-2 -101.333 -37 -152 -105 -152
c-19.333 0 -37.166 5.16699 -53.499 15.5s-28.833 22.833 -37.5 37.5c-22 35.333 -47 53 -75 53zM443 233.001l-0.000976562 283h60v-516h-57v100c-34 -75.333 -95 -113 -183 -113c-56 0 -99.5 15.833 -130.5 47.5s-46.5 76.167 -46.5 133.5v348h60v-337
c0 -92.667 43 -139 129 -139c50.667 0 91.334 16.333 122.001 49s46 80.667 46 144z" />
    <glyph glyph-name="Umacron" unicode="&#x16a;" horiz-adv-x="728" 
d="M517 830h-306v47h306v-47zM561 47c-47.333 -40.667 -113 -61 -197 -61s-149.667 20.333 -197 61c-48 40 -72 101 -72 183v482h60v-484c0 -125.333 69.667 -188 209 -188s209 62.667 209 188v484h60v-482c0 -82 -24 -143 -72 -183z" />
    <glyph glyph-name="umacron" unicode="&#x16b;" horiz-adv-x="589" 
d="M142 681h306v-47h-306v47zM443 233l-0.000976562 283h60v-516h-57v100c-34 -75.333 -95 -113 -183 -113c-56 0 -99.5 15.833 -130.5 47.5s-46.5 76.167 -46.5 133.5v348h60v-337c0 -92.667 43 -139 129 -139c50.667 0 91.334 16.333 122.001 49s46 80.667 46 144z" />
    <glyph glyph-name="Ubreve" unicode="&#x16c;" horiz-adv-x="728" 
d="M363 795c-102.667 0 -155.331 44.333 -157.998 133h41c3.33301 -61.333 42.666 -92 117.999 -92s114.666 30.667 117.999 92h41c-2.66699 -88.667 -56 -133 -160 -133zM561.003 47c-47.333 -40.667 -113 -61 -197 -61s-149.667 20.333 -197 61c-48 40 -72 101 -72 183
v482h60v-484c0 -125.333 69.667 -188 209 -188s209 62.667 209 188v484h60v-482c0 -82 -24 -143 -72 -183z" />
    <glyph glyph-name="ubreve" unicode="&#x16d;" horiz-adv-x="589" 
d="M294 599c-102 0 -154.666 44.667 -157.999 134h41c3.33301 -62 42.666 -93 117.999 -93s114.666 31 117.999 93h41c-3.33301 -89.333 -56.666 -134 -159.999 -134zM443.001 233l-0.000976562 283h60v-516h-57v100c-34 -75.333 -95 -113 -183 -113
c-56 0 -99.5 15.833 -130.5 47.5s-46.5 76.167 -46.5 133.5v348h60v-337c0 -92.667 43 -139 129 -139c50.667 0 91.334 16.333 122.001 49s46 80.667 46 144z" />
    <glyph glyph-name="Uring" unicode="&#x16e;" horiz-adv-x="728" 
d="M454 823c-24 -24 -54 -36.001 -90 -36.001s-65.667 12 -89 36c-24 22.667 -36 52 -36 88s11.833 65.833 35.5 89.5s53.5 35.5 89.5 35.5s65.833 -11.833 89.5 -35.5s35.5 -53.5 35.5 -89.5c0 -35.333 -11.667 -64.666 -35 -87.999zM305 851.999
c15.333 -14.667 35 -22 59 -22s43.667 7.33301 59 22c15.333 15.333 23 35 23 59c0 25.333 -7.66699 45.5 -23 60.5s-35 22.5 -59 22.5s-43.667 -7.5 -59 -22.5s-23 -35.167 -23 -60.5c0 -24 7.66699 -43.667 23 -59zM561 46.999c-47.333 -40.667 -113 -61 -197 -61
s-149.667 20.333 -197 61c-48 40 -72 101 -72 183v482h60v-484c0 -125.333 69.667 -188 209 -188s209 62.667 209 188v484h60v-482c0 -82 -24 -143 -72 -183z" />
    <glyph glyph-name="uring" unicode="&#x16f;" horiz-adv-x="589" 
d="M385 627c-24 -24 -53.999 -36 -89.999 -36c-36.667 0 -66.334 12 -89.001 36c-24 23.333 -36 52.666 -36 87.999c0 36 11.833 65.833 35.5 89.5s53.5 35.5 89.5 35.5s65.833 -11.833 89.5 -35.5s35.5 -53.5 35.5 -89.5c0 -35.333 -11.667 -64.666 -35 -87.999z
M354.001 776c-15.333 14.667 -35 22 -59 22s-43.667 -7.33301 -59 -22c-15.333 -15.333 -23 -35.666 -23 -60.999c0 -24.667 7.66699 -44.5 23 -59.5s35 -22.5 59 -22.5s43.667 7.5 59 22.5s23 34.833 23 59.5c0 25.333 -7.66699 45.666 -23 60.999zM443.001 233
l-0.000976562 283h60v-516h-57v100c-34 -75.333 -95 -113 -183 -113c-56 0 -99.5 15.833 -130.5 47.5s-46.5 76.167 -46.5 133.5v348h60v-337c0 -92.667 43 -139 129 -139c50.667 0 91.334 16.333 122.001 49s46 80.667 46 144z" />
    <glyph glyph-name="Uhungarumlaut" unicode="&#x170;" horiz-adv-x="728" 
d="M280 790h-53l99 163h70zM462 790h-53l106 163h71zM561 47c-47.333 -40.667 -113 -61 -197 -61s-149.667 20.333 -197 61c-48 40 -72 101 -72 183v482h60v-484c0 -125.333 69.667 -188 209 -188s209 62.667 209 188v484h60v-482c0 -82 -24 -143 -72 -183z" />
    <glyph glyph-name="uhungarumlaut" unicode="&#x171;" horiz-adv-x="589" 
d="M257 757h70l-116 -163h-53zM446 757h71l-124 -163h-53zM443 233l-0.000976562 283h60v-516h-57v100c-34 -75.333 -95 -113 -183 -113c-56 0 -99.5 15.833 -130.5 47.5s-46.5 76.167 -46.5 133.5v348h60v-337c0 -92.667 43 -139 129 -139
c50.667 0 91.334 16.333 122.001 49s46 80.667 46 144z" />
    <glyph glyph-name="Uogonek" unicode="&#x172;" horiz-adv-x="728" 
d="M573 228v484.002h60v-482c0 -68.667 -16.833 -122.834 -50.5 -162.501s-82.167 -64.834 -145.5 -75.501l-63 -37c-33.333 -19.333 -50 -41 -50 -65c0 -34 23.667 -51 71 -51h34v-44h-47c-37.333 0 -65.5 7.5 -84.5 22.5s-28.5 35.833 -28.5 62.5c0 40 25 72.333 75 97
l17 9c-84 0.666992 -149.333 21.5 -196 62.5s-70 101.5 -70 181.5v482h60v-484c0 -125.333 69.667 -188 209 -188s209 62.667 209 188z" />
    <glyph glyph-name="uogonek" unicode="&#x173;" horiz-adv-x="589" 
d="M503 -4l-70 -40.002c-33.333 -19.333 -50 -40.333 -50 -63c0 -33.333 23.333 -50 70 -50h35v-44h-48c-36.667 0 -64.5 7.33301 -83.5 22s-28.5 35.334 -28.5 62.001c0 38 24.667 69.667 74 95l55 28l-9 108c-33.333 -78 -94.333 -117 -183 -117
c-56 0 -100.667 16.333 -134 49c-30 30.667 -45 77 -45 139v331h60v-327c0 -45.333 10.667 -79.666 32 -102.999c23.333 -24 55.666 -36 96.999 -36c50.667 0 91.334 16.333 122.001 49s46 80.667 46 144v273h60v-520z" />
    <glyph glyph-name="Wcircumflex" unicode="&#x174;" horiz-adv-x="947" 
d="M569 791l-95 121l-95 -121h-63l127 158h62l127 -158h-63zM709 217l142 495h62l-208 -714h-57l-177 646l-177 -646h-57l-203 714h62l138 -495l33 -136l33 136l137 495h67l137 -495l34 -136z" />
    <glyph glyph-name="wcircumflex" unicode="&#x175;" horiz-adv-x="768" 
d="M479 595l-95 121l-95 -121h-63l127 158h62l127 -158h-63zM565 163l108 353h62l-168 -516h-60l-100 364l-22 100l-23 -100l-103 -364h-61l-165 516h65l106 -353l26 -100l24 100l99 353h64l100 -353l23 -98z" />
    <glyph glyph-name="Ycircumflex" unicode="&#x176;" horiz-adv-x="677" 
d="M434 791l-95 121l-95 -121h-63l127 158h62l127 -158h-63zM584 712h69l-281 -421v-291h-61v290l-287 422h73l223 -337l22 -37l21 37z" />
    <glyph glyph-name="ycircumflex" unicode="&#x177;" horiz-adv-x="541" 
d="M366 595l-95 121l-95 -121h-63l127 158h62l127 -158h-63zM273 52l173.001 464h62l-244 -625c-14.667 -36 -32 -60.833 -52 -74.5s-48.667 -20.5 -86 -20.5h-44v51h39c28 0 48.667 4.83301 62 14.5s25.666 28.5 36.999 56.5l29 74l-216 524h65l166 -417z" />
    <glyph glyph-name="Ydieresis" unicode="&#x178;" horiz-adv-x="677" 
d="M203 893h68v-83h-68v83zM407 893h68v-83h-68v83zM584 712h69l-281 -421v-291h-61v290l-287 422h73l223 -337l22 -37l21 37z" />
    <glyph glyph-name="Zacute" unicode="&#x179;" horiz-adv-x="677" 
d="M386 949h81l-128 -152h-54zM596 663l-459 -608h474v-55h-545v59l453 598h-427v55h504v-49z" />
    <glyph glyph-name="zacute" unicode="&#x17a;" horiz-adv-x="527" 
d="M311 753h81l-128 -152h-54zM456 478l-331 -429h348v-49h-419v43l328 424h-315v49h389v-38z" />
    <glyph glyph-name="Zdotaccent" unicode="&#x17b;" horiz-adv-x="677" 
d="M305 893h68v-83h-68v83zM596 663l-459 -608h474v-55h-545v59l453 598h-427v55h504v-49z" />
    <glyph glyph-name="zdotaccent" unicode="&#x17c;" horiz-adv-x="527" 
d="M230 712h68v-82h-68v82zM456 478l-331 -429h348v-49h-419v43l328 424h-315v49h389v-38z" />
    <glyph glyph-name="Zcaron" unicode="&#x17d;" horiz-adv-x="677" 
d="M497 956l-127 -158h-62l-127 158h63l95 -120l95 120h63zM596 663l-459 -608h474v-55h-545v59l453 598h-427v55h504v-49z" />
    <glyph glyph-name="zcaron" unicode="&#x17e;" horiz-adv-x="527" 
d="M422 752l-127 -157h-62l-127 157h63l95 -120l95 120h63zM456 478l-331 -429h348v-49h-419v43l328 424h-315v49h389v-38z" />
    <glyph glyph-name="uni018F" unicode="&#x18f;" horiz-adv-x="808" 
d="M398 725c102 0 184.002 -33.668 246.002 -101.001c61.333 -67.333 92 -157 92 -269c0 -110 -30 -199.333 -90 -268c-60.667 -68.667 -142 -103 -244 -103c-101.333 0 -181.333 33.333 -240 100c-60 68 -90.333 152 -91 252c0 12.667 0.333008 21.334 1 26.001h603
c-0.666992 94.667 -26 170 -76 226c-50 54.667 -117.333 82 -202 82c-112 0 -188.333 -47.333 -229 -142h-66c23.333 62.667 60.666 111.167 111.999 145.5s112.666 51.5 183.999 51.5zM403.002 39.999c77.333 0 139.833 23.833 187.5 71.5s75.167 113.167 82.5 196.5h-538
c4.66699 -78.667 31 -143 79 -193c46.667 -50 109.667 -75 189 -75z" />
    <glyph glyph-name="florin" unicode="&#x192;" 
d="M493 712h60l-10 -50h-48c-26.667 0 -46.667 -6.5 -60 -19.5s-23 -35.5 -29 -67.5l-33 -169l120 2l-10 -47l-118 2l-74 -381c-9.33301 -46 -25.5 -79.333 -48.5 -100s-55.5 -31 -97.5 -31h-58l10 50h46c26 0 45.667 6.33301 59 19s23.333 35 30 67l73 376l-115 -2l9 47
l114 -2l34 175c9.33301 46 25.5 79.333 48.5 100s55.5 31 97.5 31z" />
    <glyph glyph-name="uni01F4" unicode="&#x1f4;" horiz-adv-x="813" 
d="M453 949h81l-128 -152h-54zM414 314l-0.00292969 53h304v-367h-46l-11 133c-51.333 -98 -137.666 -147 -258.999 -147c-100 0 -180 34 -240 102c-60.667 66.667 -91 156.667 -91 270c0 111.333 29.667 200.666 89 267.999c58.667 66.667 140.334 100 245.001 100
c82 0 150 -19.667 204 -59s87 -93.666 99 -162.999l-58 -4c-10 53.333 -36 95.333 -78 126s-96.667 46 -164 46c-86 0 -153.333 -28 -202 -84s-73 -133.333 -73 -232c0 -94.667 24 -171 72 -229c47.333 -58 113.333 -87 198 -87c70 0 127.333 19.833 172 59.5
s72.334 95.167 83.001 166.5v48h-244z" />
    <glyph glyph-name="uni01F5" unicode="&#x1f5;" horiz-adv-x="601" 
d="M324 753h81l-128 -152h-54zM459 407l0.000976562 109h56v-510c0 -72 -20 -126.167 -60 -162.5s-97 -54.5 -171 -54.5c-60.667 0 -109.334 12.667 -146.001 38s-58 59.333 -64 102h58c15.333 -61.333 66.666 -92 153.999 -92c58 0 101 13.333 129 40s42 68 42 124v105
c-16 -35.333 -39.833 -63.666 -71.5 -84.999s-67.834 -32 -108.501 -32c-68.667 0 -123 25.667 -163 77c-40 50.667 -60 116.667 -60 198c0 80 20.333 143.667 61 191c40 48 93.333 72 160 72c42.667 0 80.334 -10.833 113.001 -32.5s56.334 -50.834 71.001 -87.501z
M282.001 41c52 0 93.833 20.001 125.5 60.001s47.5 93.667 47.5 161s-15.667 119.666 -47 156.999c-32 37.333 -74 56 -126 56s-93 -18.333 -123 -55c-30 -37.333 -45 -89.333 -45 -156c0 -68 15 -122.167 45 -162.5s71 -60.5 123 -60.5z" />
    <glyph glyph-name="Aringacute" unicode="&#x1fa;" horiz-adv-x="716" 
d="M403 1104h81l-127 -150h-54zM682 0l-66.998 -0.000976562l-88 223h-339l-89 -223h-65l278 680c-24.667 8.66699 -44.334 23.334 -59.001 44.001s-22 44.667 -22 72c0 36 11.667 65.833 35 89.5s53.333 35.5 90 35.5c36 0 65.667 -11.833 89 -35.5s35 -53.5 35 -89.5
c0 -26 -6.83301 -49 -20.5 -69s-31.834 -35 -54.501 -45zM274.002 795.999c0 -24 7.66699 -43.5 23 -58.5s35 -22.5 59 -22.5s43.5 7.5 58.5 22.5s22.5 34.5 22.5 58.5c0 25.333 -7.5 45.5 -22.5 60.5s-34.5 22.5 -58.5 22.5s-43.667 -7.5 -59 -22.5s-23 -35.167 -23 -60.5z
M343.002 609.999l-134 -334h297l-131 334l-16 50z" />
    <glyph glyph-name="aringacute" unicode="&#x1fb;" horiz-adv-x="574" 
d="M331 1034h81l-128 -152h-54zM283 583c-36 0 -65.667 11.833 -89 35.5s-35 53.167 -35 88.5c0 36 11.667 65.833 35 89.5s53 35.5 89 35.5c36.667 0 66.667 -11.833 90 -35.5s35 -53.5 35 -89.5c0 -35.333 -11.667 -64.833 -35 -88.5s-53.333 -35.5 -90 -35.5zM283 790
c-24 0 -43.499 -7.5 -58.499 -22.5s-22.5 -35.167 -22.5 -60.5c0 -24.667 7.66699 -44.5 23 -59.5s34.666 -22.5 57.999 -22.5c24 0 43.667 7.5 59 22.5s23 34.833 23 59.5c0 25.333 -7.66699 45.5 -23 60.5s-35 22.5 -59 22.5zM542.001 46l15.998 0.000976562v-46h-33
c-33.333 0 -57.666 7.66699 -72.999 23s-23.666 40 -24.999 74c-16 -34 -41.333 -60.833 -76 -80.5s-75 -29.5 -121 -29.5c-54.667 0 -97.334 13.333 -128.001 40s-46 62.667 -46 108c0 87.333 56 138.666 168 153.999l130 17c24.667 4 41.667 10.833 51 20.5
s14 23.834 14 42.501v13c0 65.333 -46.333 98 -139 98c-46 0 -80.167 -8.66699 -102.5 -26s-35.5 -45.333 -39.5 -84h-60c8.66699 106.667 77.334 160 206.001 160c63.333 0 111.833 -13.333 145.5 -40s50.5 -64.334 50.5 -113.001v-260c0 -26 4.5 -44.333 13.5 -55
s25.167 -16 48.5 -16zM239.999 35.001c48.667 0 89.5 13.332 122.5 39.999s51.833 62.667 56.5 108v95c-9.33301 -6.66699 -23.333 -11.334 -42 -14.001l-143 -21c-79.333 -11.333 -119 -46.666 -119 -105.999c0 -31.333 11 -56.166 33 -74.499s52.667 -27.5 92 -27.5z" />
    <glyph glyph-name="AEacute" unicode="&#x1fc;" horiz-adv-x="1135" 
d="M669 949h81l-128 -152h-54zM626 343v-290h440v-53h-501v210h-336l-131 -210h-64l443 712h576v-53h-427v-263h397v-53h-397zM510 662l-250 -402h305v402h-55z" />
    <glyph glyph-name="aeacute" unicode="&#x1fd;" horiz-adv-x="934" 
d="M515 753h81l-128 -152h-54zM881 276l-0.000976562 -26.001h-406c0 -66.667 16 -118.667 48 -156s76 -56 132 -56c82.667 0 137.334 39.333 164.001 118l54 -8c-14 -48.667 -40.333 -87.5 -79 -116.5s-85.667 -43.5 -141 -43.5c-48 0 -89.667 11.167 -125 33.5
s-62 54.5 -80 96.5c-37.333 -87.333 -107.666 -131 -210.999 -131c-56 0 -100.167 14 -132.5 42s-48.5 65.333 -48.5 112s16.167 83.834 48.5 111.501s78.833 41.5 139.5 41.5h174v71c0 36.667 -12 65 -36 85s-59.667 30 -107 30c-44 0 -76.833 -8.83301 -98.5 -26.5
s-34.834 -45.5 -39.501 -83.5h-59c8.66699 106.667 75.667 160 201 160c99.333 0 160.333 -34 183 -102c40 66.667 102.667 100 188 100c70.667 0 127 -23 169 -69c41.333 -46.667 62 -107.667 62 -183zM650.999 477.999c-50.667 0 -91.5 -16.167 -122.5 -48.5
s-48.5 -77.5 -52.5 -135.5h348c-4 58 -21 103.167 -51 135.5s-70.667 48.5 -122 48.5zM241.999 34.999c51.333 0 93.332 15.332 125.999 45.999s49.334 72.334 50.001 125.001v44l-178 -5c-40.667 -0.666992 -71.667 -10.167 -93 -28.5s-32 -43.5 -32 -75.5
c0 -32.667 11.333 -58.5 34 -77.5s53.667 -28.5 93 -28.5z" />
    <glyph glyph-name="Oslashacute" unicode="&#x1fe;" horiz-adv-x="807" 
d="M450 949h81l-128 -152h-54zM731 691l-73 -84.999c52 -66.667 78 -150 78 -250c0 -109.333 -30.333 -198.333 -91 -267c-61.333 -69.333 -142 -104 -242 -104c-85.333 0 -157.333 26.333 -216 79l-64 -73l-34 29l67 77c-56.667 67.333 -85 153.666 -85 258.999
c0 108 30.667 196.667 92 266c60.667 68.667 140.667 103 240 103c90 0 164.667 -28.333 224 -85l70 80zM133 356.001c0 -85.333 20.666 -156.667 61.999 -214l394 454c-49.333 49.333 -111.333 74 -186 74c-81.333 0 -146.666 -28.667 -195.999 -86s-74 -133.333 -74 -228z
M402.999 40c82 0 147.668 29.001 197.001 87.001c49.333 57.333 74 133.666 74 228.999c0 81.333 -18.667 149.333 -56 204l-393 -452c49.333 -45.333 108.666 -68 177.999 -68z" />
    <glyph glyph-name="oslashacute" unicode="&#x1ff;" horiz-adv-x="591" 
d="M345 761h81l-128 -152h-54zM528 502l-48.001 -57.001c38.667 -47.333 58 -109 58 -185c0 -82 -22.333 -147.667 -67 -197c-44.667 -50.667 -103 -76 -175 -76c-62 0 -113.667 18.333 -155 55l-46 -55l-34 27l50 59c-38 48.667 -57 110.334 -57 185.001
c0 83.333 22.333 149.333 67 198s103.334 73 176.001 73c60.667 0 111.667 -17.667 153 -53l45 53zM113.999 257.999c0 -56 11.667 -102.667 35 -140l266 316c-31.333 29.333 -71 44 -119 44c-56 0 -100.333 -19.833 -133 -59.5s-49 -93.167 -49 -160.5zM295.999 37.999
c56 0 100.333 20 133 60s49 94 49 162c0 56.667 -11.667 103.667 -35 141l-267 -317c31.333 -30.667 71.333 -46 120 -46z" />
    <glyph glyph-name="uni0218" unicode="&#x218;" horiz-adv-x="667" 
d="M282 410l134.998 -27.001c128.667 -26.667 193 -90.667 193 -192c0 -62.667 -23.167 -112.5 -69.5 -149.5s-112.833 -55.5 -199.5 -55.5c-175.333 0 -270 78.333 -284 235h58c10.667 -122.667 86.667 -184 228 -184c67.333 0 118.833 13.167 154.5 39.5
s53.5 63.5 53.5 111.5c0 38 -12.333 68.333 -37 91s-64.667 39.667 -120 51l-120 24c-128 26 -192 86 -192 180c0 58.667 22 105.334 66 140.001s104.667 52 182 52c76.667 0 137.834 -18 183.501 -54s70.834 -86.667 75.501 -152h-58c-4 50 -23.667 88.5 -59 115.5
s-83.333 40.5 -144 40.5c-59.333 0 -105.5 -12.167 -138.5 -36.5s-49.5 -58.166 -49.5 -101.499c0 -33.333 11.5 -60.333 34.5 -81s58.833 -36.334 107.5 -47.001zM353.998 -137.001l-53 -4v60h81v-98c0 -40 -19 -60 -57 -60h-24v28h23c20 0 30 9.33301 30 28v46z" />
    <glyph glyph-name="uni0219" unicode="&#x219;" horiz-adv-x="516" 
d="M227 302l91.999 -18c99.333 -19.333 149 -66.333 149 -141c0 -48.667 -18.167 -86.834 -54.5 -114.501s-86.833 -41.5 -151.5 -41.5c-132 0 -202.333 57.333 -211 172h57c8 -81.333 60 -122 156 -122c47.333 0 83.5 8.83301 108.5 26.5s37.5 42.5 37.5 74.5
c0 50.667 -34.333 82 -103 94l-94 17c-50 9.33301 -87.167 24.833 -111.5 46.5s-36.5 50.834 -36.5 87.501c0 44.667 16.5 79.667 49.5 105s78.833 38 137.5 38s105.834 -13.5 141.501 -40.5s56.167 -65.5 61.5 -115.5h-59c-10.667 72 -59 108 -145 108
c-40 0 -71.667 -8 -95 -24s-35 -38 -35 -66c0 -24 8.5 -42.833 25.5 -56.5s43.833 -23.5 80.5 -29.5zM274.999 -134l-54 -4v61h82v-98c0 -40.667 -19.333 -61 -58 -61h-24v28h24c20 0 30 9.33301 30 28v46z" />
    <glyph glyph-name="uni021A" unicode="&#x21a;" horiz-adv-x="644" 
d="M43 659v53h558v-53h-249v-659h-61v659h-248zM335 -130l-53 -4v60h81v-98c0 -40 -19 -60 -57 -60h-24v28h23c20 0 30 9.33301 30 28v46z" />
    <glyph glyph-name="uni021B" unicode="&#x21b;" horiz-adv-x="341" 
d="M311 469l-130 2v-353c0 -24 5 -41.167 15 -51.5s26.667 -15.5 50 -15.5h64v-51h-80c-72.667 0 -109 37 -109 111v360l-89 -2v47l89 -2v155h60v-155l130 2v-47zM167 -122l-53 -4v60h81v-98c0 -40 -19 -60 -57 -60h-24v28h23c20 0 30 9.33301 30 28v46z" />
    <glyph glyph-name="uni0237" unicode="&#x237;" horiz-adv-x="232" 
d="M6 -204l-25.001 0.000976562v51h24c28.667 0 49.334 6.33301 62.001 19s19 33.667 19 63v587h60v-579c0 -48.667 -11.333 -84.334 -34 -107.001s-58 -34 -106 -34z" />
    <glyph glyph-name="uni0259" unicode="&#x259;" horiz-adv-x="573" 
d="M281 528c72.667 0 130.668 -25 174.001 -75c42.667 -49.333 64 -115 64 -197c0 -80.667 -20.667 -145.667 -62 -195c-42 -48.667 -99.667 -73 -173 -73c-70.667 0 -126.667 23 -168 69c-41.333 46.667 -62 107.667 -62 183v26h405c0 66.667 -16 118.667 -48 156
s-76 56 -132 56c-82.667 0 -137.334 -39.333 -164.001 -118l-54 8c14 48.667 40.333 87.5 79 116.5s85.667 43.5 141 43.5zM283.001 38c50.667 0 91.668 16.167 123.001 48.5s48.666 77.5 51.999 135.5h-348c4 -58 21 -103.167 51 -135.5s70.667 -48.5 122 -48.5z" />
    <glyph glyph-name="h.sups" unicode="&#x2b0;" horiz-adv-x="485" 
d="M268 720c42 0 74.333 -11.168 97 -33.501s34 -54.5 34 -96.5v-218h-50v208c0 62.667 -32.333 94 -97 94c-35.333 0 -63.5 -10.667 -84.5 -32s-31.5 -50.666 -31.5 -87.999v-182h-50v470h50v-200c24 52 68 78 132 78z" />
    <glyph glyph-name="r.sups" unicode="&#x2b3;" horiz-adv-x="308" 
d="M258 717h31v-48h-31c-81.333 0 -122 -43.333 -122 -130v-167h-50v340h47l2 -74c20.667 52.667 61.667 79 123 79z" />
    <glyph glyph-name="circumflex" unicode="&#x2c6;" horiz-adv-x="500" 
d="M155 595h-63l127 158h62l127 -158h-63l-95 121z" />
    <glyph glyph-name="caron" unicode="&#x2c7;" horiz-adv-x="500" 
d="M281 595h-62l-127 157h63l95 -120l95 120h63z" />
    <glyph glyph-name="uni02C9" unicode="&#x2c9;" horiz-adv-x="500" 
d="M403 634h-306v47h306v-47z" />
    <glyph glyph-name="breve" unicode="&#x2d8;" horiz-adv-x="500" 
d="M249 618c-102 0 -154.668 44.667 -158.001 134h41c2.66699 -62 42 -93 118 -93s115.333 31 118 93h41c-3.33301 -89.333 -56.666 -134 -159.999 -134z" />
    <glyph glyph-name="dotaccent" unicode="&#x2d9;" horiz-adv-x="500" 
d="M284 630h-68v82h68v-82z" />
    <glyph glyph-name="ring" unicode="&#x2da;" horiz-adv-x="500" 
d="M340 627c-24 -24 -54 -36 -90 -36s-65.667 12 -89 36c-24 23.333 -36 52.666 -36 87.999c0 36 11.833 65.833 35.5 89.5s53.5 35.5 89.5 35.5s65.833 -11.833 89.5 -35.5s35.5 -53.5 35.5 -89.5c0 -35.333 -11.667 -64.666 -35 -87.999zM191 656
c15.333 -14.667 35 -22 59 -22s43.667 7.33301 59 22c15.333 15.333 23 35 23 59c0 25.333 -7.66699 45.5 -23 60.5s-35 22.5 -59 22.5s-43.667 -7.5 -59 -22.5s-23 -35.167 -23 -60.5c0 -24 7.66699 -43.667 23 -59z" />
    <glyph glyph-name="ogonek" unicode="&#x2db;" horiz-adv-x="500" 
d="M330 -201h-47c-37.333 0 -65.5 7.5 -84.5 22.5s-28.5 35.833 -28.5 62.5c0 40 25 72.333 75 97l59 31l41 -12l-70 -41c-33.333 -19.333 -50 -41 -50 -65c0 -34 23.667 -51 71 -51h34v-44z" />
    <glyph glyph-name="tilde" unicode="&#x2dc;" horiz-adv-x="500" 
d="M109 635l-47 0.000976562c2 101.333 37 152 105 152c19.333 0 37.333 -5.16699 54 -15.5s29.667 -22.5 39 -36.5c22 -35.333 46.333 -53 73 -53c18.667 0 32.667 8.16699 42 24.5s14.666 43.166 15.999 80.499h47c-2 -101.333 -37 -152 -105 -152
c-19.333 0 -37.166 5.16699 -53.499 15.5s-28.833 22.833 -37.5 37.5c-22 35.333 -47 53 -75 53c-36 0 -55.333 -35.333 -58 -106z" />
    <glyph glyph-name="hungarumlaut" unicode="&#x2dd;" horiz-adv-x="500" 
d="M127 594h-53l99 163h70zM309 594h-53l106 163h71z" />
    <glyph glyph-name="s.sups" unicode="&#x2e2;" horiz-adv-x="430" 
d="M220 362c-98.667 0 -154 35.333 -166 106l47 5c6.66699 -48 47 -72 121 -72c72.667 0 109 20.667 109 62c0 30.667 -26.667 49 -80 55l-74 8c-74.667 8.66699 -112 39.667 -112 93c0 32 13 56.667 39 74s61.333 26 106 26c44 0 79.5 -8.5 106.5 -25.5
s43.167 -41.167 48.5 -72.5l-45 -5c-8.66699 42.667 -46 64 -112 64c-64.667 0 -97 -19.667 -97 -59c0 -28 23.333 -45 70 -51l85 -11c74 -8.66699 111 -39 111 -91c0 -34 -13.833 -60.167 -41.5 -78.5s-66.167 -27.5 -115.5 -27.5z" />
    <glyph glyph-name="gravecomb" unicode="&#x300;" horiz-adv-x="0" 
d="M48 601h-54l-128 152h82z" />
    <glyph glyph-name="acutecomb" unicode="&#x301;" horiz-adv-x="0" 
d="M1 601h-54l101 152h81z" />
    <glyph glyph-name="uni0302" unicode="&#x302;" horiz-adv-x="0" 
d="M-95 595h-63l127 158h62l127 -158h-63l-95 121z" />
    <glyph glyph-name="tildecomb" unicode="&#x303;" horiz-adv-x="0" 
d="M-141 635l-47 0.000976562c2 101.333 37 152 105 152c19.333 0 37.333 -5.16699 54 -15.5s29.667 -22.5 39 -36.5c22 -35.333 46.333 -53 73 -53c18.667 0 32.667 8.16699 42 24.5s14.666 43.166 15.999 80.499h47c-2 -101.333 -37 -152 -105 -152
c-19.333 0 -37.166 5.16699 -53.499 15.5s-29.166 22.833 -38.499 37.5c-20.667 35.333 -45.334 53 -74.001 53c-36 0 -55.333 -35.333 -58 -106z" />
    <glyph glyph-name="uni0304" unicode="&#x304;" horiz-adv-x="0" 
d="M153 634h-306v47h306v-47z" />
    <glyph glyph-name="uni0306" unicode="&#x306;" horiz-adv-x="0" 
d="M-1 618c-102 0 -154.668 44.667 -158.001 134h41c2.66699 -62 42 -93 118 -93s115.333 31 118 93h41c-3.33301 -89.333 -56.666 -134 -159.999 -134z" />
    <glyph glyph-name="uni0307" unicode="&#x307;" horiz-adv-x="0" 
d="M34 630h-68v82h68v-82z" />
    <glyph glyph-name="uni0308" unicode="&#x308;" horiz-adv-x="0" 
d="M-68 630h-68v82h68v-82zM136 630h-68v82h68v-82z" />
    <glyph glyph-name="uni030A" unicode="&#x30a;" horiz-adv-x="0" 
d="M90 627c-24 -24 -54 -36 -90 -36s-66 12 -90 36c-23.333 23.333 -35 52.666 -35 87.999c0 36 11.833 65.833 35.5 89.5s53.5 35.5 89.5 35.5s65.833 -11.833 89.5 -35.5s35.5 -53.5 35.5 -89.5c0 -35.333 -11.667 -64.666 -35 -87.999zM-59 656
c15.333 -14.667 35 -22 59 -22s43.667 7.33301 59 22c15.333 15.333 23 35 23 59c0 25.333 -7.66699 45.5 -23 60.5s-35 22.5 -59 22.5s-43.667 -7.5 -59 -22.5s-23 -35.167 -23 -60.5c0 -24 7.66699 -43.667 23 -59z" />
    <glyph glyph-name="uni030B" unicode="&#x30b;" horiz-adv-x="0" 
d="M-84 594h-53l99 163h70zM98 594h-53l106 163h71z" />
    <glyph glyph-name="uni030C" unicode="&#x30c;" horiz-adv-x="0" 
d="M31 595h-62l-127 157h63l95 -120l95 120h63z" />
    <glyph glyph-name="uni0312" unicode="&#x312;" horiz-adv-x="0" 
d="M40 757h-23c-19.333 0 -29 -9.33301 -29 -28v-42l52 5v-61h-80v93c0 40.667 18.667 61 56 61h24v-28z" />
    <glyph glyph-name="uni0313" unicode="&#x313;" horiz-adv-x="0" 
d="M-40 724v61h80v-93c0 -40.667 -18.667 -61 -56 -61h-24v28h23c19.333 0 29 9.33301 29 28v41z" />
    <glyph glyph-name="dotbelowcomb" unicode="&#x323;" horiz-adv-x="0" 
d="M34 -186h-68v82h68v-82z" />
    <glyph glyph-name="uni0324" unicode="&#x324;" horiz-adv-x="0" 
d="M-68 -181h-68v83h68v-83zM136 -181h-68v83h68v-83z" />
    <glyph glyph-name="uni0325" unicode="&#x325;" horiz-adv-x="0" 
d="M90 -289c-24.667 -23.333 -54.667 -35 -90 -35s-65.333 11.667 -90 35c-23.333 24.667 -35 54.667 -35 90s11.833 64.833 35.5 88.5s53.5 35.5 89.5 35.5s65.833 -11.833 89.5 -35.5s35.5 -53.167 35.5 -88.5s-11.667 -65.333 -35 -90zM-59 -260
c15.333 -14.667 35 -22 59 -22s43.667 7.33301 59 22c15.333 15.333 23 35.666 23 60.999c0 24.667 -7.66699 44.5 -23 59.5s-35 22.5 -59 22.5s-43.667 -7.5 -59 -22.5s-23 -34.833 -23 -59.5c0 -25.333 7.66699 -45.666 23 -60.999z" />
    <glyph glyph-name="uni0326" unicode="&#x326;" horiz-adv-x="0" 
d="M-41 -134v60h81v-98c0 -40 -19 -60 -57 -60h-24v28h23c20 0 30 9.33301 30 28v46z" />
    <glyph glyph-name="uni0327" unicode="&#x327;" horiz-adv-x="0" 
d="M-21 -232h-34.999v38h31c52.667 0 79 16 79 48c0 27.333 -18.333 41 -55 41h-42l-19 32l46 73h38l-41 -65h27c30 0 53.167 -6.83301 69.5 -20.5s24.5 -33.167 24.5 -58.5c0 -27.333 -10.833 -48.833 -32.5 -64.5s-51.834 -23.5 -90.501 -23.5z" />
    <glyph glyph-name="uni0328" unicode="&#x328;" horiz-adv-x="0" 
d="M-15 -201h-47c-37.333 0 -65.5 7.5 -84.5 22.5s-28.5 35.833 -28.5 62.5c0 40 25 72.333 75 97l59 31l41 -12l-70 -41c-33.333 -19.333 -50 -41 -50 -65c0 -34 23.667 -51 71 -51h34v-44z" />
    <glyph glyph-name="uni032E" unicode="&#x32e;" horiz-adv-x="0" 
d="M-1 -216c-102.667 0 -155.333 44.333 -158 133h41c2.66699 -62 42 -93 118 -93s115.333 31 118 93h41c-2.66699 -88.667 -56 -133 -160 -133z" />
    <glyph glyph-name="uni0331" unicode="&#x331;" horiz-adv-x="0" 
d="M153 -165h-306v47h306v-47z" />
    <glyph glyph-name="uni0335" unicode="&#x335;" horiz-adv-x="0" 
d="M-140 352l-140 -3v47l140 -3l139 3v-47z" />
    <glyph glyph-name="uni0337" unicode="&#x337;" horiz-adv-x="0" 
d="M244 516l-455 -525l-33 29l455 525z" />
    <glyph glyph-name="uni0338" unicode="&#x338;" horiz-adv-x="0" 
d="M321 691l-608 -700l-34 29l608 700z" />
    <glyph glyph-name="uni0394" unicode="&#x394;" horiz-adv-x="716" 
d="M326 714h66l290 -714h-648zM343 610l-223 -557h474l-219 557l-15 48z" />
    <glyph glyph-name="uni03A9" unicode="&#x3a9;" horiz-adv-x="816" 
d="M356 0l-285 -0.00195312v53h200v2c-61.333 36 -108.666 81.833 -141.999 137.5s-50 118.834 -50 189.501c0 106.667 30.333 190.334 91 251.001c61.333 61.333 140.666 92 237.999 92c98 0 176.667 -30.667 236 -92s89 -145 89 -251c0 -71.333 -16.333 -135 -49 -191
s-79 -101.333 -139 -136v-2h199v-53h-284v48c141.333 74 212 185.333 212 334c0 91.333 -23.5 162.166 -70.5 212.499s-111.5 75.5 -193.5 75.5c-80 0 -144.667 -25 -194 -75c-48.667 -50.667 -73 -121.667 -73 -213c0 -147.333 71.667 -258.666 215 -333.999v-48z" />
    <glyph glyph-name="uni03BC" unicode="&#x3bc;" horiz-adv-x="589" 
d="M146 -204h-60.002v720h60v-337c0 -44.667 11 -79 33 -103s54 -36 96 -36c50.667 0 91.334 16.333 122.001 49s46 80.667 46 144v283h60v-516h-58l3 102c-34 -76.667 -94 -115 -180 -115c-61.333 0 -105.666 22.667 -132.999 68l-2 -2l13 -152v-105z" />
    <glyph glyph-name="pi" unicode="&#x3c0;" horiz-adv-x="657" 
d="M627 516l0.000976562 -56h-126v-328c0 -30 5.66699 -51.167 17 -63.5s31.666 -18.5 60.999 -18.5h19v-50h-29c-44 0 -76.167 10.5 -96.5 31.5s-30.5 55.167 -30.5 102.5v326h-233v-460h-59v460h-118v56h595z" />
    <glyph glyph-name="d.sups" unicode="&#x1d48;" horiz-adv-x="488" 
d="M352 654v187.999h50v-470h-42l-4 68c-28 -50.667 -74 -76 -138 -76c-49.333 0 -89 16.333 -119 49s-45 76.334 -45 131.001c0 54 15 97 45 129s70 48 120 48c62 0 106.333 -22.333 133 -67zM229 403.999c38.667 0 69.334 12.501 92.001 37.501s34 58.833 34 101.5
c0 43.333 -11.5 77.166 -34.5 101.499s-54.5 36.5 -94.5 36.5c-38.667 0 -68.834 -11.833 -90.501 -35.5s-32.5 -57.5 -32.5 -101.5s11 -78.333 33 -103s53 -37 93 -37z" />
    <glyph glyph-name="t.sups" unicode="&#x1d57;" horiz-adv-x="288" 
d="M258 713v-43.999l-94 1v-208c0 -33.333 17.333 -50 52 -50h41v-40h-55c-30 0 -52 6.66699 -66 20s-21 34.666 -21 63.999v214l-83 -1v44l83 -2v102h49v-102z" />
    <glyph glyph-name="Wgrave" unicode="&#x1e80;" horiz-adv-x="947" 
d="M421 949l100 -152h-54l-128 152h82zM709 217l142 495h62l-208 -714h-57l-177 646l-177 -646h-57l-203 714h62l138 -495l33 -136l33 136l137 495h67l137 -495l34 -136z" />
    <glyph glyph-name="wgrave" unicode="&#x1e81;" horiz-adv-x="768" 
d="M331 753l100 -152h-54l-128 152h82zM565 163l108 353h62l-168 -516h-60l-100 364l-22 100l-23 -100l-103 -364h-61l-165 516h65l106 -353l26 -100l24 100l99 353h64l100 -353l23 -98z" />
    <glyph glyph-name="Wacute" unicode="&#x1e82;" horiz-adv-x="947" 
d="M521 949h81l-128 -152h-54zM709 217l142 495h62l-208 -714h-57l-177 646l-177 -646h-57l-203 714h62l138 -495l33 -136l33 136l137 495h67l137 -495l34 -136z" />
    <glyph glyph-name="wacute" unicode="&#x1e83;" horiz-adv-x="768" 
d="M431 753h81l-128 -152h-54zM565 163l108 353h62l-168 -516h-60l-100 364l-22 100l-23 -100l-103 -364h-61l-165 516h65l106 -353l26 -100l24 100l99 353h64l100 -353l23 -98z" />
    <glyph glyph-name="Wdieresis" unicode="&#x1e84;" horiz-adv-x="947" 
d="M338 893h68v-83h-68v83zM542 893h68v-83h-68v83zM709 217l142 495h62l-208 -714h-57l-177 646l-177 -646h-57l-203 714h62l138 -495l33 -136l33 136l137 495h67l137 -495l34 -136z" />
    <glyph glyph-name="wdieresis" unicode="&#x1e85;" horiz-adv-x="768" 
d="M248 712h68v-82h-68v82zM452 712h68v-82h-68v82zM565 163l108 353h62l-168 -516h-60l-100 364l-22 100l-23 -100l-103 -364h-61l-165 516h65l106 -353l26 -100l24 100l99 353h64l100 -353l23 -98z" />
    <glyph glyph-name="uni1E9E" unicode="&#x1e9e;" horiz-adv-x="690" 
d="M606 660l-211.002 -251.001c74 -1.33301 132.667 -20.5 176 -57.5s65 -86.833 65 -149.5c0 -66 -22 -117.833 -66 -155.5s-105 -56.5 -183 -56.5c-42 0 -85 5 -129 15v53c42 -10 84.333 -15 127 -15c62 0 109.167 13.667 141.5 41s48.5 66.666 48.5 117.999
c0 48.667 -16.833 86.334 -50.5 113.001s-80.5 40 -140.5 40c-26 0 -47 -1.33301 -63 -4v51l213 258c-51.333 5.33301 -105.666 8 -162.999 8c-76 0 -131 -17.167 -165 -51.5s-51 -86.166 -51 -155.499v-461h-60v461c0 174 91.667 261 275 261
c90.667 0 169.334 -5.33301 236.001 -16v-46z" />
    <glyph glyph-name="Ygrave" unicode="&#x1ef2;" horiz-adv-x="677" 
d="M286 949l100 -152h-54l-128 152h82zM584 712h69l-281 -421v-291h-61v290l-287 422h73l223 -337l22 -37l21 37z" />
    <glyph glyph-name="ygrave" unicode="&#x1ef3;" horiz-adv-x="541" 
d="M219 753l100 -152h-54l-128 152h82zM273 52l173.001 464h62l-244 -625c-14.667 -36 -32 -60.833 -52 -74.5s-48.667 -20.5 -86 -20.5h-44v51h39c28 0 48.667 4.83301 62 14.5s25.666 28.5 36.999 56.5l29 74l-216 524h65l166 -417z" />
    <glyph glyph-name="thinspace" unicode="&#x2009;" horiz-adv-x="232" 
 />
    <glyph glyph-name="uni2011" unicode="&#x2011;" horiz-adv-x="378" 
d="M329 222h-280v55h280v-55z" />
    <glyph glyph-name="endash" unicode="&#x2013;" horiz-adv-x="533" 
d="M484 222h-435v55h435v-55z" />
    <glyph glyph-name="emdash" unicode="&#x2014;" horiz-adv-x="827" 
d="M778 222h-729v55h729v-55z" />
    <glyph glyph-name="quoteleft" unicode="&#x2018;" horiz-adv-x="184" 
d="M140 493h-87v139c0 55.333 26 83 78 83h9v-35h-9c-28 0 -42 -13.667 -42 -41v-73l51 5v-78z" />
    <glyph glyph-name="quoteright" unicode="&#x2019;" horiz-adv-x="184" 
d="M53 491h-8v34h9c27.333 0 41 14 41 42v73l-51 -5v77h87v-138c0 -55.333 -26 -83 -78 -83z" />
    <glyph glyph-name="quotesinglbase" unicode="&#x201a;" horiz-adv-x="272" 
d="M102 -145h-9v34h9c28 0 42 14 42 42v73l-51 -5v77h87v-138c0 -55.333 -26 -83 -78 -83z" />
    <glyph glyph-name="quotedblleft" unicode="&#x201c;" horiz-adv-x="341" 
d="M140 493h-87v138c0 56 26 84 78 84h9v-35h-9c-28 0 -42 -14 -42 -42v-73l51 5v-77zM297 494h-87v138c0 55.333 26 83 78 83h8v-34h-9c-27.333 0 -41 -14 -41 -42v-73l51 5v-77z" />
    <glyph glyph-name="quotedblright" unicode="&#x201d;" horiz-adv-x="341" 
d="M53 491h-8v34h9c27.333 0 41 14 41 42v73l-51 -5v77h87v-138c0 -55.333 -26 -83 -78 -83zM210 491h-9v34h9c28 0 42 14 42 42v73l-51 -5v77h87v-138c0 -55.333 -26 -83 -78 -83z" />
    <glyph glyph-name="quotedblbase" unicode="&#x201e;" horiz-adv-x="427" 
d="M102 -145h-9v35h9c28 0 42 13.667 42 41v73l-51 -5v78h87v-139c0 -55.333 -26 -83 -78 -83zM257 -145h-9v34h9c28 0 42 14 42 42v73l-52 -5v77h88v-138c0 -55.333 -26 -83 -78 -83z" />
    <glyph glyph-name="dagger" unicode="&#x2020;" horiz-adv-x="635" 
d="M347 581l193 3v-54l-193 3v-638h-59v638l-193 -3v54l193 -3v269h59v-269z" />
    <glyph glyph-name="daggerdbl" unicode="&#x2021;" horiz-adv-x="635" 
d="M540 584v-54l-193 3v-317l193 3v-54l-193 3v-273h-59v273l-193 -3v54l193 -3v317l-193 -3v54l193 -3v269h59v-269z" />
    <glyph glyph-name="bullet" unicode="&#x2022;" horiz-adv-x="345" 
d="M250 216h-155v135h155v-135z" />
    <glyph glyph-name="ellipsis" unicode="&#x2026;" horiz-adv-x="787" 
d="M175 0h-89v78h89v-78zM438 0h-89v78h89v-78zM701 0h-90v78h90v-78z" />
    <glyph glyph-name="perthousand" unicode="&#x2030;" horiz-adv-x="1702" 
d="M273 309c-58.667 0 -103 19 -133 57s-45 93.667 -45 167s15 129 45 167s74.333 57 133 57c120 0 180 -74.667 180 -224s-60 -224 -180 -224zM410 -15h-61l448 742h59zM273 356c42.667 0 74.167 14.333 94.5 43s30.5 73.334 30.5 134.001c0 118 -41.667 177 -125 177
c-82.667 0 -124 -59 -124 -177c0 -60.667 10.167 -105.334 30.5 -134.001s51.5 -43 93.5 -43zM958 -12c-58.667 0 -103.167 19 -133.5 57s-45.5 93.667 -45.5 167c0 149.333 59.667 224 179 224s179 -74.667 179 -224s-59.667 -224 -179 -224zM1427 -12
c-58.667 0 -103.167 19 -133.5 57s-45.5 93.667 -45.5 167c0 149.333 59.667 224 179 224c120 0 180 -74.667 180 -224s-60 -224 -180 -224zM958 35c83.333 0 125 59 125 177s-41.667 177 -125 177c-42 0 -73.167 -14.333 -93.5 -43s-30.5 -73.334 -30.5 -134.001
c0 -61.333 10.167 -106.166 30.5 -134.499s51.5 -42.5 93.5 -42.5zM1427 35c42.667 0 74.167 14.333 94.5 43s30.5 73.334 30.5 134.001c0 118 -41.667 177 -125 177c-82.667 0 -124 -59 -124 -177c0 -60.667 10.167 -105.334 30.5 -134.001s51.5 -43 93.5 -43z" />
    <glyph glyph-name="guilsinglleft" unicode="&#x2039;" horiz-adv-x="422" 
d="M336 58v-68l-250 234v66l250 234v-68l-211 -199z" />
    <glyph glyph-name="guilsinglright" unicode="&#x203a;" horiz-adv-x="422" 
d="M336 224l-250 -234v68l211 199l-211 199v68l250 -234v-66z" />
    <glyph glyph-name="uni203D" unicode="&#x203d;" horiz-adv-x="608" 
d="M301 722c72.667 0 130.17 -16.8311 172.503 -50.498s63.5 -80.834 63.5 -141.501c0 -72 -35.667 -130 -107 -174l-41 -25c-26.667 -16.667 -44.334 -33 -53.001 -49c-10.667 -17.333 -17.334 -43 -20.001 -77l-1 -33h-40l-11 268v102h61v-102l-4 -108
c10.667 12 30 27.667 58 47c67.333 41.333 101 91.333 101 150c0 47.333 -15.833 83.166 -47.5 107.499s-75.5 36.5 -131.5 36.5c-120 0 -182 -58 -186 -174h-58c3.33301 71.333 25.666 126.333 66.999 165s100.333 58 177 58zM333.003 0.00195312h-76v75h76v-75z" />
    <glyph glyph-name="fraction" unicode="&#x2044;" horiz-adv-x="325" 
d="M-30 -15h-61l448 742h60z" />
    <glyph glyph-name="zero.sups" unicode="&#x2070;" horiz-adv-x="452" 
d="M226 360c-58.667 0 -103.167 19 -133.5 57s-45.5 93.667 -45.5 167c0 149.333 59.667 224 179 224s179 -74.667 179 -224s-59.667 -224 -179 -224zM226 407c83.333 0 125 59 125 177s-41.667 177 -125 177c-42 0 -73.167 -14.333 -93.5 -43s-30.5 -73.334 -30.5 -134.001
c0 -61.333 10.167 -106.166 30.5 -134.499s51.5 -42.5 93.5 -42.5z" />
    <glyph glyph-name="four.sups" unicode="&#x2074;" horiz-adv-x="440" 
d="M322 372h-51v107l-229 -1v45l226 276h54v-280l76 1v-42l-76 1v-107zM269 737l-179 -217l181 -1v218h-2z" />
    <glyph glyph-name="five.sups" unicode="&#x2075;" horiz-adv-x="438" 
d="M216 358c-43.333 0 -79.333 9.16602 -108 27.499s-47.667 43.5 -57 75.5l52 12c14 -46.667 52 -70 114 -70c36.667 0 65.5 9 86.5 27s31.5 42.333 31.5 73s-10.333 55.167 -31 73.5s-49 27.5 -85 27.5c-45.333 0 -79.333 -14.333 -102 -43l-55 12l43 226h253v-44h-216
l-26 -146l2 -1c26.667 26 64 39 112 39c49.333 0 88 -13 116 -39s42 -60.333 42 -103c0 -43.333 -15.5 -78.666 -46.5 -105.999s-72.833 -41 -125.5 -41z" />
    <glyph glyph-name="six.sups" unicode="&#x2076;" horiz-adv-x="439" 
d="M226 360c-117.333 0 -176 70.668 -176 212.001c0 76.667 15.167 135.167 45.5 175.5s74.5 60.5 132.5 60.5c37.333 0 68.833 -8.33301 94.5 -25s43.5 -40 53.5 -70l-50 -14c-15.333 43.333 -48 65 -98 65c-82.667 0 -125.334 -59.333 -128.001 -178
c28.667 40.667 73.334 61 134.001 61c47.333 0 85 -12.667 113 -38s42 -59.333 42 -102c0 -44.667 -14.667 -80.334 -44 -107.001s-69 -40 -119 -40zM142 434.001c21.333 -20 49.333 -30 84 -30s62 9 82 27c19.333 18 29 42.667 29 74c0 30 -9.83301 54 -29.5 72
s-46.5 27 -80.5 27c-32 0 -58.833 -7.66699 -80.5 -23s-35.167 -35.333 -40.5 -60c2 -39.333 14 -68.333 36 -87z" />
    <glyph glyph-name="seven.sups" unicode="&#x2077;" horiz-adv-x="375" 
d="M153 372l-53.999 -0.00195312c12 158.667 74 286.334 186 383.001h-260v44h325v-42c-120.667 -97.333 -186.334 -225.666 -197.001 -384.999z" />
    <glyph glyph-name="eight.sups" unicode="&#x2078;" horiz-adv-x="451" 
d="M226 364c-54 0 -97 11.666 -129 34.999s-48 55 -48 95c0 26.667 8.66699 49.834 26 69.501s41 32.834 71 39.501v2c-24 7.33301 -43 19.166 -57 35.499s-21 35.5 -21 57.5c0 34 14.167 60.833 42.5 80.5s66.833 29.5 115.5 29.5c48 0 86.167 -9.83301 114.5 -29.5
s42.5 -46.5 42.5 -80.5c0 -22 -7 -41.333 -21 -58s-33 -28.334 -57 -35.001v-2c30.667 -6.66699 54.5 -19.667 71.5 -39s25.5 -42.666 25.5 -69.999c0 -40 -16 -71.667 -48 -95s-74.667 -35 -128 -35zM226 620.999c33.333 0 59.333 6.33301 78 19s28 30.667 28 54
s-9.33301 41.333 -28 54s-44.667 19 -78 19c-34 0 -60.333 -6.33301 -79 -19s-28 -30.667 -28 -54s9.33301 -41.333 28 -54s45 -19 79 -19zM135 429.999c22 -16 52.333 -24 91 -24s69 8 91 24c21.333 16 32 38 32 66c0 56.667 -41 85 -123 85
c-40 0 -70.667 -7.33301 -92 -22s-32 -35.667 -32 -63c0 -28 11 -50 33 -66z" />
    <glyph glyph-name="nine.sups" unicode="&#x2079;" horiz-adv-x="439" 
d="M211 360c-38 0 -70 8.5 -96 25.5s-43.667 40.5 -53 70.5l51 13c15.333 -43.333 48 -65 98 -65c82 0 124.667 59.667 128 179c-28 -40.667 -72.667 -61 -134 -61c-47.333 0 -85 12.5 -113 37.5s-42 58.833 -42 101.5c0 44.667 14.667 80.334 44 107.001s69 40 119 40
c58.667 0 102.667 -18.167 132 -54.5s44 -88.5 44 -156.5c0 -76.667 -15.167 -135.334 -45.5 -176.001s-74.5 -61 -132.5 -61zM212 564c32 0 58.833 7.66895 80.5 23.002s35.167 35.666 40.5 60.999c-2 37.333 -13.833 66.166 -35.5 86.499s-50.167 30.5 -85.5 30.5
c-34 0 -60.833 -9.16699 -80.5 -27.5s-29.5 -42.833 -29.5 -73.5s9.83301 -55 29.5 -73s46.5 -27 80.5 -27z" />
    <glyph glyph-name="plus.sups" unicode="&#x207a;" horiz-adv-x="533" 
d="M290 574h183v-42h-183v-160h-46v160h-182v42h182v160h46v-160z" />
    <glyph glyph-name="minus.sups" unicode="&#x207b;" horiz-adv-x="521" 
d="M461 530h-399v43h399v-43z" />
    <glyph glyph-name="parenleft.sups" unicode="&#x207d;" horiz-adv-x="294" 
d="M235 237h-50c-74.667 91.333 -112 195 -112 311c0 120.667 37.333 226.334 112 317.001h50c-74.667 -91.333 -112 -197 -112 -317c0 -116.667 37.333 -220.334 112 -311.001z" />
    <glyph glyph-name="parenright.sups" unicode="&#x207e;" horiz-adv-x="294" 
d="M109 237h-49c74.667 92.667 112 196.334 112 311.001c0 120 -37.333 225.667 -112 317h49c74.667 -90.667 112 -196.334 112 -317.001c0 -116 -37.333 -219.667 -112 -311z" />
    <glyph glyph-name="n.sups" unicode="&#x207f;" horiz-adv-x="485" 
d="M268 720c42 0 74.333 -11.168 97 -33.501s34 -54.5 34 -96.5v-218h-50v208c0 62.667 -32.333 94 -97 94c-35.333 0 -63.5 -10.667 -84.5 -32s-31.5 -50.666 -31.5 -87.999v-182h-50v340h49l1 -70c24 52 68 78 132 78z" />
    <glyph glyph-name="zero.subs" unicode="&#x2080;" horiz-adv-x="452" 
d="M226 -186c-58.667 0 -103.167 19 -133.5 57s-45.5 93.667 -45.5 167c0 149.333 59.667 224 179 224s179 -74.667 179 -224s-59.667 -224 -179 -224zM226 -139c83.333 0 125 59 125 177s-41.667 177 -125 177c-42 0 -73.167 -14.333 -93.5 -43
s-30.5 -73.334 -30.5 -134.001c0 -61.333 10.167 -106.166 30.5 -134.499s51.5 -42.5 93.5 -42.5z" />
    <glyph glyph-name="one.subs" unicode="&#x2081;" horiz-adv-x="304" 
d="M218 -174h-50.999v297h-124v41h66c39.333 0 60.666 15 63.999 45l1 44h44v-427z" />
    <glyph glyph-name="two.subs" unicode="&#x2082;" horiz-adv-x="449" 
d="M386 -174l-322 0.000976562c0 82 40.333 142.333 121 181l73 35c50 24 75 54.667 75 92c0 24.667 -9.16699 44.5 -27.5 59.5s-44.166 22.5 -77.499 22.5c-68 0 -103 -33.667 -105 -101h-53c0.666992 47.333 14.667 83.666 42 108.999s66 38 116 38
c48 0 86.167 -11.667 114.5 -35s42.5 -54.333 42.5 -93c0 -28.667 -8.16699 -53.5 -24.5 -74.5s-42.833 -40.167 -79.5 -57.5l-54 -25c-33.333 -16.667 -57.833 -33 -73.5 -49s-24.834 -34.667 -27.501 -56h260v-46z" />
    <glyph glyph-name="three.subs" unicode="&#x2083;" horiz-adv-x="437" 
d="M220 -186c-52 0 -93.333 12.167 -124 36.5s-46 57.833 -46 100.5h53c0.666992 -62 40 -93 118 -93c76 0 114 28.333 114 85c0 25.333 -9.5 45.166 -28.5 59.499s-46.167 21.5 -81.5 21.5h-36v46h36c29.333 0 51.833 6.5 67.5 19.5s23.5 30.833 23.5 53.5
c0 24 -9 42.5 -27 55.5s-43 19.5 -75 19.5c-32.667 0 -58.167 -7.16699 -76.5 -21.5s-27.833 -34.833 -28.5 -61.5h-52c0 39.333 13.833 70.333 41.5 93s65.834 34 114.501 34c47.333 0 85.166 -10.333 113.499 -31s42.5 -48.667 42.5 -84c0 -24 -6.5 -44.5 -19.5 -61.5
s-30.833 -28.5 -53.5 -34.5v-1c28 -6.66699 50.167 -19.667 66.5 -39s24.5 -42.666 24.5 -69.999c0 -38 -15.167 -68.667 -45.5 -92s-70.833 -35 -121.5 -35z" />
    <glyph glyph-name="four.subs" unicode="&#x2084;" horiz-adv-x="440" 
d="M322 -174h-51v107l-229 -1v45l226 276h54v-280l76 1v-42l-76 1v-107zM269 191l-179 -217l181 -1v218h-2z" />
    <glyph glyph-name="five.subs" unicode="&#x2085;" horiz-adv-x="438" 
d="M216 -188c-43.333 0 -79.333 9.16602 -108 27.499s-47.667 43.5 -57 75.5l52 12c14 -46.667 52 -70 114 -70c36.667 0 65.5 9 86.5 27s31.5 42.333 31.5 73s-10.333 55.167 -31 73.5s-49 27.5 -85 27.5c-45.333 0 -79.333 -14.333 -102 -43l-55 12l43 226h253v-44h-216
l-26 -146l2 -1c26.667 26 64 39 112 39c49.333 0 88 -13 116 -39s42 -60.333 42 -103c0 -43.333 -15.5 -78.666 -46.5 -105.999s-72.833 -41 -125.5 -41z" />
    <glyph glyph-name="six.subs" unicode="&#x2086;" horiz-adv-x="439" 
d="M226 -186c-117.333 0 -176 70.668 -176 212.001c0 76.667 15.167 135.167 45.5 175.5s74.5 60.5 132.5 60.5c37.333 0 68.833 -8.33301 94.5 -25s43.5 -40 53.5 -70l-50 -14c-15.333 43.333 -48 65 -98 65c-82.667 0 -125.334 -59.333 -128.001 -178
c28.667 40.667 73.334 61 134.001 61c47.333 0 85 -12.667 113 -38s42 -59.333 42 -102c0 -44.667 -14.667 -80.334 -44 -107.001s-69 -40 -119 -40zM142 -112.999c21.333 -19.333 49.333 -29 84 -29s62 9 82 27c19.333 18 29 42.667 29 74c0 30 -9.83301 54 -29.5 72
s-46.5 27 -80.5 27c-32 0 -58.833 -7.66699 -80.5 -23s-35.167 -35.333 -40.5 -60c2 -38.667 14 -68 36 -88z" />
    <glyph glyph-name="seven.subs" unicode="&#x2087;" horiz-adv-x="375" 
d="M153 -174l-53.999 -0.00195312c12 158.667 74 286.334 186 383.001h-260v44h325v-42c-120.667 -97.333 -186.334 -225.666 -197.001 -384.999z" />
    <glyph glyph-name="eight.subs" unicode="&#x2088;" horiz-adv-x="451" 
d="M226 -182c-54 0 -97 11.666 -129 34.999s-48 55 -48 95c0 26.667 8.66699 49.834 26 69.501s41 32.834 71 39.501v2c-24 7.33301 -43 19.166 -57 35.499s-21 35.5 -21 57.5c0 34 14.167 60.833 42.5 80.5s66.833 29.5 115.5 29.5c48 0 86.167 -9.83301 114.5 -29.5
s42.5 -46.5 42.5 -80.5c0 -22 -7 -41.333 -21 -58s-33 -28.334 -57 -35.001v-2c30.667 -6.66699 54.5 -19.667 71.5 -39s25.5 -42.666 25.5 -69.999c0 -40 -16 -71.667 -48 -95s-74.667 -35 -128 -35zM226 74.999c33.333 0 59.333 6.33301 78 19s28 30.667 28 54
s-9.33301 41.333 -28 54s-44.667 19 -78 19c-34 0 -60.333 -6.33301 -79 -19s-28 -30.667 -28 -54s9.33301 -41.333 28 -54s45 -19 79 -19zM135 -116.001c22 -16 52.333 -24 91 -24s69 8 91 24c21.333 16 32 38 32 66c0 56.667 -41 85 -123 85
c-40 0 -70.667 -7.33301 -92 -22s-32 -35.667 -32 -63c0 -28 11 -50 33 -66z" />
    <glyph glyph-name="nine.subs" unicode="&#x2089;" horiz-adv-x="439" 
d="M211 -186c-38 0 -70 8.5 -96 25.5s-43.667 40.5 -53 70.5l51 13c15.333 -43.333 48 -65 98 -65c82 0 124.667 59.667 128 179c-28 -40.667 -72.667 -61 -134 -61c-47.333 0 -85 12.5 -113 37.5s-42 58.833 -42 101.5c0 44.667 14.667 80.334 44 107.001s69 40 119 40
c58.667 0 102.667 -18.167 132 -54.5s44 -88.5 44 -156.5c0 -76.667 -15.167 -135.334 -45.5 -176.001s-74.5 -61 -132.5 -61zM212 18c32 0 58.833 7.66895 80.5 23.002s35.167 35.666 40.5 60.999c-2 37.333 -13.833 66.166 -35.5 86.499s-50.167 30.5 -85.5 30.5
c-34 0 -60.833 -9.16699 -80.5 -27.5s-29.5 -42.833 -29.5 -73.5s9.83301 -55 29.5 -73s46.5 -27 80.5 -27z" />
    <glyph glyph-name="plus.subs" unicode="&#x208a;" horiz-adv-x="533" 
d="M290 52h183v-42h-183v-160h-46v160h-182v42h182v160h46v-160z" />
    <glyph glyph-name="minus.subs" unicode="&#x208b;" horiz-adv-x="521" 
d="M461 8h-399v43h399v-43z" />
    <glyph glyph-name="equal.subs" unicode="&#x208c;" horiz-adv-x="521" 
d="M461 86h-399v42h399v-42zM461 -68h-399v43h399v-43z" />
    <glyph glyph-name="uni208D" unicode="&#x208d;" horiz-adv-x="294" 
d="M235 -309h-50c-74.667 91.333 -112 195 -112 311c0 120.667 37.333 226.334 112 317.001h50c-74.667 -91.333 -112 -197 -112 -317c0 -116.667 37.333 -220.334 112 -311.001z" />
    <glyph glyph-name="uni208E" unicode="&#x208e;" horiz-adv-x="294" 
d="M109 -309h-49c74.667 92.667 112 196.334 112 311.001c0 120 -37.333 225.667 -112 317h49c74.667 -90.667 112 -196.334 112 -317.001c0 -116 -37.333 -219.667 -112 -311z" />
    <glyph glyph-name="n.subs" unicode="&#x2099;" horiz-adv-x="485" 
d="M268 174c42 0 74.333 -11.168 97 -33.501s34 -54.5 34 -96.5v-218h-50v208c0 62.667 -32.333 94 -97 94c-35.333 0 -63.5 -10.667 -84.5 -32s-31.5 -50.666 -31.5 -87.999v-182h-50v340h49l1 -70c24 52 68 78 132 78z" />
    <glyph glyph-name="Euro" unicode="&#x20ac;" 
d="M467 668c-61.333 0 -112.667 -16.832 -154 -50.499s-70 -80.834 -86 -141.501h383v-53h-393c-2.66699 -16.667 -4 -38.667 -4 -66c0 -20.667 1 -41 3 -61h394v-53h-384c16 -63.333 44.333 -112.666 85 -147.999s92 -53 154 -53c50 0 98.333 10 145 30v-57
c-44 -18.667 -92.667 -28 -146 -28c-79.333 0 -145 22.5 -197 67.5s-87 107.833 -105 188.5h-132v53h124c-2 20 -3 40.333 -3 61c0 27.333 1.33301 49.333 4 66h-125v53h134c18 77.333 53.167 137.666 105.5 180.999s116.833 65 193.5 65c56 0 105 -9.33301 147 -28v-57
c-44 20.667 -91.667 31 -143 31z" />
    <glyph glyph-name="uni20B8" unicode="&#x20b8;" horiz-adv-x="644" 
d="M43 659v53h558v-53h-558zM291 495h-248v53h558v-53h-249v-495h-61v495z" />
    <glyph glyph-name="uni20B9" unicode="&#x20b9;" 
d="M48 712h544.001v-53h-265c46.667 -26.667 73 -67 79 -121h186v-53h-187c-4.66699 -36.667 -19 -68 -43 -94s-54 -43 -90 -51c32.667 -4.66699 58.667 -16.5 78 -35.5s34.666 -48.167 45.999 -87.5l62 -217h-63l-58 205c-10.667 40.667 -27 68.667 -49 84
c-20.667 14.667 -55 22 -103 22h-137v53h148c89.333 0 138.333 40.333 147 121h-295v53h296c-8.66699 80.667 -58 121 -148 121h-148v53z" />
    <glyph glyph-name="uni20BA" unicode="&#x20ba;" 
d="M548 246l55 -0.000976562c-6.66699 -77.333 -37 -137.666 -91 -180.999c-53.333 -43.333 -121.333 -65 -204 -65h-128v248l-142 -74v58l142 74v131l-142 -74v58l142 74v217h60v-185l226 118v-58l-226 -118v-131l226 118v-58l-226 -118v-225h68c68 0 123 16.5 165 49.5
s67 80.167 75 141.5z" />
    <glyph glyph-name="uni20BC" unicode="&#x20bc;" 
d="M350 712v-187.001c80 0 138.333 -19.5 175 -58.5s55 -100.5 55 -184.5v-282h-60v286c0 67.333 -12.833 115.166 -38.5 143.499s-69.5 43.833 -131.5 46.5v-365h-60v365c-62 -2.66699 -105.667 -18.167 -131 -46.5s-38 -76.166 -38 -143.499v-286h-60v282
c0 84.667 18 146.334 54 185.001s94.333 58 175 58v187h60z" />
    <glyph glyph-name="uni20BF" unicode="&#x20bf;" 
d="M601 198c0 -56 -16.832 -101.501 -50.499 -136.501s-79.5 -55.167 -137.5 -60.5v-145h-52v144h-113v-144h-53v144h-122v712h122v135h53v-135h113v135h52v-138c49.333 -8 87.666 -27.167 114.999 -57.5s41 -68.166 41 -113.499c0 -38 -10 -71 -30 -99
s-48.667 -48.333 -86 -61c98.667 -24 148 -84 148 -180zM358.001 658.999l-225 0.000976562v-262h220c48.667 0 86.5 11.833 113.5 35.5s40.5 56.167 40.5 97.5c0 39.333 -12.833 70.666 -38.5 93.999s-62.5 35 -110.5 35zM133.001 53l248 0.000976562
c50 0 88.833 12.667 116.5 38s41.5 61 41.5 107c0 47.333 -15 83.666 -45 108.999s-72.333 38 -127 38h-234v-292z" />
    <glyph glyph-name="uni2105" unicode="&#x2105;" horiz-adv-x="1185" 
d="M405 -15h-61l448 742h59zM270 364c-54.667 0 -97.501 16.167 -128.501 48.5s-46.5 76.166 -46.5 131.499c0 54.667 15.5 97.834 46.5 129.501s73.5 47.5 127.5 47.5c44 0 79.833 -10.167 107.5 -30.5s45.5 -47.5 53.5 -81.5l-48 -4c-12.667 48.667 -49.667 73 -111 73
c-40 0 -70.833 -11.667 -92.5 -35s-32.5 -56.333 -32.5 -99c0 -44 10.833 -77.667 32.5 -101s52.5 -35 92.5 -35c60.667 0 97.667 26 111 78l48 -5c-7.33301 -36 -25.166 -64.5 -53.499 -85.5s-63.833 -31.5 -106.5 -31.5zM915.999 -12
c-52 0 -94.332 16.999 -126.999 50.999c-32.667 32.667 -49 75.667 -49 129c0 54 16.333 97.667 49 131c33.333 33.333 75.666 50 126.999 50c50.667 0 92.667 -16.667 126 -50c32 -34 48 -77.667 48 -131s-16 -96.666 -48 -129.999c-33.333 -33.333 -75.333 -50 -126 -50z
M916 30.999c37.333 0 67.167 12.333 89.5 37s33.5 58 33.5 100c0 43.333 -11 77.166 -33 101.499s-52 36.5 -90 36.5c-38.667 0 -69.167 -12.167 -91.5 -36.5s-33.5 -58.166 -33.5 -101.499c0 -42 11.333 -75.333 34 -100s53 -37 91 -37z" />
    <glyph glyph-name="uni2113" unicode="&#x2113;" horiz-adv-x="492" 
d="M399 96l36 -39c-38 -46 -87.667 -69 -149 -69c-44 0 -78.167 11.833 -102.5 35.5s-36.5 57.167 -36.5 100.5v96l-93 -43l-22 49l115 46v311c0 44.667 11.667 79 35 103s57 36 101 36c48.667 0 84.667 -15 108 -45s35 -76.667 35 -140c0 -74 -17 -132.667 -51 -176
c-33.333 -42.667 -89.333 -81 -168 -115v-119c0 -57.333 28 -86 84 -86c43.333 0 79.333 18.333 108 55zM285 669c-52 0 -78 -29.667 -78 -89v-282c60 29.333 102.333 61.333 127 96c24.667 33.333 37 80 37 140c0 90 -28.667 135 -86 135z" />
    <glyph glyph-name="uni2116" unicode="&#x2116;" horiz-adv-x="1197" 
d="M969 725c50.667 0 92.667 -16.667 126 -50c32 -34 48 -77.667 48 -131c0 -54 -16 -97.333 -48 -130c-33.333 -33.333 -75.333 -50 -126 -50c-51.333 0 -93.666 17 -126.999 51c-32.667 32.667 -49 75.667 -49 129c0 54 16.333 97.667 49 131
c33.333 33.333 75.666 50 126.999 50zM160 712l426 -628v628h58v-712h-68l-424 626v-626h-57v712h65zM969 407c37.333 0 67.167 12.333 89.5 37s33.5 58 33.5 100c0 43.333 -11 77.166 -33 101.499s-52 36.5 -90 36.5c-38.667 0 -69.167 -12.167 -91.5 -36.5
s-33.5 -58.166 -33.5 -101.499c0 -42 11.333 -75.333 34 -100s53 -37 91 -37z" />
    <glyph glyph-name="uni2117" unicode="&#x2117;" horiz-adv-x="874" 
d="M174 621c69.333 69.333 157.001 104 263.001 104s193.667 -34.667 263 -104c68 -68.667 102 -157 102 -265c0 -107.333 -34.333 -195.333 -103 -264c-68.667 -70 -156 -105 -262 -105c-106.667 0 -194.334 35 -263.001 105c-68.667 68.667 -103 156.667 -103 264
c0 108 34.333 196.333 103 265zM207.001 121c59.333 -61.333 136.002 -91.999 230.002 -91.999s170.667 30.667 230 92s89 139.666 89 234.999s-29.667 173.666 -89 234.999c-58.667 60.667 -135.334 91 -230.001 91s-171.334 -30.333 -230.001 -91
c-60 -61.333 -90 -139.666 -90 -234.999c0 -96 30 -174.333 90 -235zM322.003 547.001l151.001 0.000976562c37.333 0 67.166 -10.833 89.499 -32.5s33.5 -49.834 33.5 -84.501c0 -35.333 -11.5 -63.833 -34.5 -85.5s-53.5 -32.5 -91.5 -32.5h-102v-142h-46v377z
M368.004 351.002h96c28 0 49.333 7 64 21s22 33.333 22 58c0 51.333 -28.333 77 -85 77h-97v-156z" />
    <glyph glyph-name="trademark" unicode="&#x2122;" horiz-adv-x="975" 
d="M223 330h-46v342h-123v40h293v-40h-124v-342zM507 330h-44v382h93l114 -356h12l111 356h96v-382h-46v356h-15l-111 -356h-83l-113 356h-14v-356z" />
    <glyph glyph-name="uni2126" unicode="&#x2126;" horiz-adv-x="816" 
d="M356 0l-285 -0.00195312v53h200v2c-61.333 36 -108.666 81.833 -141.999 137.5s-50 118.834 -50 189.501c0 106.667 30.333 190.334 91 251.001c61.333 61.333 140.666 92 237.999 92c98 0 176.667 -30.667 236 -92s89 -145 89 -251c0 -71.333 -16.333 -135 -49 -191
s-79 -101.333 -139 -136v-2h199v-53h-284v48c141.333 74 212 185.333 212 334c0 91.333 -23.5 162.166 -70.5 212.499s-111.5 75.5 -193.5 75.5c-80 0 -144.667 -25 -194 -75c-48.667 -50.667 -73 -121.667 -73 -213c0 -147.333 71.667 -258.666 215 -333.999v-48z" />
    <glyph glyph-name="estimated" unicode="&#x212e;" horiz-adv-x="903" 
d="M451 722c122 0 219.667 -36.666 293 -109.999c72.667 -72.667 109 -162.334 109 -269.001h-641c-9.33301 0 -14 -4.33301 -14 -13v-175c0 -20 5.33301 -35 16 -45c65.333 -64 144.333 -96 237 -96c49.333 0 96.333 10.333 141 31s81.334 48.667 110.001 84h72
c-30 -41.333 -72.833 -75.333 -128.5 -102s-120.5 -40 -194.5 -40c-120.667 0 -217.334 34.333 -290.001 103c-74 69.333 -111 157 -111 263s36.333 194 109 264s170 105 292 105zM451 694.001c-92.667 0 -171.666 -32.667 -236.999 -98c-10.667 -10 -16 -24.333 -16 -43
v-174c0 -8.66699 4.66699 -13 14 -13h477c9.33301 0 14 4.33301 14 13v174c0 18.667 -5.33301 33 -16 43c-66.667 65.333 -145.334 98 -236.001 98z" />
    <glyph glyph-name="uni2153" unicode="&#x2153;" horiz-adv-x="1107" 
d="M269 321h-51v297h-123v41h66c39.333 0 60.333 15 63 45l2 44h43v-427zM300 -15h-61l448 742h60zM845 -12c-52 0 -93.3311 12.166 -123.998 36.499s-46 57.833 -46 100.5h52c3.33301 -62 42.666 -93 117.999 -93c76 0 114 28.333 114 85
c0 25.333 -9.5 45.166 -28.5 59.499s-45.833 21.5 -80.5 21.5h-37v46h37c29.333 0 51.833 6.5 67.5 19.5s23.5 30.833 23.5 53.5c0 24 -9.16699 42.5 -27.5 55.5s-43.5 19.5 -75.5 19.5c-67.333 0 -102 -27.667 -104 -83h-53c0 39.333 14 70.333 42 93s66.333 34 115 34
c47.333 0 85 -10.5 113 -31.5s42 -48.833 42 -83.5c0 -23.333 -6.33301 -43.666 -19 -60.999s-30.334 -29 -53.001 -35v-1c28 -6.66699 50.167 -19.667 66.5 -39s24.5 -42.666 24.5 -69.999c0 -38 -15.167 -68.667 -45.5 -92s-70.833 -35 -121.5 -35z" />
    <glyph glyph-name="uni2154" unicode="&#x2154;" horiz-adv-x="1234" 
d="M416 321l-321 0.000976562c0 82 40 142.333 120 181l73 35c50 24 75 54.667 75 92c0 24.667 -9.16699 44.5 -27.5 59.5s-44.166 22.5 -77.499 22.5c-67.333 0 -102 -33.667 -104 -101h-54c0.666992 47.333 14.667 83.666 42 108.999s66 38 116 38
c48 0 86.333 -11.667 115 -35s43 -54.333 43 -93c0 -28.667 -8.16699 -53.5 -24.5 -74.5s-42.833 -40.167 -79.5 -57.5l-54 -25c-34 -16 -58.833 -32 -74.5 -48s-24.834 -35 -27.501 -57h260v-46zM427 -14.999h-61l448 742h59zM972 -11.999
c-52.667 0 -94.333 12.167 -125 36.5s-46 57.833 -46 100.5h53c0.666992 -30 11 -53 31 -69s49 -24 87 -24c76 0 114 28.333 114 85c0 25.333 -9.5 45.166 -28.5 59.499s-46.167 21.5 -81.5 21.5h-36v46h36c29.333 0 51.833 6.5 67.5 19.5s23.5 30.833 23.5 53.5
c0 24 -9 42.5 -27 55.5s-43 19.5 -75 19.5c-67.333 0 -102 -27.667 -104 -83h-53c0 39.333 14 70.333 42 93s66.333 34 115 34c47.333 0 85 -10.5 113 -31.5s42 -48.833 42 -83.5c0 -24 -6.5 -44.5 -19.5 -61.5s-30.833 -28.5 -53.5 -34.5v-1
c28 -6.66699 50.333 -19.667 67 -39s25 -42.666 25 -69.999c0 -38 -15.167 -68.667 -45.5 -92s-70.833 -35 -121.5 -35z" />
    <glyph glyph-name="uni2155" unicode="&#x2155;" horiz-adv-x="1122" 
d="M269 321h-51v297h-123v41h66c39.333 0 60.333 15 63 45l2 44h43v-427zM300 -15h-61l448 742h60zM856 -14c-43.333 0 -79.499 9.16602 -108.499 27.499s-48.167 43.5 -57.5 75.5l52 12c6.66699 -22 20.167 -39.167 40.5 -51.5s44.833 -18.5 73.5 -18.5
c37.333 0 66.5 9 87.5 27s31.5 42.333 31.5 73s-10.333 55.167 -31 73.5s-49 27.5 -85 27.5c-45.333 0 -79.333 -14.333 -102 -43l-55 12l43 226h252v-44h-215l-26 -146l2 -1c26.667 26 64 39 112 39c49.333 0 87.833 -13 115.5 -39s41.5 -60.333 41.5 -103
c0 -43.333 -15.333 -78.666 -46 -105.999s-72.334 -41 -125.001 -41z" />
    <glyph glyph-name="uni2156" unicode="&#x2156;" horiz-adv-x="1235" 
d="M416 321l-321 0.000976562c0 82 40 142.333 120 181l73 35c50 24 75 54.667 75 92c0 24.667 -9.16699 44.5 -27.5 59.5s-44.166 22.5 -77.499 22.5c-67.333 0 -102 -33.667 -104 -101h-54c0.666992 47.333 14.667 83.666 42 108.999s66 38 116 38
c48 0 86.333 -11.667 115 -35s43 -54.333 43 -93c0 -28.667 -8.16699 -53.5 -24.5 -74.5s-42.833 -40.167 -79.5 -57.5l-54 -25c-34 -16 -58.833 -32 -74.5 -48s-24.834 -35 -27.501 -57h260v-46zM413 -14.999h-61l448 742h60zM969 -13.999
c-43.333 0 -79.498 9.16602 -108.498 27.499s-48.167 43.5 -57.5 75.5l52 12c6.66699 -22 20.167 -39.167 40.5 -51.5s44.833 -18.5 73.5 -18.5c37.333 0 66.5 9 87.5 27s31.5 42.333 31.5 73s-10.333 55.167 -31 73.5s-49 27.5 -85 27.5
c-45.333 0 -79.333 -14.333 -102 -43l-55 12l43 226h252v-44h-215l-26 -146l2 -1c27.333 26 64.666 39 111.999 39c49.333 0 87.833 -13 115.5 -39s41.5 -60.333 41.5 -103c0 -43.333 -15.333 -78.666 -46 -105.999s-72.334 -41 -125.001 -41z" />
    <glyph glyph-name="uni2157" unicode="&#x2157;" horiz-adv-x="1221" 
d="M265 309c-52 0 -93.3311 12.166 -123.998 36.499s-46 57.833 -46 100.5h52c3.33301 -62 42.666 -93 117.999 -93c76 0 114 28.333 114 85c0 25.333 -9.5 45.166 -28.5 59.499s-45.833 21.5 -80.5 21.5h-37v46h37c29.333 0 51.833 6.5 67.5 19.5s23.5 30.833 23.5 53.5
c0 24 -9.16699 42.5 -27.5 55.5s-43.5 19.5 -75.5 19.5c-67.333 0 -102 -27.667 -104 -83h-53c0 39.333 14 70.333 42 93s66.333 34 115 34c47.333 0 85 -10.5 113 -31.5s42 -48.833 42 -83.5c0 -23.333 -6.33301 -43.666 -19 -60.999s-30.334 -29 -53.001 -35v-1
c28 -6.66699 50.167 -19.667 66.5 -39s24.5 -42.666 24.5 -69.999c0 -38 -15.167 -68.667 -45.5 -92s-70.833 -35 -121.5 -35zM399.002 -15.001h-61l448 742h60zM955.002 -14.001c-43.333 0 -79.498 9.16602 -108.498 27.499s-48.167 43.5 -57.5 75.5l52 12
c6.66699 -22 20.167 -39.167 40.5 -51.5s44.833 -18.5 73.5 -18.5c37.333 0 66.5 9 87.5 27s31.5 42.333 31.5 73s-10.333 55.167 -31 73.5s-49 27.5 -85 27.5c-45.333 0 -79.333 -14.333 -102 -43l-55 12l43 226h252v-44h-215l-26 -146l2 -1
c27.333 26 64.666 39 111.999 39c49.333 0 87.833 -13 115.5 -39s41.5 -60.333 41.5 -103c0 -43.333 -15.333 -78.666 -46 -105.999s-72.334 -41 -125.001 -41z" />
    <glyph glyph-name="uni2158" unicode="&#x2158;" horiz-adv-x="1259" 
d="M375 321h-51v107l-229 -1v45l226 276h54v-280l76 1v-42l-76 1v-107zM437 -15h-61l448 742h60zM321 686l-179 -217l182 -1v218h-3zM993 -14c-43.333 0 -79.498 9.16602 -108.498 27.499s-48.167 43.5 -57.5 75.5l52 12c6.66699 -22 20.167 -39.167 40.5 -51.5
s44.833 -18.5 73.5 -18.5c37.333 0 66.5 9 87.5 27s31.5 42.333 31.5 73s-10.333 55.167 -31 73.5s-49 27.5 -85 27.5c-45.333 0 -79.333 -14.333 -102 -43l-55 12l43 226h252v-44h-215l-26 -146l2 -1c27.333 26 64.666 39 111.999 39c49.333 0 87.833 -13 115.5 -39
s41.5 -60.333 41.5 -103c0 -43.333 -15.333 -78.666 -46 -105.999s-72.334 -41 -125.001 -41z" />
    <glyph glyph-name="uni2159" unicode="&#x2159;" horiz-adv-x="1088" 
d="M269 321h-51v297h-123v41h66c39.333 0 60.333 15 63 45l2 44h43v-427zM300 -15h-61l448 742h60zM830 -12c-117.333 0 -175.999 70.668 -175.999 212.001c0 76.667 15.167 135.167 45.5 175.5s74.5 60.5 132.5 60.5c37.333 0 69 -8.33301 95 -25s44 -40 54 -70l-51 -14
c-15.333 43.333 -48 65 -98 65c-82.667 0 -125.334 -59.333 -128.001 -178c30 40.667 75 61 135 61c46.667 0 84 -12.667 112 -38s42 -59.333 42 -102c0 -44.667 -14.667 -80.334 -44 -107.001s-69 -40 -119 -40zM831.001 32.001c34 0 61.002 9.16699 81.002 27.5
s30 42.833 30 73.5c0 30 -10 54 -30 72s-47 27 -81 27c-32 0 -58.833 -7.66699 -80.5 -23s-34.834 -35.333 -39.501 -60c1.33301 -38 12.666 -67 33.999 -87s50 -30 86 -30z" />
    <glyph glyph-name="uni215A" unicode="&#x215a;" horiz-adv-x="1181" 
d="M260 307c-43.333 0 -79.333 9.16602 -108 27.499s-47.667 43.5 -57 75.5l52 12c14 -46.667 52 -70 114 -70c36.667 0 65.5 9 86.5 27s31.5 42.333 31.5 73s-10.333 55.167 -31 73.5s-49 27.5 -85 27.5c-45.333 0 -79.333 -14.333 -102 -43l-55 12l43 226h253v-44h-216
l-26 -146l2 -1c26.667 26 64 39 112 39c49.333 0 88 -13 116 -39s42 -60.333 42 -103c0 -43.333 -15.5 -78.666 -46.5 -105.999s-72.833 -41 -125.5 -41zM392 -15.001h-61l448 742h60zM923 -12.001c-117.333 0 -176 70.668 -176 212.001c0 76.667 15.167 135.167 45.5 175.5
s74.5 60.5 132.5 60.5c37.333 0 68.833 -8.33301 94.5 -25s43.5 -40 53.5 -70l-50 -14c-15.333 43.333 -48 65 -98 65c-82.667 0 -125.334 -59.333 -128.001 -178c28.667 40.667 73.334 61 134.001 61c47.333 0 85 -12.667 113 -38s42 -59.333 42 -102
c0 -44.667 -14.667 -80.334 -44 -107.001s-69 -40 -119 -40zM839 62c20.667 -20 48.667 -30 84 -30c34.667 0 62 9 82 27c19.333 18 29 42.667 29 74c0 30 -9.83301 54 -29.5 72s-46.5 27 -80.5 27c-32 0 -58.833 -7.66699 -80.5 -23s-35.167 -35.333 -40.5 -60
c2 -39.333 14 -68.333 36 -87z" />
    <glyph glyph-name="oneeighth" unicode="&#x215b;" horiz-adv-x="1115" 
d="M269 321h-51v297h-123v41h66c39.333 0 60.333 15 63 45l2 44h43v-427zM300 -15h-61l448 742h60zM972 27c-32.667 -23.333 -75.667 -35.001 -129 -35.001s-96.333 11.667 -129 35c-32 23.333 -48 55 -48 95c0 26.667 8.66699 49.834 26 69.501s41 32.834 71 39.501v2
c-24 7.33301 -43 19.166 -57 35.499s-21 35.5 -21 57.5c0 34 14.167 60.833 42.5 80.5s66.833 29.5 115.5 29.5s87.167 -9.83301 115.5 -29.5s42.5 -46.5 42.5 -80.5c0 -22 -7 -41.333 -21 -58s-33 -28.334 -57 -35.001v-2c30.667 -6.66699 54.5 -19.667 71.5 -39
s25.5 -42.666 25.5 -69.999c0 -40 -16 -71.667 -48 -95zM765 267.999c18.667 -12.667 44.667 -19 78 -19s59.333 6.33301 78 19s28 30.667 28 54s-9.33301 41.333 -28 54s-44.667 19 -78 19s-59.333 -6.33301 -78 -19s-28 -30.667 -28 -54s9.33301 -41.333 28 -54z
M753 57.999c20.667 -16 50.666 -24 89.999 -24c38.667 0 69 8 91 24c21.333 16 32 38 32 66c0 56.667 -41 85 -123 85c-39.333 0 -69.666 -7.33301 -90.999 -22s-32 -35.667 -32 -63c0 -28 11 -50 33 -66z" />
    <glyph glyph-name="threeeighths" unicode="&#x215c;" horiz-adv-x="1214" 
d="M265 309c-52 0 -93.3311 12.166 -123.998 36.499s-46 57.833 -46 100.5h52c3.33301 -62 42.666 -93 117.999 -93c76 0 114 28.333 114 85c0 25.333 -9.5 45.166 -28.5 59.499s-45.833 21.5 -80.5 21.5h-37v46h37c29.333 0 51.833 6.5 67.5 19.5s23.5 30.833 23.5 53.5
c0 24 -9.16699 42.5 -27.5 55.5s-43.5 19.5 -75.5 19.5c-67.333 0 -102 -27.667 -104 -83h-53c0 39.333 14 70.333 42 93s66.333 34 115 34c47.333 0 85 -10.5 113 -31.5s42 -48.833 42 -83.5c0 -23.333 -6.33301 -43.666 -19 -60.999s-30.334 -29 -53.001 -35v-1
c28 -6.66699 50.167 -19.667 66.5 -39s24.5 -42.666 24.5 -69.999c0 -38 -15.167 -68.667 -45.5 -92s-70.833 -35 -121.5 -35zM399.002 -15.001h-61l448 742h60zM1071 26.999c-32.667 -23.333 -75.667 -35.001 -129 -35.001s-96.333 11.667 -129 35
c-32 23.333 -48 55 -48 95c0 26.667 8.66699 49.834 26 69.501s41 32.834 71 39.501v2c-24 7.33301 -43 19.166 -57 35.499s-21 35.5 -21 57.5c0 34 14.167 60.833 42.5 80.5s66.833 29.5 115.5 29.5s87.167 -9.83301 115.5 -29.5s42.5 -46.5 42.5 -80.5
c0 -22 -7 -41.333 -21 -58s-33 -28.334 -57 -35.001v-2c30.667 -6.66699 54.5 -19.667 71.5 -39s25.5 -42.666 25.5 -69.999c0 -40 -16 -71.667 -48 -95zM864.002 267.998c18.667 -12.667 44.667 -19 78 -19s59.333 6.33301 78 19s28 30.667 28 54s-9.33301 41.333 -28 54
s-44.667 19 -78 19s-59.333 -6.33301 -78 -19s-28 -30.667 -28 -54s9.33301 -41.333 28 -54zM852.002 57.998c21.333 -16 51.332 -24 89.999 -24s69 8 91 24c21.333 16 32 38 32 66c0 56.667 -41 85 -123 85c-39.333 0 -69.666 -7.33301 -90.999 -22s-32 -35.667 -32 -63
c0 -28 11 -50 33 -66z" />
    <glyph glyph-name="fiveeighths" unicode="&#x215d;" horiz-adv-x="1207" 
d="M260 307c-43.333 0 -79.333 9.16602 -108 27.499s-47.667 43.5 -57 75.5l52 12c14 -46.667 52 -70 114 -70c36.667 0 65.5 9 86.5 27s31.5 42.333 31.5 73s-10.333 55.167 -31 73.5s-49 27.5 -85 27.5c-45.333 0 -79.333 -14.333 -102 -43l-55 12l43 226h253v-44h-216
l-26 -146l2 -1c26.667 26 64 39 112 39c49.333 0 88 -13 116 -39s42 -60.333 42 -103c0 -43.333 -15.5 -78.666 -46.5 -105.999s-72.833 -41 -125.5 -41zM392 -15.001h-61l448 742h60zM936 -8.00098c-54 0 -97 11.666 -129 34.999s-48 55 -48 95
c0 26.667 8.66699 49.834 26 69.501s41 32.834 71 39.501v2c-24 7.33301 -43 19.166 -57 35.499s-21 35.5 -21 57.5c0 34 14.167 60.833 42.5 80.5s66.833 29.5 115.5 29.5c48 0 86.167 -9.83301 114.5 -29.5s42.5 -46.5 42.5 -80.5c0 -22 -7 -41.333 -21 -58
s-33 -28.334 -57 -35.001v-2c30.667 -6.66699 54.5 -19.667 71.5 -39s25.5 -42.666 25.5 -69.999c0 -40 -16 -71.667 -48 -95s-74.667 -35 -128 -35zM936 248.998c33.333 0 59.333 6.33301 78 19s28 30.667 28 54s-9.33301 41.333 -28 54s-44.667 19 -78 19
c-34 0 -60.333 -6.33301 -79 -19s-28 -30.667 -28 -54s9.33301 -41.333 28 -54s45 -19 79 -19zM845 57.998c22 -16 52.333 -24 91 -24s69 8 91 24c21.333 16 32 38 32 66c0 56.667 -41 85 -123 85c-40 0 -70.667 -7.33301 -92 -22s-32 -35.667 -32 -63c0 -28 11 -50 33 -66z
" />
    <glyph glyph-name="seveneighths" unicode="&#x215e;" horiz-adv-x="1097" 
d="M222 321l-53 -0.00195312c12 158.667 74 286.334 186 383.001h-260v44h325v-42c-120 -97.333 -186 -225.666 -198 -384.999zM282 -15.002h-61l448 742h60zM825 -8.00195c-53.333 0 -96 11.665 -128 34.998s-48 55 -48 95c0 26.667 8.66699 49.834 26 69.501
s41 32.834 71 39.501v2c-52 16 -78 47 -78 93c0 34 14.167 60.833 42.5 80.5s66.5 29.5 114.5 29.5c48.667 0 87.167 -9.83301 115.5 -29.5s42.5 -46.5 42.5 -80.5c0 -22 -7 -41.333 -21 -58s-33 -28.334 -57 -35.001v-2c30.667 -6.66699 54.5 -19.667 71.5 -39
s25.5 -42.666 25.5 -69.999c0 -40 -16 -71.667 -48 -95s-75 -35 -129 -35zM825 248.996c34 0 60.333 6.33301 79 19s28 30.667 28 54s-9.33301 41.333 -28 54s-45 19 -79 19c-33.333 0 -59.333 -6.33301 -78 -19s-28 -30.667 -28 -54s9.33301 -41.333 28 -54
s44.667 -19 78 -19zM735 57.9961c20.667 -16 50.666 -24 89.999 -24c38.667 0 69 8 91 24s33 38 33 66c0 56.667 -41.333 85 -124 85c-39.333 0 -69.666 -7.33301 -90.999 -22s-32 -35.667 -32 -63c0 -28 11 -50 33 -66z" />
    <glyph glyph-name="arrowleft" unicode="&#x2190;" horiz-adv-x="869" 
d="M162 386h636v-60h-636l124 -161l125 -165h-70l-270 356l270 356h70l-125 -165z" />
    <glyph glyph-name="arrowup" unicode="&#x2191;" horiz-adv-x="836" 
d="M62 457l356 269l356 -269v-70l-165 125l-161 124v-636h-60v637l-161 -125l-165 -125v70z" />
    <glyph glyph-name="arrowright" unicode="&#x2192;" horiz-adv-x="869" 
d="M458 712h70l270 -356l-270 -356h-70l125 165l123 161h-635v60h635l-123 161z" />
    <glyph glyph-name="arrowdown" unicode="&#x2193;" horiz-adv-x="836" 
d="M448 77l326 248v-70l-356 -269l-356 269v70l326 -248v635h60v-635z" />
    <glyph glyph-name="arrowboth" unicode="&#x2194;" horiz-adv-x="1181" 
d="M770 712h70l270 -356l-270 -356h-70l125 165l124 161h-857l124 -161l125 -165h-70l-270 356l270 356h70l-125 -165l-124 -161h857l-124 161z" />
    <glyph glyph-name="arrowupdn" unicode="&#x2195;" horiz-adv-x="836" 
d="M774 582l-326 248v-877l161 124l165 125v-71l-356 -269l-356 269v71l165 -125l161 -124v877l-326 -248v70l356 270l356 -270v-70z" />
    <glyph glyph-name="uni2196" unicode="&#x2196;" horiz-adv-x="751" 
d="M157 611l566 -568l-43 -43l-567 569l4 -144v-403h-61v646h646v-60h-397z" />
    <glyph glyph-name="uni2197" unicode="&#x2197;" horiz-adv-x="751" 
d="M49 608v60h646v-646h-61v403l4 144l-567 -569l-43 43l566 568l-149 -3h-396z" />
    <glyph glyph-name="uni2198" unicode="&#x2198;" horiz-adv-x="751" 
d="M634 243v403h61v-646h-646v60h396l149 -3l-566 568l43 43l567 -569z" />
    <glyph glyph-name="uni2199" unicode="&#x2199;" horiz-adv-x="751" 
d="M723 625l-566 -568l148 3h397v-60h-646v646h61v-403l-4 -144l567 569z" />
    <glyph glyph-name="partialdiff" unicode="&#x2202;" horiz-adv-x="590" 
d="M274 720c162.667 0 244 -120 244 -360c0 -246.667 -78.333 -370 -235 -370c-65.333 0 -117 21 -155 63c-38 40.667 -57 94.667 -57 162c0 68 19.167 122.167 57.5 162.5s89.5 60.5 153.5 60.5c72.667 0 131.334 -27.333 176.001 -82
c-0.666992 106.667 -16.5 185.167 -47.5 235.5s-77.833 75.5 -140.5 75.5c-44.667 0 -89.334 -10.667 -134.001 -32l-21 49c51.333 24 104.333 36 159 36zM286 42c102 0 158.667 79.6689 170 239.002c-18 34 -41.833 60.167 -71.5 78.5s-62.5 27.5 -98.5 27.5
c-46.667 0 -84.167 -15.333 -112.5 -46s-42.5 -72.334 -42.5 -125.001s13.833 -94.834 41.5 -126.501s65.5 -47.5 113.5 -47.5z" />
    <glyph glyph-name="uni2206" unicode="&#x2206;" horiz-adv-x="716" 
d="M326 714h66l290 -714h-648zM343 610l-223 -557h474l-219 557l-15 48z" />
    <glyph glyph-name="product" unicode="&#x220f;" horiz-adv-x="737" 
d="M95 712h547v-916h-61v860h-426v-860h-60v916z" />
    <glyph glyph-name="summation" unicode="&#x2211;" horiz-adv-x="679" 
d="M457 259l-309 -405h459v-58h-536v52l315 411l-302 401v52h511v-58h-434z" />
    <glyph glyph-name="minus" unicode="&#x2212;" 
d="M585 284h-529v52h529v-52z" />
    <glyph glyph-name="uni2215" unicode="&#x2215;" horiz-adv-x="325" 
d="M-30 -15h-61l448 742h60z" />
    <glyph glyph-name="uni2219" unicode="&#x2219;" horiz-adv-x="327" 
d="M241 216h-155v135h155v-135z" />
    <glyph glyph-name="radical" unicode="&#x221a;" 
d="M400 -204h-85l-127 339l-111 -43l-18 49l164 62l130 -355l201 899h58z" />
    <glyph glyph-name="infinity" unicode="&#x221e;" horiz-adv-x="796" 
d="M206 185c-46.667 0 -83.666 14.832 -110.999 44.499s-41 67.834 -41 114.501c0 47.333 13.833 86 41.5 116s63.834 45 108.501 45c34.667 0 67.167 -10 97.5 -30s62.5 -52.333 96.5 -97c34.667 45.333 66.667 78 96 98s61 30 95 30c45.333 0 82.166 -15 110.499 -45
s42.5 -68.333 42.5 -115c0 -48 -14 -87 -42 -117s-65 -45 -111 -45c-65.333 0 -129 41.333 -191 124c-34.667 -44 -66.834 -75.5 -96.501 -94.5s-61.5 -28.5 -95.5 -28.5zM591.001 233.999c30 0 54.333 10.333 73 31s28 47 28 79c0 33.333 -9.33301 60.333 -28 81
s-43.667 31 -75 31c-26.667 0 -52.5 -9 -77.5 -27s-52.167 -46.667 -81.5 -86c52 -72.667 105.667 -109 161 -109zM206.001 234.999c53.333 0 106.335 36.001 159.002 108.001c-56.667 74.667 -110.334 112 -161.001 112c-30 0 -54.167 -10.333 -72.5 -31
s-27.5 -47.334 -27.5 -80.001s9.16699 -59 27.5 -79s43.166 -30 74.499 -30z" />
    <glyph glyph-name="integral" unicode="&#x222b;" 
d="M208 -204h-23v51h22c29.333 0 50.5 6.66699 63.5 20s19.5 36 19.5 68v665c0 51.333 11.5 88.666 34.5 111.999s58.833 35 107.5 35h23v-51h-22c-29.333 0 -50.5 -6.66699 -63.5 -20s-19.5 -36 -19.5 -68v-665c0 -51.333 -11.5 -88.666 -34.5 -111.999
s-58.833 -35 -107.5 -35z" />
    <glyph glyph-name="approxequal" unicode="&#x2248;" 
d="M122 350l-53.001 -0.000976562c0 56.667 12.167 100.167 36.5 130.5s56.833 45.5 97.5 45.5c20 0 39.333 -4.16699 58 -12.5s34.834 -18.666 48.501 -30.999s27.167 -24.5 40.5 -36.5s27.5 -22.167 42.5 -30.5s30.167 -12.5 45.5 -12.5c24.667 0 44.167 10.5 58.5 31.5
s21.5 51.5 21.5 91.5h53c0 -56 -12.167 -99.333 -36.5 -130s-56.833 -46 -97.5 -46c-22.667 0 -45.5 6 -68.5 18s-42.167 26.667 -57.5 44c-38.667 41.333 -75 62 -109 62c-25.333 0 -45 -10.5 -59 -31.5s-21 -51.833 -21 -92.5zM121.999 107.999l-53.001 -0.000976562
c0 56.667 12.167 100.167 36.5 130.5s56.833 45.5 97.5 45.5c20 0 39.333 -4.16699 58 -12.5s34.834 -18.5 48.501 -30.5s27.167 -24.167 40.5 -36.5s27.5 -22.666 42.5 -30.999s30.167 -12.5 45.5 -12.5c24.667 0 44.167 10.5 58.5 31.5s21.5 51.5 21.5 91.5h53
c0 -56 -12.167 -99.333 -36.5 -130s-56.833 -46 -97.5 -46c-22.667 0 -45.5 6 -68.5 18s-42.167 26.667 -57.5 44c-38.667 41.333 -75 62 -109 62c-24.667 0 -44.167 -10.667 -58.5 -32s-21.5 -52 -21.5 -92z" />
    <glyph glyph-name="notequal" unicode="&#x2260;" 
d="M585 445v-52h-200l-74 -167h274v-52h-297l-90 -201l-40 15l83 186h-185v52h208l75 167h-283v52h306l92 207l40 -15l-86 -192h177z" />
    <glyph glyph-name="lessequal" unicode="&#x2264;" 
d="M56 395l529 179v-59l-473 -152l473 -151v-59l-529 178v64zM585 14h-529v52h529v-52z" />
    <glyph glyph-name="greaterequal" unicode="&#x2265;" 
d="M56 515v59l529 -179v-64l-529 -178v59l473 151zM585 14h-529v52h529v-52z" />
    <glyph glyph-name="uni2460" unicode="&#x2460;" horiz-adv-x="1151" 
d="M936 31c-94 -93.333 -214.333 -140 -361 -140s-267 46.667 -361 140c-95.333 93.333 -143 210.333 -143 351c0 141.333 47.667 258.666 143 351.999c94.667 92.667 215 139 361 139s266.333 -46.333 361 -139c95.333 -93.333 143 -210.666 143 -351.999
c0 -140.667 -47.667 -257.667 -143 -351zM256 68c83.333 -82.667 189.666 -123.999 318.999 -123.999s235.666 41.333 318.999 124c84 83.333 126 188 126 314c0 126.667 -42 231.334 -126 314.001c-83.333 82.667 -189.666 124 -318.999 124
s-235.666 -41.333 -318.999 -124c-84 -82.667 -126 -187.334 -126 -314.001s42 -231.334 126 -314.001zM624 167.001h-51v297h-123v41h66c38.667 0 59.667 15 63 45l2 44h43v-427z" />
    <glyph glyph-name="uni2461" unicode="&#x2461;" horiz-adv-x="1151" 
d="M936 31c-94 -93.333 -214.333 -140 -361 -140s-267 46.667 -361 140c-95.333 93.333 -143 210.333 -143 351c0 141.333 47.667 258.666 143 351.999c94.667 92.667 215 139 361 139s266.333 -46.333 361 -139c95.333 -93.333 143 -210.666 143 -351.999
c0 -140.667 -47.667 -257.667 -143 -351zM256 68c83.333 -82.667 189.666 -123.999 318.999 -123.999s235.666 41.333 318.999 124c84 83.333 126 188 126 314c0 126.667 -42 231.334 -126 314.001c-83.333 82.667 -189.666 124 -318.999 124
s-235.666 -41.333 -318.999 -124c-84 -82.667 -126 -187.334 -126 -314.001s42 -231.334 126 -314.001zM740 181.001l-321 0.00195312c0 82.667 40.333 143 121 181l73 35c49.333 24 74 54.667 74 92c0 24.667 -9 44.667 -27 60s-43.667 23 -77 23c-68 0 -103 -34 -105 -102
h-53c0.666992 47.333 14.667 83.666 42 108.999s66 38 116 38c48 0 86.167 -11.667 114.5 -35s42.5 -54.333 42.5 -93c0 -28.667 -8.16699 -53.334 -24.5 -74.001s-42.833 -39.667 -79.5 -57l-54 -26c-34 -16 -58.667 -32 -74 -48s-24.333 -35 -27 -57h259v-46z" />
    <glyph glyph-name="uni2462" unicode="&#x2462;" horiz-adv-x="1151" 
d="M936 31c-94 -93.333 -214.333 -140 -361 -140s-267 46.667 -361 140c-95.333 93.333 -143 210.333 -143 351c0 141.333 47.667 258.666 143 351.999c94.667 92.667 215 139 361 139s266.333 -46.333 361 -139c95.333 -93.333 143 -210.666 143 -351.999
c0 -140.667 -47.667 -257.667 -143 -351zM256 68c83.333 -82.667 189.666 -123.999 318.999 -123.999s235.666 41.333 318.999 124c84 83.333 126 188 126 314c0 126.667 -42 231.334 -126 314.001c-83.333 82.667 -189.666 124 -318.999 124
s-235.666 -41.333 -318.999 -124c-84 -82.667 -126 -187.334 -126 -314.001s42 -231.334 126 -314.001zM584 162.001c-52 0 -93.333 12.332 -124 36.999s-46 58 -46 100h53c0.666992 -62 40 -93 118 -93c36 0 64 7.33301 84 22s30 35.667 30 63
c0 25.333 -9.5 45.166 -28.5 59.499s-46.167 21.5 -81.5 21.5h-36v46h36c29.333 0 51.833 6.5 67.5 19.5s23.5 30.833 23.5 53.5c0 24 -9 42.5 -27 55.5s-43 19.5 -75 19.5c-68 0 -103 -27.667 -105 -83h-52c0 39.333 13.833 70.333 41.5 93s65.834 34 114.501 34
c47.333 0 85.166 -10.333 113.499 -31s42.5 -48.667 42.5 -84c0 -23.333 -6.5 -43.666 -19.5 -60.999s-30.833 -29 -53.5 -35v-1c28 -6.66699 50.167 -19.667 66.5 -39s24.5 -42.666 24.5 -69.999c0 -38 -15.167 -68.667 -45.5 -92s-70.833 -35 -121.5 -35z" />
    <glyph glyph-name="uni2463" unicode="&#x2463;" horiz-adv-x="1151" 
d="M936 31c-94 -93.333 -214.333 -140 -361 -140s-267 46.667 -361 140c-95.333 93.333 -143 210.333 -143 351c0 141.333 47.667 258.666 143 351.999c94.667 92.667 215 139 361 139s266.333 -46.333 361 -139c95.333 -93.333 143 -210.666 143 -351.999
c0 -140.667 -47.667 -257.667 -143 -351zM256 68c83.333 -82.667 189.666 -123.999 318.999 -123.999s235.666 41.333 318.999 124c84 83.333 126 188 126 314c0 126.667 -42 231.334 -126 314.001c-83.333 82.667 -189.666 124 -318.999 124
s-235.666 -41.333 -318.999 -124c-84 -82.667 -126 -187.334 -126 -314.001s42 -231.334 126 -314.001zM668 178.001h-51v107l-229 -1v44l226 277h54v-281l76 2v-42l-76 1v-107zM435 326.001l182 -2v219h-3z" />
    <glyph glyph-name="uni2464" unicode="&#x2464;" horiz-adv-x="1151" 
d="M936 31c-94 -93.333 -214.333 -140 -361 -140s-267 46.667 -361 140c-95.333 93.333 -143 210.333 -143 351c0 141.333 47.667 258.666 143 351.999c94.667 92.667 215 139 361 139s266.333 -46.333 361 -139c95.333 -93.333 143 -210.666 143 -351.999
c0 -140.667 -47.667 -257.667 -143 -351zM256 68c83.333 -82.667 189.666 -123.999 318.999 -123.999s235.666 41.333 318.999 124c84 83.333 126 188 126 314c0 126.667 -42 231.334 -126 314.001c-83.333 82.667 -189.666 124 -318.999 124
s-235.666 -41.333 -318.999 -124c-84 -82.667 -126 -187.334 -126 -314.001s42 -231.334 126 -314.001zM579 163.001c-43.333 0 -79.498 9.16602 -108.498 27.499s-48.167 43.833 -57.5 76.5l52 11c6.66699 -22 20.167 -39.167 40.5 -51.5s44.833 -18.5 73.5 -18.5
c37.333 0 66.5 9 87.5 27s31.5 42.333 31.5 73s-10.333 55.167 -31 73.5s-49 27.5 -85 27.5c-45.333 0 -79.333 -14.333 -102 -43l-55 12l43 226h252v-44h-215l-26 -145l2 -2c27.333 26 64.666 39 111.999 39c49.333 0 87.833 -13 115.5 -39s41.5 -60.333 41.5 -103
c0 -43.333 -15.333 -78.666 -46 -105.999s-72.334 -41 -125.001 -41z" />
    <glyph glyph-name="uni2465" unicode="&#x2465;" horiz-adv-x="1151" 
d="M936 31c-94 -93.333 -214.333 -140 -361 -140s-267 46.667 -361 140c-95.333 93.333 -143 210.333 -143 351c0 141.333 47.667 258.666 143 351.999c94.667 92.667 215 139 361 139s266.333 -46.333 361 -139c95.333 -93.333 143 -210.666 143 -351.999
c0 -140.667 -47.667 -257.667 -143 -351zM256 68c83.333 -82.667 189.666 -123.999 318.999 -123.999s235.666 41.333 318.999 124c84 83.333 126 188 126 314c0 126.667 -42 231.334 -126 314.001c-83.333 82.667 -189.666 124 -318.999 124
s-235.666 -41.333 -318.999 -124c-84 -82.667 -126 -187.334 -126 -314.001s42 -231.334 126 -314.001zM587 168.001c-117.333 0 -176.001 70.667 -176.001 212c0 76.667 15.167 135.167 45.5 175.5s74.5 60.5 132.5 60.5c38 0 69.833 -8.5 95.5 -25.5
s43.167 -40.5 52.5 -70.5l-50 -13c-15.333 43.333 -48.333 65 -99 65c-82 0 -124.333 -59.333 -127 -178c28.667 40 73.334 60 134.001 60c46.667 0 84.167 -12.667 112.5 -38s42.5 -59 42.5 -101c0 -44 -14.667 -79.5 -44 -106.5s-69 -40.5 -119 -40.5zM586.999 211.001
c34 0 61.001 9.16797 81.001 27.501s30 43.166 30 74.499c0 30 -9.83301 54 -29.5 72s-46.5 27 -80.5 27c-32 0 -58.833 -7.66699 -80.5 -23s-35.167 -35.333 -40.5 -60c2 -38 13.667 -67.167 35 -87.5s49.666 -30.5 84.999 -30.5z" />
    <glyph glyph-name="uni2466" unicode="&#x2466;" horiz-adv-x="1151" 
d="M936 31c-94 -93.333 -214.333 -140 -361 -140s-267 46.667 -361 140c-95.333 93.333 -143 210.333 -143 351c0 141.333 47.667 258.666 143 351.999c94.667 92.667 215 139 361 139s266.333 -46.333 361 -139c95.333 -93.333 143 -210.666 143 -351.999
c0 -140.667 -47.667 -257.667 -143 -351zM256 68c83.333 -82.667 189.666 -123.999 318.999 -123.999s235.666 41.333 318.999 124c84 83.333 126 188 126 314c0 126.667 -42 231.334 -126 314.001c-83.333 82.667 -189.666 124 -318.999 124
s-235.666 -41.333 -318.999 -124c-84 -82.667 -126 -187.334 -126 -314.001s42 -231.334 126 -314.001zM558 158.001l-53 -0.000976562c12 158.667 74 286.334 186 383.001h-260v44h325v-42c-118.667 -94.667 -184.667 -223 -198 -385z" />
    <glyph glyph-name="uni2467" unicode="&#x2467;" horiz-adv-x="1151" 
d="M936 31c-94 -93.333 -214.333 -140 -361 -140s-267 46.667 -361 140c-95.333 93.333 -143 210.333 -143 351c0 141.333 47.667 258.666 143 351.999c94.667 92.667 215 139 361 139s266.333 -46.333 361 -139c95.333 -93.333 143 -210.666 143 -351.999
c0 -140.667 -47.667 -257.667 -143 -351zM256 68c83.333 -82.667 189.666 -123.999 318.999 -123.999s235.666 41.333 318.999 124c84 83.333 126 188 126 314c0 126.667 -42 231.334 -126 314.001c-83.333 82.667 -189.666 124 -318.999 124
s-235.666 -41.333 -318.999 -124c-84 -82.667 -126 -187.334 -126 -314.001s42 -231.334 126 -314.001zM704 201.001c-32.667 -23.333 -75.666 -35.001 -128.999 -35.001s-96.333 11.667 -129 35c-32 23.333 -48 55 -48 95c0 26.667 8.66699 49.834 26 69.501
s41 32.834 71 39.501v2c-24 7.33301 -42.833 19.333 -56.5 36s-20.5 36 -20.5 58c0 33.333 14.167 59.833 42.5 79.5s66.5 29.5 114.5 29.5c48.667 0 87.167 -9.83301 115.5 -29.5s42.5 -46.167 42.5 -79.5c0 -22.667 -6.83301 -42.334 -20.5 -59.001
s-32.834 -28.334 -57.501 -35.001v-2c30.667 -6.66699 54.5 -19.667 71.5 -39s25.5 -42.666 25.5 -69.999c0 -40 -16 -71.667 -48 -95zM497.001 443c18.667 -12.667 44.667 -19 78 -19s59.333 6.33301 78 19s28 30.334 28 53.001c0 23.333 -9.33301 41.333 -28 54
s-44.667 19 -78 19s-59.333 -6.33301 -78 -19s-28 -30.667 -28 -54c0 -22.667 9.33301 -40.334 28 -53.001zM485.001 232c20.667 -16 50.666 -24 89.999 -24c38.667 0 69 8 91 24s33 38 33 66c0 56.667 -41.333 85 -124 85c-39.333 0 -69.666 -7.33301 -90.999 -22
s-32 -35.667 -32 -63c0 -28 11 -50 33 -66z" />
    <glyph glyph-name="uni2468" unicode="&#x2468;" horiz-adv-x="1151" 
d="M936 31c-94 -93.333 -214.333 -140 -361 -140s-267 46.667 -361 140c-95.333 93.333 -143 210.333 -143 351c0 141.333 47.667 258.666 143 351.999c94.667 92.667 215 139 361 139s266.333 -46.333 361 -139c95.333 -93.333 143 -210.666 143 -351.999
c0 -140.667 -47.667 -257.667 -143 -351zM256 68c83.333 -82.667 189.666 -123.999 318.999 -123.999s235.666 41.333 318.999 124c84 83.333 126 188 126 314c0 126.667 -42 231.334 -126 314.001c-83.333 82.667 -189.666 124 -318.999 124
s-235.666 -41.333 -318.999 -124c-84 -82.667 -126 -187.334 -126 -314.001s42 -231.334 126 -314.001zM574 159.001c-37.333 0 -69.001 8.33203 -95.001 24.999s-44 40 -54 70l50 14c15.333 -43.333 48.333 -65 99 -65c82.667 0 125.334 59.333 128.001 178
c-30 -40.667 -75 -61 -135 -61c-46.667 0 -84 12.667 -112 38s-42 59.333 -42 102c0 44.667 14.667 80.334 44 107.001s69 40 119 40c116.667 0 175 -70.667 175 -212c0 -76 -15 -134.333 -45 -175s-74 -61 -132 -61zM574.999 363c32 0 58.8311 7.66699 80.498 23
s34.834 35.333 39.501 60c-1.33301 38 -12.666 67 -33.999 87s-50 30 -86 30c-34 0 -61 -9.16699 -81 -27.5s-30 -42.833 -30 -73.5c0 -30 10 -54 30 -72s47 -27 81 -27z" />
    </font>
</defs>
</svg>
